VA – Dragon Attack: A Tribute to Queen (1997)

Download
VA - Dragon Attack: A Tribute to Queen (1997)

VA – Dragon Attack: A Tribute to Queen (1997)
EAC | Flac(Image) + Cue + Log & MP3 CBR 320Kbps
Triage Records, DERCD-091 | RU | ~ 302 or 101 Mb | Scans(png) -> 6.26 Mb
Hard Rock

Fans of the name guitarists will appreciate Dragon Attack: A Tribute to Queen for the assemblage. Present are Robbie Krieger (the Doors), Jake E. Lee, Yngwie Malmsteen, and many more. The standout track is Lemmy Kilmister (Motörhead), Ted Nugent, and Rudy Sarzo (Whitesnake) on "Tie Your Mother Down." While there is not one take of "Bohemian Rhapsody!," the star personnel is there. Among the bassists are Ricky Phillips (the Babys) and Tony Franklin (the Firm, Blue Murder). Vocal duties by Robin McAuley (Michael Schenker Group), Paul Shortino (Rough Cutt), Glenn Hughes (Black Sabbath), James LaBrie (Dream Theater), and others. Showing up on drums are Carmine Appice (Vanilla Fudge, Beck, Ozzy Osbourne, Rod Stewart), Eric Singer (KISS), and Tommy Aldridge (Whitesnake, Ozzy Osbourne, Black Oak Arkansas). Other guitarists include John Petrucci (Dream Theater) and Bruce Kulick (KISS). These are, of course only some of the musicians to be found here. Every one of the 11 tracks has a different lineup. The disc closes with "It’s Late," fusing Armored Saint and Anthrax members.

by Tom Schulte, allmusic

VA – Dragon Attack: A Tribute to Queen (1997):

VA - Dragon Attack: A Tribute to Queen (1997)

Tracklist:

01. I Want It All [0:04:07.66]
02. Sheer Heart Attack [0:03:28.31]
03. Another One Bites The Dust [0:03:26.32]
04. Save Me [0:04:12.64]
05. We Will Rock You [0:02:04.01]
06. We Are The Champions [0:03:40.40]
07. Tie Your Mother Down [0:03:46.60]
08. Get Down Make Love [0:04:11.01]
09. Keep Yourself Alive [0:03:49.52]
10. One Vision [0:03:45.42]
11. It’s Late [0:06:17.56]

EAC Log
Exact Audio Copy V0.99 prebeta 4 from 23. January 2008

EAC extraction logfile from 19. April 2009, 19:40

Queen, A Tribute To / Dragon Attack

Used drive : Optiarc DVD RW AD-7173A Adapter: 3 ID: 0

Read mode : Secure
Utilize accurate stream : Yes
Defeat audio cache : Yes
Make use of C2 pointers : No

Read offset correction : 48
Overread into Lead-In and Lead-Out : No
Fill up missing offset samples with silence : Yes
Delete leading and trailing silent blocks : No
Null samples used in CRC calculations : Yes
Used interface : Native Win32 interface for Win NT & 2000

Used output format : Internal WAV Routines
Sample format : 44.100 Hz; 16 Bit; Stereo

TOC of the extracted CD

Track | Start | Length | Start sector | End sector
––––––––––––––––––––––––––––-
1 | 0:00.00 | 4:07.66 | 0 | 18590
2 | 4:07.66 | 3:28.31 | 18591 | 34221
3 | 7:36.22 | 3:26.32 | 34222 | 49703
4 | 11:02.54 | 4:12.64 | 49704 | 68667
5 | 15:15.43 | 2:04.01 | 68668 | 77968
6 | 17:19.44 | 3:40.40 | 77969 | 94508
7 | 21:00.09 | 3:46.60 | 94509 | 111518
8 | 24:46.69 | 4:11.01 | 111519 | 130344
9 | 28:57.70 | 3:49.52 | 130345 | 147571
10 | 32:47.47 | 3:45.42 | 147572 | 164488
11 | 36:33.14 | 6:17.56 | 164489 | 192819

Range status and errors

Selected range

Filename C:Documents and SettingsЮрийРабочий столНовая папка 1Queen A Tribute To – Dragon AttackQueen, A Tribute To – Dragon Attack.wav

Peak level 94.4 %
Range quality 100.0 %
Copy CRC 0F6EF1CB
Copy OK

No errors occurred

AccurateRip summary

Track 1 not present in database
Track 2 not present in database
Track 3 not present in database
Track 4 not present in database
Track 5 not present in database
Track 6 not present in database
Track 7 not present in database
Track 8 not present in database
Track 9 not present in database
Track 10 not present in database
Track 11 not present in database

None of the tracks are present in the AccurateRip database

End of status report

DR Log
foobar2000 1.2.9 / Dynamic Range Meter 1.1.1
log date: 2017-07-11 16:09:21

––––––––––––––––––––––––––––––––––––––––
Analyzed: Queen, A Tribute To / Dragon Attack
––––––––––––––––––––––––––––––––––––––––

DR Peak RMS Duration Track
––––––––––––––––––––––––––––––––––––––––
DR11 -0.70 dB -13.08 dB 4:08 01-I Want It All
DR10 -0.70 dB -11.72 dB 3:28 02-Sheer Heart Attack
DR13 -0.70 dB -14.87 dB 3:26 03-Another One Bites The Dust
DR11 -0.70 dB -13.77 dB 4:13 04-Save Me
DR11 -0.70 dB -14.62 dB 2:04 05-We Will Rock You
DR11 -0.70 dB -13.92 dB 3:41 06-We Are The Champions
DR12 -0.50 dB -13.46 dB 3:47 07-Tie Your Mother Down
DR12 -0.70 dB -14.23 dB 4:11 08-Get Down Make Love
DR11 -0.70 dB -13.02 dB 3:50 09-Keep Yourself Alive
DR12 -0.70 dB -14.69 dB 3:46 10-One Vision
DR13 -0.70 dB -15.36 dB 6:18 11-It’s Late
––––––––––––––––––––––––––––––––––––––––

Number of tracks: 11
Official DR value: DR12

Samplerate: 44100 Hz
Channels: 2
Bits per sample: 16
Bitrate: 957 kbps
Codec: FLAC

CUETools Log
[CUETools log; Date: 11.07.2017 16:09:11; Version: 2.1.4]
[CTDB TOCID: wSmoc5NrfEkTsqD5y0Z0yRXJ0X4-] found.
Track | CTDB Status
1 | (3/4) Accurately ripped
2 | (3/4) Accurately ripped
3 | (4/4) Accurately ripped
4 | (3/4) Accurately ripped
5 | (4/4) Accurately ripped
6 | (3/4) Accurately ripped
7 | (3/4) Accurately ripped
8 | (3/4) Accurately ripped
9 | (3/4) Accurately ripped
10 | (3/4) Accurately ripped
11 | (4/4) Accurately ripped
[AccurateRip ID: 0010a368-009095fa-a70a0a0b] found.
Track [ CRC | V2 ] Status
01 [2e35bfec|c18446aa] (2+0/2) Accurately ripped
02 [cef5dcd1|72e22143] (2+0/2) Accurately ripped
03 [130b5d58|486a2688] (2+0/2) Accurately ripped
04 [078458f0|1fa538da] (2+0/2) Accurately ripped
05 [391a85e0|1e2aa1a3] (2+0/2) Accurately ripped
06 [4bc05d2b|c7fb9a67] (2+0/2) Accurately ripped
07 [189cb482|72c2901a] (2+0/2) Accurately ripped
08 [0557b76e|1e8bc97b] (2+0/2) Accurately ripped
09 [e4bc5489|f3fe5ced] (2+0/2) Accurately ripped
10 [c46a8ee6|6a64909f] (2+0/2) Accurately ripped
11 [9290c108|419ee0d8] (2+0/2) Accurately ripped

Track Peak [ CRC32 ] [W/O NULL] [ LOG ]
– 94,4 [0F6EF1CB] [25090114] CRC32
01 92,2 [C5E47495] [B42C7EF5]
02 92,2 [1E8B1031] [415105B5]
03 92,2 [9215DFFE] [8B1B6CD6]
04 92,2 [73E239D3] [835C6789]
05 92,2 [CDF751C6] [70048E15]
06 92,2 [3DB9A601] [91C8DC15]
07 94,4 [2E767606] [1D24C180]
08 92,2 [BAFDB038] [AF490A76]
09 92,2 [69C8678A] [2F560773]
10 92,2 [49165CFE] [719A9FC6]
11 92,2 [FFD4AF03] [2C59C16E]

VA - Dragon Attack: A Tribute to Queen (1997)

All thanks go to the original releaser

Queen in my Blog

Download VA – Dragon Attack: A Tribute to Queen (1997):

VA – Dragon Attack: A Tribute to Queen (1997) Download, Warez, DDL, Free, Full Album, Torrent, Legal.

Download