VA – Dragnet: Music From The Motion Picture Soundtrack (1987) [Re-Up]

Download
VA - Dragnet: Music From The Motion Picture Soundtrack (1987) [Re-Up]

VA – Dragnet: Music From The Motion Picture Soundtrack (1987)
EAC | FLAC (Image) + cue.+log ~ 230 Mb | Mp3, CBR320 kbps ~ 86 Mb | Scans ~ 49 Mb
Soundtrack, Score | Label: MCA | # MCAD-6210 | 00:37:25

Dragnet is a 1987 American buddy cop comedy film written and directed by Tom Mankiewicz in his directorial debut. Starring Dan Aykroyd and Tom Hanks, the film is based on the television crime drama of the same name. The screenplay, both a parody of and homage to the long-running television series, was written by Dan Aykroyd and Alan Zweibel. The original music score is by Ira Newborn.

British electronic group Art of Noise produced an update of the series’ original theme music for the title credits. They set the Dragnet theme against an electronic breakbeat and added soundbites from the film, such as Friday’s "Just the facts, ma’am," timed to the music. The theme won the 1987 Grammy Award for Best Rock Instrumental Performance.

The soundtrack includes an original song called "City of Crime," a rock/hip-hop hybrid collaboration performed by Aykroyd and Hanks with bassist/vocalist Glenn Hughes and guitarist Pat Thrall. The track is played over the film’s closing credits and had a promotional music video that featured Aykroyd and Hanks.

VA - Dragnet: Music From The Motion Picture Soundtrack (1987) [Re-Up]

Film at IMDB
Film at Wiki

Tracklist:

01. Patti LaBelle – Just The Facts (04:17)
02. Dan Akroyd, Tom Hanks, Glenn Hughes, Pat Thrall – City Of Crime (03:44)
03. Art of Noise – Dragnet (Danger Ahead/Dragnet March) (03:00)
04. New Edition – Helplessly In Love (03:05)
05. Dan Akroyd, Pat Thrall – Dance Or Die (03:43)
06. Ira Newborn – This Is The City/Danger Ahead/Dragnet March Medley (02:07)
07. Ira Newborn – Looking For Muzz (01:17)
08. Ira Newborn – Pagan Tension (02:13)
09. Ira Newborn – Pagan Fight (01:44)
10. Ira Newborn – Dairy Apologies (01:14)
11. Ira Newborn – Joe Gets Fired (01:23)
12. Ira Newborn – The Tank (02:45)
13. Ira Newborn – Dragnet End Credits (01:05)
14. Ira Newborn – Kill Me Instead (05:29)

EAC log
Exact Audio Copy V1.0 beta 3 from 29. August 2011

EAC extraction logfile from 18. May 2013, 16:23

Various Artists / Dragnet (MCAD-6210)

Used drive : BUFFALO Optical Drive Adapter: 2 ID: 0

Read mode : Secure
Utilize accurate stream : Yes
Defeat audio cache : Yes
Make use of C2 pointers : No

Read offset correction : 6
Overread into Lead-In and Lead-Out : No
Fill up missing offset samples with silence : Yes
Delete leading and trailing silent blocks : No
Null samples used in CRC calculations : Yes
Used interface : Native Win32 interface for Win NT & 2000

Used output format : User Defined Encoder
Selected bitrate : 1024 kBit/s
Quality : High
Add ID3 tag : No
Command line compressor : C:Program FilesExact Audio CopyFlacflac.exe
Additional command line options : -8 -V %source% -o %dest%

TOC of the extracted CD

Track | Start | Length | Start sector | End sector
––––––––––––––––––––––––––––-
1 | 0:00.00 | 4:18.07 | 0 | 19356
2 | 4:18.07 | 3:45.00 | 19357 | 36231
3 | 8:03.07 | 3:01.05 | 36232 | 49811
4 | 11:04.12 | 3:06.63 | 49812 | 63824
5 | 14:11.00 | 3:45.47 | 63825 | 80746
6 | 17:56.47 | 2:08.18 | 80747 | 90364
7 | 20:04.65 | 1:18.42 | 90365 | 96256
8 | 21:23.32 | 2:14.13 | 96257 | 106319
9 | 23:37.45 | 1:46.52 | 106320 | 114321
10 | 25:24.22 | 1:15.00 | 114322 | 119946
11 | 26:39.22 | 1:24.08 | 119947 | 126254
12 | 28:03.30 | 2:47.12 | 126255 | 138791
13 | 30:50.42 | 1:05.65 | 138792 | 143731
14 | 31:56.32 | 5:29.03 | 143732 | 168409

Range status and errors

Selected range

Filename H:GLENN HUGHESVarious Artists – Dragnet (MCAD-6210).wav

Peak level 100.0 %
Extraction speed 1.8 X
Range quality 100.0 %
Test CRC 24ABBFF5
Copy CRC 24ABBFF5
Copy OK

No errors occurred

AccurateRip summary

Track 1 accurately ripped (confidence 2) [B6FF1E5E] (AR v2)
Track 2 accurately ripped (confidence 2) [441EF807] (AR v2)
Track 3 accurately ripped (confidence 2) [69065052] (AR v2)
Track 4 accurately ripped (confidence 2) [83636430] (AR v2)
Track 5 accurately ripped (confidence 2) [5DB9B015] (AR v2)
Track 6 accurately ripped (confidence 2) [2173401B] (AR v2)
Track 7 accurately ripped (confidence 2) [27ED2D3E] (AR v2)
Track 8 accurately ripped (confidence 2) [619B7A95] (AR v2)
Track 9 accurately ripped (confidence 2) [86AD2F7F] (AR v2)
Track 10 accurately ripped (confidence 2) [85E7121D] (AR v2)
Track 11 accurately ripped (confidence 2) [8A8026EF] (AR v2)
Track 12 accurately ripped (confidence 2) [04798359] (AR v2)
Track 13 accurately ripped (confidence 2) [14F4EB50] (AR v2)
Track 14 accurately ripped (confidence 2) [A761C755] (AR v2)

All tracks accurately ripped

End of status report

==== Log checksum FF63F34964544162EEB706DB9ACB901C92A438F05ADA51DB70C1808E6C700CB6 ====

DR log
foobar2000 1.2 / Dynamic Range Meter 1.1.1
log date: 2013-10-22 17:05:09

––––––––––––––––––––––––––––––––––––––––
Analyzed: Art of Noise / Dragnet (MCAD-6210) (1)
Dan Akroyd, Pat Thrall / Dragnet (MCAD-6210) (2)
––––––––––––––––––––––––––––––––––––––––

DR Peak RMS Duration Track
––––––––––––––––––––––––––––––––––––––––
DR12 -0.75 dB -15.83 dB 3:01 03-Dragnet (Danger Ahead/Dragnet March)
DR12 -0.12 dB -15.86 dB 3:46 05-Dance Or Die
––––––––––––––––––––––––––––––––––––––––

Number of tracks: 2
Official DR value: DR12

Samplerate: 44100 Hz
Channels: 2
Bits per sample: 16
Bitrate: 860 kbps
Codec: FLAC
================================================================================

––––––––––––––––––––––––––––––––––––––––
Analyzed: Dan Akroyd, Tom Hanks, Glenn Hughes, Pat Thrall / Dragnet (MCAD-6210) (1)
Ira Newborn / Dragnet (MCAD-6210) (2-10)
––––––––––––––––––––––––––––––––––––––––

DR Peak RMS Duration Track
––––––––––––––––––––––––––––––––––––––––
DR14 0.00 dB -16.63 dB 3:45 02-City Of Crime
DR11 -2.18 dB -17.05 dB 2:08 06-This Is The City/Danger Ahead/Dragnet March Medley
DR13 -4.22 dB -20.03 dB 1:19 07-Looking For Muzz
DR12 -2.31 dB -18.69 dB 2:14 08-Pagan Tension
DR13 -1.98 dB -17.97 dB 1:47 09-Pagan Fight
DR11 -2.88 dB -18.39 dB 1:15 10-Dairy Apologies
DR10 -5.30 dB -17.52 dB 1:24 11-Joe Gets Fired
DR13 -2.14 dB -17.94 dB 2:47 12-The Tank
DR12 -3.28 dB -17.96 dB 1:06 13-Dragnet End Credits
DR12 -1.00 dB -16.29 dB 5:29 14-Kill Me Instead
––––––––––––––––––––––––––––––––––––––––

Number of tracks: 10
Official DR value: DR12

Samplerate: 44100 Hz
Channels: 2
Bits per sample: 16
Bitrate: 860 kbps
Codec: FLAC
================================================================================

––––––––––––––––––––––––––––––––––––––––
Statistics for: 04-Helplessly In Love
Number of samples: 8239644
Duration: 3:07
––––––––––––––––––––––––––––––––––––––––

Left Right

Peak Value: -3.91 dB –- -3.39 dB
Avg RMS: -19.93 dB –- -19.81 dB
DR channel: 12.59 dB –- 12.26 dB
––––––––––––––––––––––––––––––––––––––––

Official DR Value: DR12

Samplerate: 44100 Hz
Channels: 2
Bits per sample: 16
Bitrate: 860 kbps
Codec: FLAC
================================================================================
––––––––––––––––––––––––––––––––––––––––
Statistics for: 01-Just The Facts
Number of samples: 11381916
Duration: 4:18
––––––––––––––––––––––––––––––––––––––––

Left Right

Peak Value: -1.41 dB –- -0.22 dB
Avg RMS: -17.36 dB –- -17.30 dB
DR channel: 14.25 dB –- 14.44 dB
––––––––––––––––––––––––––––––––––––––––

Official DR Value: DR14

Samplerate: 44100 Hz
Channels: 2
Bits per sample: 16
Bitrate: 860 kbps
Codec: FLAC
================================================================================

VA - Dragnet: Music From The Motion Picture Soundtrack (1987) [Re-Up]

VA - Dragnet: Music From The Motion Picture Soundtrack (1987) [Re-Up]

All thanks to original uploader – Blackkkov

More Movies & Soundtracks in Efgrapha Blog

VA – Dragnet: Music From The Motion Picture Soundtrack (1987) [Re-Up] Download, Warez, DDL, Free, Full Album, Torrent, Legal.

Download