VA – Down Home Blues: Detroit Special (2016)

Download
VA - Down Home Blues: Detroit Special (2016)

VA – Down Home Blues: Detroit Special (2016)
EAC Rip | FLAC (Tracks) +cue, log, artworks – 1.26 GB | MP3 CBR 320 kbps – 532 MB | 03:45:20
Blues, Rhythm & Blues, Oldies | Label: Wienerworld | Release Year: 2016

Down Home Blues Detroit is THE definitive collection of blues music from Detroit-based musicians from the late 1940s to the early 1960s. It features over 20 artists who were influential in developing the Detroit blues scene, including John Lee Hooker, Bo Bo Jenkins, Sam Kelly, Eddie Kirkland, Little Sonny, Detroit Count, Eddie Burns, Baby Boy Warren, Big Ed And His Combo and many more. This three CD set, packaged in a deluxe digipak with an outer slip case, features 82 rare tracks, all digitally remastered, with some unissued recordings and others which have not been available for decades. Includes a 48 page book featuring an essay on the origins of Detroit music by renowned blues researcher and historian Mike Rowe, complete with rare photos, tracklisting and full sessionography. Detroit, Michigan. A northern city – smaller but akin to Chicago – where country southern blacks migrated to find work and found themselves within new urban surroundings. Amongst their numbers were blues musicians who took with them their traditional sounds. It began to develop with a more aggressive feel which grew with them in their new urban life surroundings. There are 21 different artists here. There is extreme. There are selections of players who encompassed into small combo group recordings to the solo player whose sound without doubt was perfect without any extra accompaniment. There are artists here who made many more commercial recordings than others, who maybe got just one record out. By luck there are some unissued recordings – from unearthed rare acetate discs. The definitive three album collection of Down Home Blues from Detroit!

TRACKLIST

CD1

01. John Lee Hooker – Miss Lorraine
02. John Lee Hooker – Talkin’ Boogie
03. L C Green – Come Back Sugar Mama
04. L C Green – Little Machine
05. Slim Pickens – Papa’s Boogie
06. Baby Boy Warren – My Special Friend Blues
07. Baby Boy Warren – Nervy Woman Blues
08. Eddie Burns – Making A Fool Out Of Me
09. Eddie Burns – Squeeze Me Baby
10. Bobo Jenkins – Democrat Blues (Democrat Man)
11. Bobo Jenkins – Bad Luck And Trouble
12. Calvin Frazier – Lillie Mae (Version 1)
13. Calvin Frazier – Rockhouse
14. John Brim – Bus Driver
15. L C Green – When The Sun Is Shining
16. L C Green – Hold Me In Your Arms
17. Clarence Posey – Rockin’ Chair Boogie
18. Detroit Slim – Nelly Mae
19. Baby Boy Warren – Lonesome Cabin Blues
20. Baby Boy Warren – Don’t Want No Skinny Woman
21. Eddie Burns – Gangster Blues
22. Eddie Burns – Grievin’ Blues
23. Sam Kelly – Ramblin’ Around Blues
24. Martee Bradley – Now I’ll Have To Sing The Blues
25. Martee Bradley – Winter Time Is Comin’
26. Baby Boy Warren – Taxi Driver Blues
27. Baby Boy Warren – Bad Lover Blues

EAC
Exact Audio Copy V1.2 from 12. August 2016

EAC extraction logfile from 5. November 2016, 16:42

Various Artists / Down Home Blues: Detroit Special (Disc 1)

Used drive : TSSTcorpCDDVDW SH-224BB Adapter: 1 ID: 0

Read mode : Secure
Utilize accurate stream : Yes
Defeat audio cache : Yes
Make use of C2 pointers : No

Read offset correction : 6
Overread into Lead-In and Lead-Out : No
Fill up missing offset samples with silence : Yes
Delete leading and trailing silent blocks : No
Null samples used in CRC calculations : Yes
Used interface : Native Win32 interface for Win NT & 2000
Gap handling : Appended to previous track

Used output format : User Defined Encoder
Selected bitrate : 768 kBit/s
Quality : High
Add ID3 tag : No
Command line compressor : C:Program Files (x86)Exact Audio CopyFlacflac.exe
Additional command line options : -8 -V -T "ARTIST=%artist%" -T "TITLE=%title%" -T "ALBUM=%albumtitle%" -T "DATE=%year%" -T "TRACKNUMBER=%tracknr%" -T "TOTALTRACKS=%numtracks%" -T "GENRE=%genre%" -T "ALBUMARTIST=%albumartist%" -T "ALBUM ARTIST=%albumartist%" -T "COMMENT=EAC Secure Mode, Test & Copy, AccurateRip, FLAC -8" %source%

TOC of the extracted CD

Track | Start | Length | Start sector | End sector
––––––––––––––––––––––––––––-
1 | 0:00.00 | 3:05.49 | 0 | 13923
2 | 3:05.49 | 3:08.00 | 13924 | 28023
3 | 6:13.49 | 2:19.54 | 28024 | 38502
4 | 8:33.28 | 2:34.06 | 38503 | 50058
5 | 11:07.34 | 2:40.11 | 50059 | 62069
6 | 13:47.45 | 2:39.58 | 62070 | 74052
7 | 16:27.28 | 2:56.58 | 74053 | 87310
8 | 19:24.11 | 2:58.58 | 87311 | 100718
9 | 22:22.69 | 2:59.11 | 100719 | 114154
10 | 25:22.05 | 3:13.07 | 114155 | 128636
11 | 28:35.12 | 2:45.12 | 128637 | 141023
12 | 31:20.24 | 3:20.23 | 141024 | 156046
13 | 34:40.47 | 3:02.43 | 156047 | 169739
14 | 37:43.15 | 2:55.69 | 169740 | 182933
15 | 40:39.09 | 2:32.21 | 182934 | 194354
16 | 43:11.30 | 2:35.67 | 194355 | 206046
17 | 45:47.22 | 2:57.51 | 206047 | 219372
18 | 48:44.73 | 3:40.12 | 219373 | 235884
19 | 52:25.10 | 2:59.69 | 235885 | 249378
20 | 55:25.04 | 3:11.23 | 249379 | 263726
21 | 58:36.27 | 2:35.45 | 263727 | 275396
22 | 61:11.72 | 2:47.27 | 275397 | 287948
23 | 63:59.24 | 2:38.18 | 287949 | 299816
24 | 66:37.42 | 2:16.56 | 299817 | 310072
25 | 68:54.23 | 2:44.08 | 310073 | 322380
26 | 71:38.31 | 2:34.62 | 322381 | 333992
27 | 74:13.18 | 3:17.14 | 333993 | 348781

Track 1

Filename C:RipsVarious Artists – Down Home Blues Detroit Special (2016) [FLAC]CD11 – John Lee Hooker – Miss Lorraine.wav

Pre-gap length 0:00:02.00

Peak level 84.5 %
Extraction speed 1.8 X
Track quality 100.0 %
Test CRC 105FBE29
Copy CRC 105FBE29
Track not present in AccurateRip database
Copy OK

Track 2

Filename C:RipsVarious Artists – Down Home Blues Detroit Special (2016) [FLAC]CD12 – John Lee Hooker – Talkin’ Boogie.wav

Peak level 74.0 %
Extraction speed 1.9 X
Track quality 100.0 %
Test CRC 9AF5A4AE
Copy CRC 9AF5A4AE
Track not present in AccurateRip database
Copy OK

Track 3

Filename C:RipsVarious Artists – Down Home Blues Detroit Special (2016) [FLAC]CD13 – L C Green – Come Back Sugar Mama.wav

Peak level 98.8 %
Extraction speed 1.9 X
Track quality 100.0 %
Test CRC FCD5EABC
Copy CRC FCD5EABC
Track not present in AccurateRip database
Copy OK

Track 4

Filename C:RipsVarious Artists – Down Home Blues Detroit Special (2016) [FLAC]CD14 – L C Green – Little Machine.wav

Peak level 98.8 %
Extraction speed 2.0 X
Track quality 100.0 %
Test CRC A46A4BAD
Copy CRC A46A4BAD
Track not present in AccurateRip database
Copy OK

Track 5

Filename C:RipsVarious Artists – Down Home Blues Detroit Special (2016) [FLAC]CD15 – Slim Pickens – Papa’s Boogie.wav

Peak level 96.9 %
Extraction speed 2.1 X
Track quality 100.0 %
Test CRC DDC6C652
Copy CRC DDC6C652
Track not present in AccurateRip database
Copy OK

Track 6

Filename C:RipsVarious Artists – Down Home Blues Detroit Special (2016) [FLAC]CD16 – Baby Boy Warren – My Special Friend Blues.wav

Peak level 98.8 %
Extraction speed 2.2 X
Track quality 100.0 %
Test CRC 603E7F17
Copy CRC 603E7F17
Track not present in AccurateRip database
Copy OK

Track 7

Filename C:RipsVarious Artists – Down Home Blues Detroit Special (2016) [FLAC]CD17 – Baby Boy Warren – Nervy Woman Blues.wav

Peak level 98.8 %
Extraction speed 2.4 X
Track quality 100.0 %
Test CRC BDEA8425
Copy CRC BDEA8425
Track not present in AccurateRip database
Copy OK

Track 8

Filename C:RipsVarious Artists – Down Home Blues Detroit Special (2016) [FLAC]CD18 – Eddie Burns – Making A Fool Out Of Me.wav

Peak level 98.8 %
Extraction speed 2.5 X
Track quality 100.0 %
Test CRC C6E2AA09
Copy CRC C6E2AA09
Track not present in AccurateRip database
Copy OK

Track 9

Filename C:RipsVarious Artists – Down Home Blues Detroit Special (2016) [FLAC]CD19 – Eddie Burns – Squeeze Me Baby.wav

Peak level 98.8 %
Extraction speed 2.5 X
Track quality 100.0 %
Test CRC BFB7BD7E
Copy CRC BFB7BD7E
Track not present in AccurateRip database
Copy OK

Track 10

Filename C:RipsVarious Artists – Down Home Blues Detroit Special (2016) [FLAC]CD110 – Bobo Jenkins – Democrat Blues (Democrat Man).wav

Peak level 98.8 %
Extraction speed 2.7 X
Track quality 100.0 %
Test CRC 44F9C43C
Copy CRC 44F9C43C
Track not present in AccurateRip database
Copy OK

Track 11

Filename C:RipsVarious Artists – Down Home Blues Detroit Special (2016) [FLAC]CD111 – Bobo Jenkins – Bad Luck And Trouble.wav

Peak level 98.8 %
Extraction speed 2.7 X
Track quality 100.0 %
Test CRC 426BB0EC
Copy CRC 426BB0EC
Track not present in AccurateRip database
Copy OK

Track 12

Filename C:RipsVarious Artists – Down Home Blues Detroit Special (2016) [FLAC]CD112 – Calvin Frazier – Lillie Mae (Version 1).wav

Peak level 98.8 %
Extraction speed 2.8 X
Track quality 100.0 %
Test CRC B9364694
Copy CRC B9364694
Track not present in AccurateRip database
Copy OK

Track 13

Filename C:RipsVarious Artists – Down Home Blues Detroit Special (2016) [FLAC]CD113 – Calvin Frazier – Rockhouse.wav

Peak level 98.8 %
Extraction speed 2.1 X
Track quality 99.9 %
Test CRC 5FBD6E90
Copy CRC 5FBD6E90
Track not present in AccurateRip database
Copy OK

Track 14

Filename C:RipsVarious Artists – Down Home Blues Detroit Special (2016) [FLAC]CD114 – John Brim – Bus Driver.wav

Peak level 98.8 %
Extraction speed 2.1 X
Track quality 99.9 %
Test CRC 8E892C32
Copy CRC 8E892C32
Track not present in AccurateRip database
Copy OK

Track 15

Filename C:RipsVarious Artists – Down Home Blues Detroit Special (2016) [FLAC]CD115 – L C Green – When The Sun Is Shining.wav

Peak level 98.8 %
Extraction speed 2.9 X
Track quality 100.0 %
Test CRC BAC7F3E4
Copy CRC BAC7F3E4
Track not present in AccurateRip database
Copy OK

Track 16

Filename C:RipsVarious Artists – Down Home Blues Detroit Special (2016) [FLAC]CD116 – L C Green – Hold Me In Your Arms.wav

Peak level 98.8 %
Extraction speed 3.0 X
Track quality 100.0 %
Test CRC 5CE41FDB
Copy CRC 5CE41FDB
Track not present in AccurateRip database
Copy OK

Track 17

Filename C:RipsVarious Artists – Down Home Blues Detroit Special (2016) [FLAC]CD117 – Clarence Posey – Rockin’ Chair Boogie.wav

Peak level 98.8 %
Extraction speed 3.1 X
Track quality 100.0 %
Test CRC 6645F973
Copy CRC 6645F973
Track not present in AccurateRip database
Copy OK

Track 18

Filename C:RipsVarious Artists – Down Home Blues Detroit Special (2016) [FLAC]CD118 – Detroit Slim – Nelly Mae.wav

Peak level 98.8 %
Extraction speed 3.3 X
Track quality 100.0 %
Test CRC 8768B036
Copy CRC 8768B036
Track not present in AccurateRip database
Copy OK

Track 19

Filename C:RipsVarious Artists – Down Home Blues Detroit Special (2016) [FLAC]CD119 – Baby Boy Warren – Lonesome Cabin Blues.wav

Peak level 98.8 %
Extraction speed 2.3 X
Track quality 99.9 %
Test CRC A1DF743A
Copy CRC A1DF743A
Track not present in AccurateRip database
Copy OK

Track 20

Filename C:RipsVarious Artists – Down Home Blues Detroit Special (2016) [FLAC]CD120 – Baby Boy Warren – Don’t Want No Skinny Woman.wav

Peak level 98.8 %
Extraction speed 3.4 X
Track quality 100.0 %
Test CRC F6852113
Copy CRC F6852113
Track not present in AccurateRip database
Copy OK

Track 21

Filename C:RipsVarious Artists – Down Home Blues Detroit Special (2016) [FLAC]CD121 – Eddie Burns – Gangster Blues.wav

Peak level 98.8 %
Extraction speed 3.3 X
Track quality 100.0 %
Test CRC D1BAD0BD
Copy CRC D1BAD0BD
Track not present in AccurateRip database
Copy OK

Track 22

Filename C:RipsVarious Artists – Down Home Blues Detroit Special (2016) [FLAC]CD122 – Eddie Burns – Grievin’ Blues.wav

Peak level 98.8 %
Extraction speed 3.4 X
Track quality 100.0 %
Test CRC DA5DDA9D
Copy CRC DA5DDA9D
Track not present in AccurateRip database
Copy OK

Track 23

Filename C:RipsVarious Artists – Down Home Blues Detroit Special (2016) [FLAC]CD123 – Sam Kelly – Ramblin’ Around Blues.wav

Peak level 79.4 %
Extraction speed 3.4 X
Track quality 100.0 %
Test CRC FCF6FF47
Copy CRC FCF6FF47
Track not present in AccurateRip database
Copy OK

Track 24

Filename C:RipsVarious Artists – Down Home Blues Detroit Special (2016) [FLAC]CD124 – Martee Bradley – Now I’ll Have To Sing The Blues.wav

Peak level 86.1 %
Extraction speed 2.0 X
Track quality 99.9 %
Test CRC F1F9FE53
Copy CRC F1F9FE53
Track not present in AccurateRip database
Copy OK

Track 25

Filename C:RipsVarious Artists – Down Home Blues Detroit Special (2016) [FLAC]CD125 – Martee Bradley – Winter Time Is Comin’.wav

Peak level 98.8 %
Extraction speed 3.6 X
Track quality 100.0 %
Test CRC 9140AD93
Copy CRC 9140AD93
Track not present in AccurateRip database
Copy OK

Track 26

Filename C:RipsVarious Artists – Down Home Blues Detroit Special (2016) [FLAC]CD126 – Baby Boy Warren – Taxi Driver Blues.wav

Peak level 98.8 %
Extraction speed 3.5 X
Track quality 100.0 %
Test CRC 8B98AA9D
Copy CRC 8B98AA9D
Track not present in AccurateRip database
Copy OK

Track 27

Filename C:RipsVarious Artists – Down Home Blues Detroit Special (2016) [FLAC]CD127 – Baby Boy Warren – Bad Lover Blues.wav

Peak level 98.8 %
Extraction speed 2.5 X
Track quality 99.9 %
Test CRC F770506E
Copy CRC F770506E
Track not present in AccurateRip database
Copy OK

None of the tracks are present in the AccurateRip database

No errors occurred

End of status report

–– CUETools DB Plugin V2.1.6

[CTDB TOCID: URlFfZ2In7xC0mLV1Bip.s2w04g-] disk not present in database
Submit result: URlFfZ2In7xC0mLV1Bip.s2w04g- has been uploaded

==== Log checksum 30E3F91069D156455325B5D19D4B88814E0E06369D32F0794F66945632B46E02 ====

CD2

01. John Lee Hooker – Graveyard Blues
02. John Lee Hooker – I Love To Boogie
03. L C Green – Little School Girl
04. L C Green – Remember Way Back
05. Eddie Burns – Superstition
06. Eddie Burns – Biscuit Baking Woman
07. Baby Boy Warren – Forgive Me Darling
08. Baby Boy Warren – Please Don’t Think I’m Nosey
09. Harvey Hill Jr – She Fool Me
10. Harvey Hill Jr – Boogie Woogie Woman
11. Calvin Frazier – Lilly Mae (Version 2)
12. Henry Smith – Dog Me Blues
13. Bobo Jenkins – Baby Don’t You Want To Go
14. Bobo Jenkins – Ten Below Zero
15. Baby Boy Warren – I Got Lucky
16. Baby Boy Warren – Let’s Renew Our Love
17. James Walton – Papa Doo
18. Earl Chatman – Loving You Baby
19. Detroit Count – Parrot Lounge
20. Detroit Count – Detroit Boogie
21. Bobo Jenkins – Seasick And Waterbound
22. Big Jack Reynolds – Pitch A Boogie Woogie
23. Calvin Frazier – Lilly Mae (Version 3)
24. Baby Boy Warren – Mattie Mae
25. Baby Boy Warren – Santa Fe
26. Little Sonny – Hastings Street After Hours
27. Little Sonny – Love You Pretty Baby
28. John Lee Hooker – Have Mercy On Me

EAC
Exact Audio Copy V1.2 from 12. August 2016

EAC extraction logfile from 5. November 2016, 19:36

Various Artists / Down Home Blues: Detroit Special (Disc 2)

Used drive : TSSTcorpCDDVDW SH-224BB Adapter: 1 ID: 0

Read mode : Secure
Utilize accurate stream : Yes
Defeat audio cache : Yes
Make use of C2 pointers : No

Read offset correction : 6
Overread into Lead-In and Lead-Out : No
Fill up missing offset samples with silence : Yes
Delete leading and trailing silent blocks : No
Null samples used in CRC calculations : Yes
Used interface : Native Win32 interface for Win NT & 2000
Gap handling : Appended to previous track

Used output format : User Defined Encoder
Selected bitrate : 768 kBit/s
Quality : High
Add ID3 tag : No
Command line compressor : C:Program Files (x86)Exact Audio CopyFlacflac.exe
Additional command line options : -8 -V -T "ARTIST=%artist%" -T "TITLE=%title%" -T "ALBUM=%albumtitle%" -T "DATE=%year%" -T "TRACKNUMBER=%tracknr%" -T "TOTALTRACKS=%numtracks%" -T "GENRE=%genre%" -T "ALBUMARTIST=%albumartist%" -T "ALBUM ARTIST=%albumartist%" -T "COMMENT=EAC Secure Mode, Test & Copy, AccurateRip, FLAC -8" %source%

TOC of the extracted CD

Track | Start | Length | Start sector | End sector
––––––––––––––––––––––––––––-
1 | 0:00.00 | 3:15.13 | 0 | 14637
2 | 3:15.13 | 3:13.27 | 14638 | 29139
3 | 6:28.40 | 2:19.18 | 29140 | 39582
4 | 8:47.58 | 3:11.01 | 39583 | 53908
5 | 11:58.59 | 2:42.00 | 53909 | 66058
6 | 14:40.59 | 2:35.14 | 66059 | 77697
7 | 17:15.73 | 2:36.11 | 77698 | 89408
8 | 19:52.09 | 2:32.27 | 89409 | 100835
9 | 22:24.36 | 2:52.73 | 100836 | 113808
10 | 25:17.34 | 2:39.43 | 113809 | 125776
11 | 27:57.02 | 2:30.04 | 125777 | 137030
12 | 30:27.06 | 2:59.54 | 137031 | 150509
13 | 33:26.60 | 2:33.26 | 150510 | 162010
14 | 36:00.11 | 2:12.66 | 162011 | 171976
15 | 38:13.02 | 2:59.72 | 171977 | 185473
16 | 41:12.74 | 3:06.67 | 185474 | 199490
17 | 44:19.66 | 2:50.16 | 199491 | 212256
18 | 47:10.07 | 2:10.05 | 212257 | 222011
19 | 49:20.12 | 0:59.30 | 222012 | 226466
20 | 50:19.42 | 2:38.08 | 226467 | 238324
21 | 52:57.50 | 3:17.32 | 238325 | 253131
22 | 56:15.07 | 2:15.32 | 253132 | 263288
23 | 58:30.39 | 2:31.42 | 263289 | 274655
24 | 61:02.06 | 2:48.72 | 274656 | 287327
25 | 63:51.03 | 2:28.28 | 287328 | 298455
26 | 66:19.31 | 2:20.02 | 298456 | 308957
27 | 68:39.33 | 2:27.25 | 308958 | 320007
28 | 71:06.58 | 3:28.49 | 320008 | 335656

Track 1

Filename C:RipsVarious Artists – Down Home Blues Detroit Special (2016) [FLAC]CD21 – John Lee Hooker – Graveyard Blues.wav

Pre-gap length 0:00:02.00

Peak level 97.7 %
Extraction speed 1.5 X
Track quality 99.9 %
Test CRC F680D957
Copy CRC F680D957
Track not present in AccurateRip database
Copy OK

Track 2

Filename C:RipsVarious Artists – Down Home Blues Detroit Special (2016) [FLAC]CD22 – John Lee Hooker – I Love To Boogie.wav

Peak level 97.7 %
Extraction speed 1.8 X
Track quality 100.0 %
Test CRC 4E2A3ADB
Copy CRC 4E2A3ADB
Track not present in AccurateRip database
Copy OK

Track 3

Filename C:RipsVarious Artists – Down Home Blues Detroit Special (2016) [FLAC]CD23 – L C Green – Little School Girl.wav

Peak level 97.7 %
Extraction speed 1.9 X
Track quality 100.0 %
Test CRC 98D45372
Copy CRC 98D45372
Track not present in AccurateRip database
Copy OK

Track 4

Filename C:RipsVarious Artists – Down Home Blues Detroit Special (2016) [FLAC]CD24 – L C Green – Remember Way Back.wav

Peak level 97.7 %
Extraction speed 2.1 X
Track quality 100.0 %
Test CRC 39D641E8
Copy CRC 39D641E8
Track not present in AccurateRip database
Copy OK

Track 5

Filename C:RipsVarious Artists – Down Home Blues Detroit Special (2016) [FLAC]CD25 – Eddie Burns – Superstition.wav

Peak level 97.7 %
Extraction speed 1.7 X
Track quality 99.9 %
Test CRC 383D88D2
Copy CRC 383D88D2
Track not present in AccurateRip database
Copy OK

Track 6

Filename C:RipsVarious Artists – Down Home Blues Detroit Special (2016) [FLAC]CD26 – Eddie Burns – Biscuit Baking Woman.wav

Peak level 97.7 %
Extraction speed 2.1 X
Track quality 100.0 %
Test CRC 2E15EBF4
Copy CRC 2E15EBF4
Track not present in AccurateRip database
Copy OK

Track 7

Filename C:RipsVarious Artists – Down Home Blues Detroit Special (2016) [FLAC]CD27 – Baby Boy Warren – Forgive Me Darling.wav

Peak level 97.7 %
Extraction speed 2.2 X
Track quality 100.0 %
Test CRC 6868B1C1
Copy CRC 6868B1C1
Track not present in AccurateRip database
Copy OK

Track 8

Filename C:RipsVarious Artists – Down Home Blues Detroit Special (2016) [FLAC]CD28 – Baby Boy Warren – Please Don’t Think I’m Nosey.wav

Peak level 97.7 %
Extraction speed 1.7 X
Track quality 99.9 %
Test CRC 35803212
Copy CRC 35803212
Track not present in AccurateRip database
Copy OK

Track 9

Filename C:RipsVarious Artists – Down Home Blues Detroit Special (2016) [FLAC]CD29 – Harvey Hill Jr – She Fool Me.wav

Peak level 97.7 %
Extraction speed 1.9 X
Track quality 99.9 %
Test CRC 4FB45514
Copy CRC 4FB45514
Track not present in AccurateRip database
Copy OK

Track 10

Filename C:RipsVarious Artists – Down Home Blues Detroit Special (2016) [FLAC]CD210 – Harvey Hill Jr – Boogie Woogie Woman.wav

Peak level 97.7 %
Extraction speed 2.5 X
Track quality 100.0 %
Test CRC 3D6BD491
Copy CRC 3D6BD491
Track not present in AccurateRip database
Copy OK

Track 11

Filename C:RipsVarious Artists – Down Home Blues Detroit Special (2016) [FLAC]CD211 – Calvin Frazier – Lilly Mae (Version 2).wav

Peak level 97.7 %
Extraction speed 1.8 X
Track quality 99.9 %
Test CRC 1325B137
Copy CRC 1325B137
Track not present in AccurateRip database
Copy OK

Track 12

Filename C:RipsVarious Artists – Down Home Blues Detroit Special (2016) [FLAC]CD212 – Henry Smith – Dog Me Blues.wav

Peak level 97.7 %
Extraction speed 2.7 X
Track quality 100.0 %
Test CRC 5B49CB17
Copy CRC 5B49CB17
Track not present in AccurateRip database
Copy OK

Track 13

Filename C:RipsVarious Artists – Down Home Blues Detroit Special (2016) [FLAC]CD213 – Bobo Jenkins – Baby Don’t You Want To Go.wav

Peak level 97.7 %
Extraction speed 1.9 X
Track quality 99.9 %
Test CRC 3CD7CF55
Copy CRC 3CD7CF55
Track not present in AccurateRip database
Copy OK

Track 14

Filename C:RipsVarious Artists – Down Home Blues Detroit Special (2016) [FLAC]CD214 – Bobo Jenkins – Ten Below Zero.wav

Peak level 97.7 %
Extraction speed 2.7 X
Track quality 100.0 %
Test CRC D0589BD9
Copy CRC D0589BD9
Track not present in AccurateRip database
Copy OK

Track 15

Filename C:RipsVarious Artists – Down Home Blues Detroit Special (2016) [FLAC]CD215 – Baby Boy Warren – I Got Lucky.wav

Peak level 97.7 %
Extraction speed 2.8 X
Track quality 100.0 %
Test CRC 4FFBCD8A
Copy CRC 4FFBCD8A
Track not present in AccurateRip database
Copy OK

Track 16

Filename C:RipsVarious Artists – Down Home Blues Detroit Special (2016) [FLAC]CD216 – Baby Boy Warren – Let’s Renew Our Love.wav

Peak level 97.7 %
Extraction speed 2.2 X
Track quality 99.9 %
Test CRC B37BDBE0
Copy CRC B37BDBE0
Track not present in AccurateRip database
Copy OK

Track 17

Filename C:RipsVarious Artists – Down Home Blues Detroit Special (2016) [FLAC]CD217 – James Walton – Papa Doo.wav

Peak level 97.7 %
Extraction speed 3.0 X
Track quality 100.0 %
Test CRC 64AB794A
Copy CRC 64AB794A
Track not present in AccurateRip database
Copy OK

Track 18

Filename C:RipsVarious Artists – Down Home Blues Detroit Special (2016) [FLAC]CD218 – Earl Chatman – Loving You Baby.wav

Peak level 97.7 %
Extraction speed 2.9 X
Track quality 100.0 %
Test CRC 68BD054D
Copy CRC 68BD054D
Track not present in AccurateRip database
Copy OK

Track 19

Filename C:RipsVarious Artists – Down Home Blues Detroit Special (2016) [FLAC]CD219 – Detroit Count – Parrot Lounge.wav

Peak level 97.7 %
Extraction speed 1.2 X
Track quality 99.8 %
Test CRC 38153F5C
Copy CRC 38153F5C
Track not present in AccurateRip database
Copy OK

Track 20

Filename C:RipsVarious Artists – Down Home Blues Detroit Special (2016) [FLAC]CD220 – Detroit Count – Detroit Boogie.wav

Peak level 97.7 %
Extraction speed 3.1 X
Track quality 100.0 %
Test CRC 0E3D0CB5
Copy CRC 0E3D0CB5
Track not present in AccurateRip database
Copy OK

Track 21

Filename C:RipsVarious Artists – Down Home Blues Detroit Special (2016) [FLAC]CD221 – Bobo Jenkins – Seasick And Waterbound.wav

Peak level 97.7 %
Extraction speed 3.3 X
Track quality 100.0 %
Test CRC 382EB724
Copy CRC 382EB724
Track not present in AccurateRip database
Copy OK

Track 22

Filename C:RipsVarious Artists – Down Home Blues Detroit Special (2016) [FLAC]CD222 – Big Jack Reynolds – Pitch A Boogie Woogie.wav

Peak level 91.7 %
Extraction speed 2.0 X
Track quality 99.9 %
Test CRC 8CB1D0AB
Copy CRC 8CB1D0AB
Track not present in AccurateRip database
Copy OK

Track 23

Filename C:RipsVarious Artists – Down Home Blues Detroit Special (2016) [FLAC]CD223 – Calvin Frazier – Lilly Mae (Version 3).wav

Peak level 97.7 %
Extraction speed 3.2 X
Track quality 100.0 %
Test CRC 248C2144
Copy CRC 248C2144
Track not present in AccurateRip database
Copy OK

Track 24

Filename C:RipsVarious Artists – Down Home Blues Detroit Special (2016) [FLAC]CD224 – Baby Boy Warren – Mattie Mae.wav

Peak level 97.7 %
Extraction speed 2.2 X
Track quality 99.9 %
Test CRC 4FCA8299
Copy CRC 4FCA8299
Track not present in AccurateRip database
Copy OK

Track 25

Filename C:RipsVarious Artists – Down Home Blues Detroit Special (2016) [FLAC]CD225 – Baby Boy Warren – Santa Fe.wav

Peak level 97.7 %
Extraction speed 2.1 X
Track quality 99.9 %
Test CRC 9F0A6DD7
Copy CRC 9F0A6DD7
Track not present in AccurateRip database
Copy OK

Track 26

Filename C:RipsVarious Artists – Down Home Blues Detroit Special (2016) [FLAC]CD226 – Little Sonny – Hastings Street After Hours.wav

Peak level 97.7 %
Extraction speed 3.3 X
Track quality 100.0 %
Test CRC 028E11BB
Copy CRC 028E11BB
Track not present in AccurateRip database
Copy OK

Track 27

Filename C:RipsVarious Artists – Down Home Blues Detroit Special (2016) [FLAC]CD227 – Little Sonny – Love You Pretty Baby.wav

Peak level 97.7 %
Extraction speed 3.4 X
Track quality 100.0 %
Test CRC D2E14290
Copy CRC D2E14290
Track not present in AccurateRip database
Copy OK

Track 28

Filename C:RipsVarious Artists – Down Home Blues Detroit Special (2016) [FLAC]CD228 – John Lee Hooker – Have Mercy On Me.wav

Peak level 97.7 %
Extraction speed 3.6 X
Track quality 100.0 %
Test CRC 76A7FD2B
Copy CRC 76A7FD2B
Track not present in AccurateRip database
Copy OK

None of the tracks are present in the AccurateRip database

No errors occurred

End of status report

–– CUETools DB Plugin V2.1.6

[CTDB TOCID: TS2RYHEp7YqaRHoDEsuzpcnTtS4-] disk not present in database
Submit result: TS2RYHEp7YqaRHoDEsuzpcnTtS4- has been uploaded

==== Log checksum 1ADD635286CDBFAF6DABFEE7BB1A4C601B54B5DB3D610DFBF6476976CB63AFD8 ====

CD3

01. Baby Boy Warren – Somebody Put Bad Luck On Me
02. Baby Boy Warren – Stop Breaking Down
03. Little Sonny – Love Shock
04. Little Sonny – I’ll Love You Baby Until The Day I Die
05. Eddie Kirkland – I’ll Move You Baby
06. Eddie Kirkland – Mercy Blues
07. John Lee Hooker – Miss Sadie Mae
08. John Lee Hooker – 609 Boogie
09. Doctor Ross – Cat Squirrel
10. Doctor Ross – The Sunnyland
11. Bobo Jenkins – Nothing But Love
12. Bobo Jenkins – Tell Me Who
13. Eddie Burns – Orange Driver
14. Eddie Burns – Hard Hearted Woman
15. Little Sonny – I Gotta Find My Baby
16. Little Sonny – Hear My Woman Calling
17. Baby Boy Warren – Chuck-A-Luck (Or Chicken)
18. Baby Boy Warren – Baby Boy Blues
19. Eddie Kirkland – Done Somebody Wrong
20. Eddie Kirkland – I Need You Baby
21. Bob Kelly – She’s My Baby
22. Eddie Burns – The Thing To Do
23. Little Sonny – I Hear My Woman Callin’ (Alternate)
24. Doctor Ross – Industrial Boogie
25. Doctor Ross – Thirty Two Twenty
26. Bobo Jenkins – Baby Don’t You Want Me To Go (Alternate)
27. Bobo Jenkins – Ten Below Zero (Alternate)

EAC
Exact Audio Copy V1.2 from 12. August 2016

EAC extraction logfile from 5. November 2016, 20:50

Various Artists / Down Home Blues: Detroit Special (Disc 3)

Used drive : TSSTcorpCDDVDW SH-224BB Adapter: 1 ID: 0

Read mode : Secure
Utilize accurate stream : Yes
Defeat audio cache : Yes
Make use of C2 pointers : No

Read offset correction : 6
Overread into Lead-In and Lead-Out : No
Fill up missing offset samples with silence : Yes
Delete leading and trailing silent blocks : No
Null samples used in CRC calculations : Yes
Used interface : Native Win32 interface for Win NT & 2000
Gap handling : Appended to previous track

Used output format : User Defined Encoder
Selected bitrate : 768 kBit/s
Quality : High
Add ID3 tag : No
Command line compressor : C:Program Files (x86)Exact Audio CopyFlacflac.exe
Additional command line options : -8 -V -T "ARTIST=%artist%" -T "TITLE=%title%" -T "ALBUM=%albumtitle%" -T "DATE=%year%" -T "TRACKNUMBER=%tracknr%" -T "TOTALTRACKS=%numtracks%" -T "GENRE=%genre%" -T "ALBUMARTIST=%albumartist%" -T "ALBUM ARTIST=%albumartist%" -T "COMMENT=EAC Secure Mode, Test & Copy, AccurateRip, FLAC -8" %source%

TOC of the extracted CD

Track | Start | Length | Start sector | End sector
––––––––––––––––––––––––––––-
1 | 0:00.00 | 2:38.03 | 0 | 11852
2 | 2:38.03 | 2:36.50 | 11853 | 23602
3 | 5:14.53 | 1:53.72 | 23603 | 32149
4 | 7:08.50 | 2:04.41 | 32150 | 41490
5 | 9:13.16 | 2:37.01 | 41491 | 53266
6 | 11:50.17 | 2:55.17 | 53267 | 66408
7 | 14:45.34 | 2:56.06 | 66409 | 79614
8 | 17:41.40 | 2:52.10 | 79615 | 92524
9 | 20:33.50 | 2:21.14 | 92525 | 103113
10 | 22:54.64 | 2:35.45 | 103114 | 114783
11 | 25:30.34 | 2:25.06 | 114784 | 125664
12 | 27:55.40 | 2:34.09 | 125665 | 137223
13 | 30:29.49 | 3:26.04 | 137224 | 152677
14 | 33:55.53 | 2:33.18 | 152678 | 164170
15 | 36:28.71 | 2:31.39 | 164171 | 175534
16 | 39:00.35 | 2:38.31 | 175535 | 187415
17 | 41:38.66 | 3:11.50 | 187416 | 201790
18 | 44:50.41 | 2:47.64 | 201791 | 214379
19 | 47:38.30 | 3:04.44 | 214380 | 228223
20 | 50:42.74 | 2:45.13 | 228224 | 240611
21 | 53:28.12 | 2:16.15 | 240612 | 250826
22 | 55:44.27 | 2:50.44 | 250827 | 263620
23 | 58:34.71 | 3:04.42 | 263621 | 277462
24 | 61:39.38 | 2:38.24 | 277463 | 289336
25 | 64:17.62 | 2:46.67 | 289337 | 301853
26 | 67:04.54 | 2:51.72 | 301854 | 314750
27 | 69:56.51 | 3:17.40 | 314751 | 329565

Track 1

Filename C:RipsVarious Artists – Down Home Blues Detroit Special (2016) [FLAC]CD31 – Baby Boy Warren – Somebody Put Bad Luck On Me.wav

Pre-gap length 0:00:02.00

Peak level 97.7 %
Extraction speed 1.4 X
Track quality 99.9 %
Test CRC AC9BCA2B
Copy CRC AC9BCA2B
Track not present in AccurateRip database
Copy OK

Track 2

Filename C:RipsVarious Artists – Down Home Blues Detroit Special (2016) [FLAC]CD32 – Baby Boy Warren – Stop Breaking Down.wav

Peak level 97.7 %
Extraction speed 1.4 X
Track quality 99.9 %
Test CRC CDE487B5
Copy CRC CDE487B5
Track not present in AccurateRip database
Copy OK

Track 3

Filename C:RipsVarious Artists – Down Home Blues Detroit Special (2016) [FLAC]CD33 – Little Sonny – Love Shock.wav

Peak level 97.7 %
Extraction speed 1.7 X
Track quality 100.0 %
Test CRC 74407257
Copy CRC 74407257
Track not present in AccurateRip database
Copy OK

Track 4

Filename C:RipsVarious Artists – Down Home Blues Detroit Special (2016) [FLAC]CD34 – Little Sonny – I’ll Love You Baby Until The Day I Die.wav

Peak level 97.7 %
Extraction speed 1.8 X
Track quality 100.0 %
Test CRC A6842D0A
Copy CRC A6842D0A
Track not present in AccurateRip database
Copy OK

Track 5

Filename C:RipsVarious Artists – Down Home Blues Detroit Special (2016) [FLAC]CD35 – Eddie Kirkland – I’ll Move You Baby.wav

Peak level 97.7 %
Extraction speed 1.6 X
Track quality 99.9 %
Test CRC 2E02025D
Copy CRC 2E02025D
Track not present in AccurateRip database
Copy OK

Track 6

Filename C:RipsVarious Artists – Down Home Blues Detroit Special (2016) [FLAC]CD36 – Eddie Kirkland – Mercy Blues.wav

Peak level 97.7 %
Extraction speed 2.1 X
Track quality 100.0 %
Test CRC EFBEE7F7
Copy CRC EFBEE7F7
Track not present in AccurateRip database
Copy OK

Track 7

Filename C:RipsVarious Artists – Down Home Blues Detroit Special (2016) [FLAC]CD37 – John Lee Hooker – Miss Sadie Mae.wav

Peak level 97.7 %
Extraction speed 2.2 X
Track quality 100.0 %
Test CRC 65BAFC89
Copy CRC 65BAFC89
Track not present in AccurateRip database
Copy OK

Track 8

Filename C:RipsVarious Artists – Down Home Blues Detroit Special (2016) [FLAC]CD38 – John Lee Hooker – 609 Boogie.wav

Peak level 82.7 %
Extraction speed 2.3 X
Track quality 100.0 %
Test CRC 69E0EF2A
Copy CRC 69E0EF2A
Track not present in AccurateRip database
Copy OK

Track 9

Filename C:RipsVarious Artists – Down Home Blues Detroit Special (2016) [FLAC]CD39 – Doctor Ross – Cat Squirrel.wav

Peak level 97.7 %
Extraction speed 2.3 X
Track quality 100.0 %
Test CRC 5117A8C2
Copy CRC 5117A8C2
Track not present in AccurateRip database
Copy OK

Track 10

Filename C:RipsVarious Artists – Down Home Blues Detroit Special (2016) [FLAC]CD310 – Doctor Ross – The Sunnyland.wav

Peak level 97.7 %
Extraction speed 2.4 X
Track quality 100.0 %
Test CRC 46CC5C29
Copy CRC 46CC5C29
Track not present in AccurateRip database
Copy OK

Track 11

Filename C:RipsVarious Artists – Down Home Blues Detroit Special (2016) [FLAC]CD311 – Bobo Jenkins – Nothing But Love.wav

Peak level 97.7 %
Extraction speed 1.8 X
Track quality 99.9 %
Test CRC E70189C1
Copy CRC E70189C1
Track not present in AccurateRip database
Copy OK

Track 12

Filename C:RipsVarious Artists – Down Home Blues Detroit Special (2016) [FLAC]CD312 – Bobo Jenkins – Tell Me Who.wav

Peak level 97.7 %
Extraction speed 2.5 X
Track quality 100.0 %
Test CRC ADCF720A
Copy CRC ADCF720A
Track not present in AccurateRip database
Copy OK

Track 13

Filename C:RipsVarious Artists – Down Home Blues Detroit Special (2016) [FLAC]CD313 – Eddie Burns – Orange Driver.wav

Peak level 97.7 %
Extraction speed 2.7 X
Track quality 100.0 %
Test CRC 09C1658A
Copy CRC 09C1658A
Track not present in AccurateRip database
Copy OK

Track 14

Filename C:RipsVarious Artists – Down Home Blues Detroit Special (2016) [FLAC]CD314 – Eddie Burns – Hard Hearted Woman.wav

Peak level 97.7 %
Extraction speed 2.6 X
Track quality 100.0 %
Test CRC 0A4978C3
Copy CRC 0A4978C3
Track not present in AccurateRip database
Copy OK

Track 15

Filename C:RipsVarious Artists – Down Home Blues Detroit Special (2016) [FLAC]CD315 – Little Sonny – I Gotta Find My Baby.wav

Peak level 97.7 %
Extraction speed 2.7 X
Track quality 100.0 %
Test CRC 142F96A7
Copy CRC 142F96A7
Track not present in AccurateRip database
Copy OK

Track 16

Filename C:RipsVarious Artists – Down Home Blues Detroit Special (2016) [FLAC]CD316 – Little Sonny – Hear My Woman Calling.wav

Peak level 97.7 %
Extraction speed 2.8 X
Track quality 100.0 %
Test CRC A0F624BC
Copy CRC A0F624BC
Track not present in AccurateRip database
Copy OK

Track 17

Filename C:RipsVarious Artists – Down Home Blues Detroit Special (2016) [FLAC]CD317 – Baby Boy Warren – Chuck-A-Luck (Or Chicken).wav

Peak level 97.7 %
Extraction speed 3.0 X
Track quality 100.0 %
Test CRC 72827225
Copy CRC 72827225
Track not present in AccurateRip database
Copy OK

Track 18

Filename C:RipsVarious Artists – Down Home Blues Detroit Special (2016) [FLAC]CD318 – Baby Boy Warren – Baby Boy Blues.wav

Peak level 97.7 %
Extraction speed 2.9 X
Track quality 100.0 %
Test CRC ABCFAB62
Copy CRC ABCFAB62
Track not present in AccurateRip database
Copy OK

Track 19

Filename C:RipsVarious Artists – Down Home Blues Detroit Special (2016) [FLAC]CD319 – Eddie Kirkland – Done Somebody Wrong.wav

Peak level 97.7 %
Extraction speed 2.2 X
Track quality 99.9 %
Test CRC 6AEBD701
Copy CRC 6AEBD701
Track not present in AccurateRip database
Copy OK

Track 20

Filename C:RipsVarious Artists – Down Home Blues Detroit Special (2016) [FLAC]CD320 – Eddie Kirkland – I Need You Baby.wav

Peak level 97.7 %
Extraction speed 3.1 X
Track quality 100.0 %
Test CRC 355CF4EB
Copy CRC 355CF4EB
Track not present in AccurateRip database
Copy OK

Track 21

Filename C:RipsVarious Artists – Down Home Blues Detroit Special (2016) [FLAC]CD321 – Bob Kelly – She’s My Baby.wav

Peak level 97.7 %
Extraction speed 3.0 X
Track quality 100.0 %
Test CRC 576F0700
Copy CRC 576F0700
Track not present in AccurateRip database
Copy OK

Track 22

Filename C:RipsVarious Artists – Down Home Blues Detroit Special (2016) [FLAC]CD322 – Eddie Burns – The Thing To Do.wav

Peak level 97.7 %
Extraction speed 3.2 X
Track quality 100.0 %
Test CRC C84BEB6C
Copy CRC C84BEB6C
Track not present in AccurateRip database
Copy OK

Track 23

Filename C:RipsVarious Artists – Down Home Blues Detroit Special (2016) [FLAC]CD323 – Little Sonny – I Hear My Woman Callin’ (Alternate).wav

Peak level 97.7 %
Extraction speed 2.3 X
Track quality 99.9 %
Test CRC 5E76935A
Copy CRC 5E76935A
Track not present in AccurateRip database
Copy OK

Track 24

Filename C:RipsVarious Artists – Down Home Blues Detroit Special (2016) [FLAC]CD324 – Doctor Ross – Industrial Boogie.wav

Peak level 97.7 %
Extraction speed 3.2 X
Track quality 100.0 %
Test CRC B37E4724
Copy CRC B37E4724
Track not present in AccurateRip database
Copy OK

Track 25

Filename C:RipsVarious Artists – Down Home Blues Detroit Special (2016) [FLAC]CD325 – Doctor Ross – Thirty Two Twenty.wav

Peak level 97.7 %
Extraction speed 3.3 X
Track quality 100.0 %
Test CRC 770CFEDE
Copy CRC 770CFEDE
Track not present in AccurateRip database
Copy OK

Track 26

Filename C:RipsVarious Artists – Down Home Blues Detroit Special (2016) [FLAC]CD326 – Bobo Jenkins – Baby Don’t You Want Me To Go (Alternate).wav

Peak level 97.7 %
Extraction speed 2.3 X
Track quality 99.9 %
Test CRC 4B6DA73D
Copy CRC 4B6DA73D
Track not present in AccurateRip database
Copy OK

Track 27

Filename C:RipsVarious Artists – Down Home Blues Detroit Special (2016) [FLAC]CD327 – Bobo Jenkins – Ten Below Zero (Alternate).wav

Peak level 97.7 %
Extraction speed 2.4 X
Track quality 99.9 %
Test CRC 1B6ABB80
Copy CRC 1B6ABB80
Track not present in AccurateRip database
Copy OK

None of the tracks are present in the AccurateRip database

No errors occurred

End of status report

–– CUETools DB Plugin V2.1.6

[CTDB TOCID: 2fWKbl2QMBkynF.E8bKEZ3uBW7I-] disk not present in database
Submit result: 2fWKbl2QMBkynF.E8bKEZ3uBW7I- has been uploaded

==== Log checksum 033A04B70A244638171159DA39683C25202D3B0ABB8EC26D7DADE15B9F47751F ====

All thanks go to the original releaser

VA – Down Home Blues: Detroit Special (2016) Download, Warez, DDL, Free, Full Album, Torrent, Legal.

Download