VA: Die Ariola Star-Club Aufmahmen (1999)

Download
VA: Die Ariola Star-Club Aufnahmen (1999)

VA: Die Ariola Star-Club Aufnahmen (1999)
EAC | Flac(Image) + Cue + Log & MP3 CBR 320Kbps
4CD | Bear Family, BCD 16226 DK | ~ 1679 or 606 Mb | Covers(jpg) -> 26 Mb
Rock & Roll, Beat

4-CD box set features early European ‘beat music’ as presented at Hamburg’s world famous Star Club in the early 1960s, including Bobby Patrick Big Six, The Giants, Phantom Bros., Four Renders, Road Runners, Broom Town Band, German Bonds, Team Beats & others…

~ amazon

VA: Die Ariola Star-Club Aufnahmen (1999):

VA: Die Ariola Star-Club Aufnahmen (1999)

Tracklist CD1:

1. All Around The World – King Size Taylor & The Dominoes
2. Stupidity – King Size Taylor & The Dominoes
3. Slippin’ And Slidin’ – King Size Taylor & The Dominoes
4. Unchain My Heart – King Size Taylor & The Dominoes
5. Bad Boy – King Size Taylor & The Dominoes
6. Short On Love – King Size Taylor & The Dominoes
7. Hello Josephine – King Size Taylor & The Dominoes
8. You Can’t Sit Down – King Size Taylor & The Dominoes
9. I’m Late – King Size Taylor & The Dominoes
10. She Said Yeah – King Size Taylor & The Dominoes
11. Golly Golly What – King Size Taylor & The Dominoes
12. I’ve Been Watching You – King Size Taylor & The Dominoes
13. Sky Boat Song – King Size Taylor & The Dominoes
14. You Make Me Happy – King Size Taylor & The Dominoes
15. Shake, Shake, Shake – King Size Taylor & The Dominoes
16. Sherry Baby – King Size Taylor & The Dominoes
17. Down In The Valley – King Size Taylor & The Dominoes
18. Clarabella – King Size Taylor & The Dominoes
19. Heeby Jeebies – King Size Taylor & The Dominoes
20. Oo Poo Pa Doo – King Size Taylor & The Dominoes
21. Wa Watussi – King Size Taylor & The Dominoes
22. Let’s Dance – King Size Taylor & The Dominoes
23. Broken Arrow – King Size Taylor & The Dominoes
24. Lipstick, Powder And Paint – King Size Taylor & The Dominoes

EAC Log
Exact Audio Copy V0.99 prebeta 4 from 23. January 2008

Отчёт EAC об извлечении, выполненном 31. декабря 2009, 14:37

King Size Taylor & The Dominoes / Die Ariola Star-Club Aufnahmen Vol.1 CD 1 (1964)

Дисковод: Optiarc DVD RW AD-7203A Adapter: 3 ID: 0

Режим чтения : Достоверность
Использование точного потока : Да
Отключение кэша аудио : Да
Использование указателей C2 : Нет

Коррекция смещения при чтении : 48
Способность читать области Lead-in и Lead-out : Нет
Заполнение пропущенных сэмплов тишиной : Да
Удаление блоков с тишиной в начале и конце : Нет
При вычислениях CRC использовались нулевые сэмплы : Да
Интерфейс : Встроенный Win32-интерфейс для Win NT/2000

Выходной формат : Внутренние WAV-операции
Формат сэмплов : 44.100 Гц; 16 бит; стерео

TOC извлечённого CD

Трек | Старт | Длительность | Начальный сектор | Конечный сектор
––––––––––––––––––––––––––––––––––-
1 | 0:00.00 | 3:29.10 | 0 | 15684
2 | 3:29.10 | 2:23.62 | 15685 | 26471
3 | 5:52.72 | 2:48.30 | 26472 | 39101
4 | 8:41.27 | 2:45.10 | 39102 | 51486
5 | 11:26.37 | 2:11.70 | 51487 | 61381
6 | 13:38.32 | 2:19.35 | 61382 | 71841
7 | 15:57.67 | 2:50.53 | 71842 | 84644
8 | 18:48.45 | 2:36.70 | 84645 | 96414
9 | 21:25.40 | 2:03.12 | 96415 | 105651
10 | 23:28.52 | 1:45.05 | 105652 | 113531
11 | 25:13.57 | 2:26.63 | 113532 | 124544
12 | 27:40.45 | 1:55.47 | 124545 | 133216
13 | 29:36.17 | 3:01.55 | 133217 | 146846
14 | 32:37.72 | 2:15.48 | 146847 | 157019
15 | 34:53.45 | 2:09.37 | 157020 | 166731
16 | 37:03.07 | 2:40.60 | 166732 | 178791
17 | 39:43.67 | 2:20.70 | 178792 | 189361
18 | 42:04.62 | 2:42.00 | 189362 | 201511
19 | 44:46.62 | 2:39.53 | 201512 | 213489
20 | 47:26.40 | 2:50.30 | 213490 | 226269
21 | 50:16.70 | 2:26.42 | 226270 | 237261
22 | 52:43.37 | 4:38.73 | 237262 | 258184
23 | 57:22.35 | 2:09.25 | 258185 | 267884
24 | 59:31.60 | 2:12.15 | 267885 | 277799

Характеристики диапазона извлечения и сообщения об ошибках

Выбранный диапазон

Имя файла E:РаздачиAriola Star-ClubCD 1King Size Taylor & The Dominoes – Die Ariola Star-Club Aufnahmen Vol.1 CD 1 (1964).wav

Пиковый уровень 94.6 %
Качество диапазона 100.0 %
CRC копии 4D71A146
Копирование… OK

Ошибок не произошло

AccurateRip: сводка

Трек 1 нет в базе данных
Трек 2 нет в базе данных
Трек 3 нет в базе данных
Трек 4 нет в базе данных
Трек 5 нет в базе данных
Трек 6 нет в базе данных
Трек 7 нет в базе данных
Трек 8 нет в базе данных
Трек 9 нет в базе данных
Трек 10 нет в базе данных
Трек 11 нет в базе данных
Трек 12 нет в базе данных
Трек 13 нет в базе данных
Трек 14 нет в базе данных
Трек 15 нет в базе данных
Трек 16 нет в базе данных
Трек 17 нет в базе данных
Трек 18 нет в базе данных
Трек 19 нет в базе данных
Трек 20 нет в базе данных
Трек 21 нет в базе данных
Трек 22 нет в базе данных
Трек 23 нет в базе данных
Трек 24 нет в базе данных

Ни одного трека нет в базе AccurateRip

Конец отчёта

DR Log
foobar2000 1.2.9 / Dynamic Range Meter 1.1.1
log date: 2017-07-15 00:19:32

––––––––––––––––––––––––––––––––––––––––
Analyzed: King Size Taylor & The Dominoes / Die Ariola Star-Club Aufnahmen Vol.1 CD 1 (1964)
––––––––––––––––––––––––––––––––––––––––

DR Peak RMS Duration Track
––––––––––––––––––––––––––––––––––––––––
DR11 -0.97 dB -14.60 dB 3:29 01-All Around The World
DR11 -0.48 dB -14.28 dB 2:24 02-Stupidity
DR12 -0.99 dB -15.78 dB 2:48 03-Slippin’ And Slidin’
DR12 -1.19 dB -15.65 dB 2:45 04-Unchain My Heart
DR12 -1.03 dB -15.05 dB 2:12 05-Bad Boy
DR12 -1.17 dB -15.40 dB 2:19 06-Short On Love
DR11 -1.05 dB -14.35 dB 2:51 07-Hello Josephine
DR11 -0.96 dB -14.57 dB 2:37 08-You Can’t Sit Down
DR9 -1.17 dB -12.29 dB 2:03 09-I’m Late
DR9 -1.08 dB -12.62 dB 1:45 10-She Said Yeah
DR9 -1.34 dB -13.35 dB 2:27 11-Golly Golly What
DR9 -1.19 dB -13.06 dB 1:56 12-I’ve Been Watching You
DR10 -1.19 dB -13.65 dB 3:02 13-Sky Boat Song
DR9 -1.26 dB -12.54 dB 2:16 14-You Make Me Happy
DR9 -1.21 dB -12.54 dB 2:09 15-Shake, Shake, Shake
DR11 -1.41 dB -14.40 dB 2:41 16-Sherry Baby
DR11 -1.20 dB -13.80 dB 2:21 17-Down In The Valley
DR10 -1.17 dB -13.25 dB 2:42 18-Clarabella
DR9 -1.71 dB -12.59 dB 2:40 19-Heeby Jeebies
DR9 -1.43 dB -12.37 dB 2:50 20-Oo Poo Pa Doo
DR10 -1.45 dB -12.80 dB 2:27 21-Wa Watussi
DR10 -1.67 dB -13.94 dB 4:39 22-Let’s Dance
DR10 -1.64 dB -14.00 dB 2:09 23-Broken Arrow
DR11 -1.58 dB -14.50 dB 2:12 24-Lipstick, Powder And Paint
––––––––––––––––––––––––––––––––––––––––

Number of tracks: 24
Official DR value: DR10

Samplerate: 44100 Hz
Channels: 2
Bits per sample: 16
Bitrate: 907 kbps
Codec: FLAC

CUETools Log
[CUETools log; Date: 14.07.2017 23:52:47; Version: 2.1.4]
[CTDB TOCID: 1ECiMhEebHPUuNVX57v5DZ__A8Q-] found.
Track | CTDB Status
1 | (2/2) Accurately ripped
2 | (2/2) Accurately ripped
3 | (2/2) Accurately ripped
4 | (2/2) Accurately ripped
5 | (2/2) Accurately ripped
6 | (2/2) Accurately ripped
7 | (2/2) Accurately ripped
8 | (2/2) Accurately ripped
9 | (2/2) Accurately ripped
10 | (2/2) Accurately ripped
11 | (2/2) Accurately ripped
12 | (2/2) Accurately ripped
13 | (2/2) Accurately ripped
14 | (2/2) Accurately ripped
15 | (2/2) Accurately ripped
16 | (2/2) Accurately ripped
17 | (2/2) Accurately ripped
18 | (2/2) Accurately ripped
19 | (2/2) Accurately ripped
20 | (2/2) Accurately ripped
21 | (2/2) Accurately ripped
22 | (2/2) Accurately ripped
23 | (2/2) Accurately ripped
24 | (2/2) Accurately ripped
[AccurateRip ID: 0034918d-038a17f7-610e7818] found.
Track [ CRC | V2 ] Status
01 [fde12e9b|23d2f522] (0+2/2) Accurately ripped
02 [eb07d5a1|856dfcf3] (0+3/3) Accurately ripped
03 [d157e4a3|2f0dcbfb] (0+2/2) Accurately ripped
04 [a8094d9a|64b4516e] (0+2/2) Accurately ripped
05 [df0abf75|886a0f13] (0+2/2) Accurately ripped
06 [095486f7|c88d8387] (0+2/2) Accurately ripped
07 [f3d7d536|942685cd] (0+2/2) Accurately ripped
08 [29ee23c3|d4669061] (0+2/2) Accurately ripped
09 [d7d9225d|c2af01ed] (0+2/2) Accurately ripped
10 [096184f1|46289731] (0+2/2) Accurately ripped
11 [c6977bee|32c1464f] (0+2/2) Accurately ripped
12 [bf2e252b|b1f37399] (0+2/2) Accurately ripped
13 [2bbd50f7|f27f0428] (0+2/2) Accurately ripped
14 [878dc204|7ffcea16] (0+2/2) Accurately ripped
15 [2171d389|7943304f] (0+2/2) Accurately ripped
16 [10b5f0cf|9c56d4e5] (0+2/2) Accurately ripped
17 [e3cc90f2|51367e8b] (0+2/2) Accurately ripped
18 [50b53636|b8a5f7e0] (0+2/2) Accurately ripped
19 [9833beae|984e336d] (0+2/2) Accurately ripped
20 [b8fae32b|c6bda655] (0+2/2) Accurately ripped
21 [ca7e2c04|a42f9c12] (0+2/2) Accurately ripped
22 [18ba1424|4eec4bf9] (0+2/2) Accurately ripped
23 [9bfe91ec|5fb83eac] (0+2/2) Accurately ripped
24 [cb019794|d76be35e] (0+2/2) Accurately ripped

Track Peak [ CRC32 ] [W/O NULL] [ LOG ]
– 94,6 [4D71A146] [C032DE71] CRC32
01 89,4 [AEB036A5] [48131848]
02 94,6 [7537706D] [8C41BADC]
03 89,2 [D46C229A] [EFB238C7]
04 87,2 [3A6C22CB] [C06AF9C8]
05 88,8 [DAD28AF4] [969262E3]
06 87,4 [CEF69705] [2D7E7764]
07 88,6 [0E951F63] [2B86F4A3]
08 89,5 [240814CA] [E840EC3D]
09 87,3 [5DE59FAD] [78CDDE77]
10 88,3 [7AA9487B] [4CA76C9A]
11 85,7 [1A8FC78F] [68321208]
12 87,1 [E7B7B482] [E33ACC7C]
13 87,2 [FD6841D4] [F78A4738]
14 86,4 [CD86FB14] [9A8EB81B]
15 86,9 [DC2FBF6F] [46B09936]
16 85,0 [DCF8FE1E] [DEC74BA3]
17 87,0 [9697AE77] [75B472D9]
18 87,3 [638DE681] [8C1BD0F9]
19 82,1 [E87C0D7D] [8FE75DB1]
20 84,7 [EBF303C8] [CF50A984]
21 84,5 [5392B645] [43CCB6F7]
22 82,5 [404BAB0A] [08F323D3]
23 82,8 [2C7BB04E] [302F2A55]
24 83,3 [D138DC34] [C572B056]

VA: Die Ariola Star-Club Aufnahmen (1999)

Tracklist CD2:

1. Wilhelm Tell Twist – Bobby Patrick Big Six
2. Domino Twist – Bobby Patrick Big Six
3. Fanny Mae – Bobby Patrick Big Six
4. Roly Poly – Bobby Patrick Big Six
5. The Dog – Bobby Patrick Big Six
6. I’m In Love Again – Bobby Patrick Big Six
7. Green Onions – Bobby Patrick Big Six
8. Monkey Time – Bobby Patrick Big Six
9. I Don’t Want Money – Bobby Patrick Big Six
10. Shake It Easy Baby – Bobby Patrick Big Six
11. Wildwood Days – Bobby Patrick Big Six
12. Twistin’ The Night Away – Bobby Patrick Big Six
13. Let The Four Winds Blow – Bobby Patrick Big Six
14. Hello – Bobby Patrick Big Six
15. African Waltz – Bobby Patrick Big Six
16. Your Cheatin’ Heart – Bobby Patrick Big Six
17. New Orleans – Bobby Patrick Big Six
18. Sweet Talk Me Baby – Bobby Patrick Big Six
19. Monkey Time – Bobby Patrick Big Six
20. Sherry Baby – Giants
21. Put Yourself In My Place – Giants
22. Sweety Beaty Baby – Team Beats Berlin
23. Say Mama – Team Beats Berlin

EAC Log
Exact Audio Copy V0.99 prebeta 4 from 23. January 2008

Отчёт EAC об извлечении, выполненном 31. декабря 2009, 14:58

Bobby Patrick / Big Six

Дисковод: Optiarc DVD RW AD-7203A Adapter: 3 ID: 0

Режим чтения : Достоверность
Использование точного потока : Да
Отключение кэша аудио : Да
Использование указателей C2 : Нет

Коррекция смещения при чтении : 48
Способность читать области Lead-in и Lead-out : Нет
Заполнение пропущенных сэмплов тишиной : Да
Удаление блоков с тишиной в начале и конце : Нет
При вычислениях CRC использовались нулевые сэмплы : Да
Интерфейс : Встроенный Win32-интерфейс для Win NT/2000

Выходной формат : Внутренние WAV-операции
Формат сэмплов : 44.100 Гц; 16 бит; стерео

TOC извлечённого CD

Трек | Старт | Длительность | Начальный сектор | Конечный сектор
––––––––––––––––––––––––––––––––––-
1 | 0:00.00 | 2:09.45 | 0 | 9719
2 | 2:09.45 | 3:13.45 | 9720 | 24239
3 | 5:23.15 | 3:23.15 | 24240 | 39479
4 | 8:46.30 | 1:58.20 | 39480 | 48349
5 | 10:44.50 | 2:49.66 | 48350 | 61090
6 | 13:34.41 | 2:39.61 | 61091 | 73076
7 | 16:14.27 | 3:44.40 | 73077 | 89916
8 | 19:58.67 | 2:34.72 | 89917 | 101538
9 | 22:33.64 | 2:00.41 | 101539 | 110579
10 | 24:34.30 | 2:21.27 | 110580 | 121181
11 | 26:55.57 | 2:39.58 | 121182 | 133164
12 | 29:35.40 | 2:53.25 | 133165 | 146164
13 | 32:28.65 | 2:18.47 | 146165 | 156561
14 | 34:47.37 | 2:43.10 | 156562 | 168796
15 | 37:30.47 | 2:02.18 | 168797 | 177964
16 | 39:32.65 | 2:54.50 | 177965 | 191064
17 | 42:27.40 | 3:18.45 | 191065 | 205959
18 | 45:46.10 | 2:13.13 | 205960 | 215947
19 | 47:59.23 | 2:42.69 | 215948 | 228166
20 | 50:42.17 | 3:11.06 | 228167 | 242497
21 | 53:53.23 | 2:46.08 | 242498 | 254955
22 | 56:39.31 | 2:39.66 | 254956 | 266946
23 | 59:19.22 | 2:11.53 | 266947 | 276824

Характеристики диапазона извлечения и сообщения об ошибках

Выбранный диапазон

Имя файла E:РаздачиAriola Star-ClubCD 2Bobby Patrick – Big Six.wav

Пиковый уровень 99.0 %
Качество диапазона 100.0 %
CRC копии 6ED912D2
Копирование… OK

Ошибок не произошло

AccurateRip: сводка

Трек 1 нет в базе данных
Трек 2 нет в базе данных
Трек 3 нет в базе данных
Трек 4 нет в базе данных
Трек 5 нет в базе данных
Трек 6 нет в базе данных
Трек 7 нет в базе данных
Трек 8 нет в базе данных
Трек 9 нет в базе данных
Трек 10 нет в базе данных
Трек 11 нет в базе данных
Трек 12 нет в базе данных
Трек 13 нет в базе данных
Трек 14 нет в базе данных
Трек 15 нет в базе данных
Трек 16 нет в базе данных
Трек 17 нет в базе данных
Трек 18 нет в базе данных
Трек 19 нет в базе данных
Трек 20 нет в базе данных
Трек 21 нет в базе данных
Трек 22 нет в базе данных
Трек 23 нет в базе данных

Ни одного трека нет в базе AccurateRip

Конец отчёта

DR Log
foobar2000 1.2.9 / Dynamic Range Meter 1.1.1
log date: 2017-07-15 00:19:53

––––––––––––––––––––––––––––––––––––––––
Analyzed: Bobby Patrick / Big Six
––––––––––––––––––––––––––––––––––––––––

DR Peak RMS Duration Track
––––––––––––––––––––––––––––––––––––––––
DR13 -0.47 dB -16.02 dB 2:10 01-Wilhelm Tell Twist
DR12 -0.54 dB -15.83 dB 3:14 02-Domino Twist
DR12 -0.33 dB -15.06 dB 3:23 03-Fanny Mae
DR11 -2.16 dB -15.85 dB 1:58 04-Roly Poly
DR13 -0.35 dB -17.09 dB 2:50 05-The Dog
DR14 -1.00 dB -18.34 dB 2:40 06-I’m In Love Again
DR16 -0.77 dB -21.85 dB 3:45 07-Green Onions
DR12 -1.13 dB -16.15 dB 2:35 08-Monkey Time
DR11 -0.95 dB -15.12 dB 2:01 09-I Don’t Want Money
DR12 -1.02 dB -14.26 dB 2:21 10-Shake It Easy Baby
DR11 -0.84 dB -13.67 dB 2:40 11-Wildwood Days
DR10 -0.65 dB -13.16 dB 2:53 12-Twistin’ The Night Away
DR11 -1.79 dB -14.68 dB 2:19 13-Let The Four Winds Blow
DR10 -0.91 dB -13.69 dB 2:43 14-Hello
DR10 -1.65 dB -14.58 dB 2:02 15-African Waltz
DR11 -0.56 dB -13.84 dB 2:55 16-Your Cheatin’ Heart
DR11 -0.09 dB -14.97 dB 3:19 17-New Orleans
DR13 -0.28 dB -15.58 dB 2:13 18-Sweet talk Me Baby
DR11 -1.36 dB -15.00 dB 2:43 19-Monkey Time (2)
DR10 -0.97 dB -15.94 dB 3:11 20-Giants / Sherry Baby
DR11 -0.91 dB -14.90 dB 2:46 21-Put Yourself In My Place
DR10 -0.34 dB -11.28 dB 2:40 22-Team Beats Berlin / Sweet Beaty Baby
DR11 -0.35 dB -12.39 dB 2:12 23-Say Mama
––––––––––––––––––––––––––––––––––––––––

Number of tracks: 23
Official DR value: DR12

Samplerate: 44100 Hz
Channels: 2
Bits per sample: 16
Bitrate: 847 kbps
Codec: FLAC
================================================================================

CUETools Log
[CUETools log; Date: 14.07.2017 23:59:58; Version: 2.1.4]
[CTDB TOCID: vPI0HIlCAe_cMt5aJihhr5p7FJM-] found.
Track | CTDB Status
1 | (2/2) Accurately ripped
2 | (2/2) Accurately ripped
3 | (2/2) Accurately ripped
4 | (2/2) Accurately ripped
5 | (2/2) Accurately ripped
6 | (2/2) Accurately ripped
7 | (2/2) Accurately ripped
8 | (2/2) Accurately ripped
9 | (2/2) Accurately ripped
10 | (2/2) Accurately ripped
11 | (2/2) Accurately ripped
12 | (2/2) Accurately ripped
13 | (2/2) Accurately ripped
14 | (2/2) Accurately ripped
15 | (2/2) Accurately ripped
16 | (2/2) Accurately ripped
17 | (2/2) Accurately ripped
18 | (2/2) Accurately ripped
19 | (2/2) Accurately ripped
20 | (2/2) Accurately ripped
21 | (2/2) Accurately ripped
22 | (2/2) Accurately ripped
23 | (2/2) Accurately ripped
[AccurateRip ID: 00330744-0350aa35-460e6b17] found.
Track [ CRC | V2 ] Status
01 [15948d49|37888565] (0+2/2) Accurately ripped
02 [7d2c04ff|e6eca5ee] (0+2/2) Accurately ripped
03 [38a73bf4|723ea680] (0+2/2) Accurately ripped
04 [9a633eb9|a2152d9f] (0+2/2) Accurately ripped
05 [c4b737f7|4fa27806] (0+2/2) Accurately ripped
06 [049279b5|375dc407] (0+2/2) Accurately ripped
07 [ac798a00|a01c3a09] (0+2/2) Accurately ripped
08 [3088a15c|61e1eddf] (0+2/2) Accurately ripped
09 [f46c1c0e|7d7afbff] (0+2/2) Accurately ripped
10 [96abbc09|6e730c77] (0+2/2) Accurately ripped
11 [ac93d04c|6f7bd9ba] (0+2/2) Accurately ripped
12 [5c0e9515|b9ea4d82] (0+2/2) Accurately ripped
13 [ba23d4c0|0078bb44] (0+2/2) Accurately ripped
14 [5be8526c|2c430013] (0+2/2) Accurately ripped
15 [f27bc0d1|a90cf806] (0+2/2) Accurately ripped
16 [f1a99425|2e1dba4a] (0+2/2) Accurately ripped
17 [bcbca5d7|bdebe8ea] (0+2/2) Accurately ripped
18 [e6a485d0|3c472137] (0+2/2) Accurately ripped
19 [47ae23b4|d0229405] (0+2/2) Accurately ripped
20 [2798002d|68f887a3] (0+2/2) Accurately ripped
21 [36f70b2f|05c4f4ab] (0+2/2) Accurately ripped
22 [f95a0a52|9ccf3f5f] (0+2/2) Accurately ripped
23 [73213094|74df5fdf] (0+2/2) Accurately ripped

Track Peak [ CRC32 ] [W/O NULL] [ LOG ]
– 99,0 [6ED912D2] [A57274DE] CRC32
01 94,7 [955739BE] [D448E67D]
02 93,9 [8D0ED8F1] [80D56B36]
03 96,2 [E9FABCC2] [B384A603]
04 77,9 [7F9807A0] [963A8837]
05 96,0 [CA46C77B] [80E22D0D]
06 89,0 [09318DA3] [C1ECC530]
07 91,5 [981797C7] [BC0D08F0]
08 87,8 [33C91BB1] [DC976B23]
09 89,5 [E6CF128B] [A4F905CB]
10 88,9 [D91AC3CE] [42004047]
11 90,7 [2DC28A73] [77A14E89]
12 92,8 [2BF3A72D] [2FAD5FCD]
13 81,3 [A24B4DD7] [8C67FB41]
14 90,0 [152E7E64] [E62B1E97]
15 82,7 [3057C1CC] [41206951]
16 93,7 [20D77641] [FCFCF4B1]
17 99,0 [E087DA8C] [109716C2]
18 96,8 [33AF8BF2] [E9B12CA9]
19 85,5 [0988F094] [6B087494]
20 89,4 [4D9ABFDC] [46468D9A]
21 90,0 [40E7EC05] [2F3187D9]
22 96,1 [0E0D6389] [E73ED8E4]
23 96,0 [5AA2D45F] [14DDF2F3]

VA: Die Ariola Star-Club Aufnahmen (1999)

Tracklist CD3:

1. Bye Bye Johnny (Johnny B. Goode) – The Rattles
2. Baby That Is Rock ‘N’ Roll – The Rattles
3. Everybody Loves A Lover – The Rattles
4. I’m Talking About You – The Rattles
5. Brown Eyed Handsome Man – The Rattles
6. Got To Find My Baby – The Rattles
7. Money – The Rattles
8. Then She Kissed Me – The Rattles
9. Sweet Little Sixteen – The Rattles
10. Roll Over Beethoven – The Rattles
11. Putty In Your Hand – The Rattles
12. Memphis Tennessee – The Rattles
13. Da Doo Ron Ron – The Rattles
14. Mr. Moonlight – The Rattles
15. Tell Me What I Can Do – The Rattles
16. Spanish Harlem – The Rattles
17. My Gal Is Red Hot – The Rattles
18. Dizzy Miss Lizzy – The Rattles
19. Bo Diddley – The Rattles
20. Mashed Potatoes – The Rattles
21. Sunbeam At The Sky – The Rattles
22. Twist And Shout – The Rattles
23. What Do You Want With My Baby – The Rattles

EAC Log
Exact Audio Copy V0.99 prebeta 4 from 23. January 2008

Отчёт EAC об извлечении, выполненном 31. декабря 2009, 15:29

The Rattles / Die Ariola Starclub Aufnahmen CD 3

Дисковод: Optiarc DVD RW AD-7203A Adapter: 3 ID: 0

Режим чтения : Достоверность
Использование точного потока : Да
Отключение кэша аудио : Да
Использование указателей C2 : Нет

Коррекция смещения при чтении : 48
Способность читать области Lead-in и Lead-out : Нет
Заполнение пропущенных сэмплов тишиной : Да
Удаление блоков с тишиной в начале и конце : Нет
При вычислениях CRC использовались нулевые сэмплы : Да
Интерфейс : Встроенный Win32-интерфейс для Win NT/2000

Выходной формат : Внутренние WAV-операции
Формат сэмплов : 44.100 Гц; 16 бит; стерео

TOC извлечённого CD

Трек | Старт | Длительность | Начальный сектор | Конечный сектор
––––––––––––––––––––––––––––––––––-
1 | 0:00.00 | 2:18.15 | 0 | 10364
2 | 2:18.15 | 2:27.27 | 10365 | 21416
3 | 4:45.42 | 2:54.58 | 21417 | 34524
4 | 7:40.25 | 1:53.07 | 34525 | 43006
5 | 9:33.32 | 2:00.40 | 43007 | 52046
6 | 11:33.72 | 1:49.13 | 52047 | 60234
7 | 13:23.10 | 2:38.30 | 60235 | 72114
8 | 16:01.40 | 2:33.35 | 72115 | 83624
9 | 18:35.00 | 3:18.32 | 83625 | 98506
10 | 21:53.32 | 2:36.38 | 98507 | 110244
11 | 24:29.70 | 2:32.20 | 110245 | 121664
12 | 27:02.15 | 2:18.02 | 121665 | 132016
13 | 29:20.17 | 1:48.20 | 132017 | 140136
14 | 31:08.37 | 2:35.25 | 140137 | 151786
15 | 33:43.62 | 2:27.73 | 151787 | 162884
16 | 36:11.60 | 4:08.35 | 162885 | 181519
17 | 40:20.20 | 1:54.45 | 181520 | 190114
18 | 42:14.65 | 2:06.62 | 190115 | 199626
19 | 44:21.52 | 2:22.00 | 199627 | 210276
20 | 46:43.52 | 1:44.10 | 210277 | 218086
21 | 48:27.62 | 2:23.63 | 218087 | 228874
22 | 50:51.50 | 2:07.70 | 228875 | 238469
23 | 52:59.45 | 2:48.40 | 238470 | 251109

Характеристики диапазона извлечения и сообщения об ошибках

Выбранный диапазон

Имя файла E:РаздачиAriola Star-ClubCD 3The Rattles – Die Ariola Starclub Aufnahmen CD 3.wav

Пиковый уровень 100.0 %
Качество диапазона 100.0 %
CRC копии 79FD335F
Копирование… OK

Ошибок не произошло

AccurateRip: сводка

Трек 1 нет в базе данных
Трек 2 нет в базе данных
Трек 3 нет в базе данных
Трек 4 нет в базе данных
Трек 5 нет в базе данных
Трек 6 нет в базе данных
Трек 7 нет в базе данных
Трек 8 нет в базе данных
Трек 9 нет в базе данных
Трек 10 нет в базе данных
Трек 11 нет в базе данных
Трек 12 нет в базе данных
Трек 13 нет в базе данных
Трек 14 нет в базе данных
Трек 15 нет в базе данных
Трек 16 нет в базе данных
Трек 17 нет в базе данных
Трек 18 нет в базе данных
Трек 19 нет в базе данных
Трек 20 нет в базе данных
Трек 21 нет в базе данных
Трек 22 нет в базе данных
Трек 23 нет в базе данных

Ни одного трека нет в базе AccurateRip

Конец отчёта

DR Log
foobar2000 1.2.9 / Dynamic Range Meter 1.1.1
log date: 2017-07-15 00:20:33

––––––––––––––––––––––––––––––––––––––––
Analyzed: The Rattles / Die Ariola Starclub Aufnahmen CD 3
––––––––––––––––––––––––––––––––––––––––

DR Peak RMS Duration Track
––––––––––––––––––––––––––––––––––––––––
DR11 -0.63 dB -14.21 dB 2:18 01-Bye Bye Johnny(Johnny B. Good)
DR10 -0.58 dB -13.60 dB 2:27 02-Baby That’s Is Rock’n’Roll
DR10 -0.16 dB -13.92 dB 2:55 03-Everybody Loves A Lover
DR12 -0.30 dB -17.91 dB 1:53 04-I’m Talking About You
DR11 -2.48 dB -14.98 dB 2:01 05-Brown Eyed Handsome Man
DR11 -1.32 dB -15.63 dB 1:49 06-Got To Find My Baby
DR11 -1.74 dB -15.80 dB 2:38 07-Money
DR12 -1.25 dB -16.75 dB 2:33 08-Then She Kissed Me
DR12 -1.20 dB -16.11 dB 3:18 09-Sweet Little Sixteen
DR12 0.00 dB -16.79 dB 2:37 10-Roll Over Beethoven
DR12 0.00 dB -15.83 dB 2:32 11-Putty In Your Hand
DR12 -0.91 dB -14.83 dB 2:18 12-Memphis Tennessee
DR12 -0.33 dB -15.25 dB 1:48 13-Da Doo Ron Ron
DR13 -0.27 dB -16.70 dB 2:35 14-Mr. Moonlight
DR10 -2.63 dB -14.09 dB 2:28 15-Tell Me What I Can Do
DR16 -2.46 dB -25.43 dB 4:08 16-Spanish Harlem
DR10 -0.75 dB -12.07 dB 1:55 17-My Gal Is Red Hot
DR13 -0.26 dB -16.08 dB 2:07 18-Dizzy Miss Lizzy
DR14 -0.62 dB -16.90 dB 2:22 19-Bo Diddley
DR12 -0.72 dB -15.03 dB 1:44 20-Mashed Potatoes
DR11 -1.12 dB -13.25 dB 2:24 21-Sunbeam At The Sky
DR10 -0.42 dB -13.34 dB 2:08 22-Twist And Shout
DR10 -0.67 dB -12.78 dB 2:49 23-What To You Want With My Baby
––––––––––––––––––––––––––––––––––––––––

Number of tracks: 23
Official DR value: DR12

Samplerate: 44100 Hz
Channels: 2
Bits per sample: 16
Bitrate: 884 kbps
Codec: FLAC

CUETools Log
[CUETools log; Date: 15.07.2017 0:03:32; Version: 2.1.4]
[CTDB TOCID: keZpKN5MFKKt9cfcO2SjVCdCRNw-] found.
Track | CTDB Status
1 | (2/2) Accurately ripped
2 | (2/2) Accurately ripped
3 | (2/2) Accurately ripped
4 | (2/2) Accurately ripped
5 | (2/2) Accurately ripped
6 | (2/2) Accurately ripped
7 | (2/2) Accurately ripped
8 | (2/2) Accurately ripped
9 | (2/2) Accurately ripped
10 | (2/2) Accurately ripped
11 | (2/2) Accurately ripped
12 | (2/2) Accurately ripped
13 | (2/2) Accurately ripped
14 | (2/2) Accurately ripped
15 | (2/2) Accurately ripped
16 | (2/2) Accurately ripped
17 | (2/2) Accurately ripped
18 | (2/2) Accurately ripped
19 | (2/2) Accurately ripped
20 | (2/2) Accurately ripped
21 | (2/2) Accurately ripped
22 | (2/2) Accurately ripped
23 | (2/2) Accurately ripped
[AccurateRip ID: 002df834-030054b0-330d1417] found.
Track [ CRC | V2 ] Status
01 [6dea6288|82eeba6c] (0+2/2) Accurately ripped
02 [2a2472c6|3c9d1d3b] (0+2/2) Accurately ripped
03 [cb119a79|9d6df4a5] (0+2/2) Accurately ripped
04 [fd705da2|da1cfa6b] (0+2/2) Accurately ripped
05 [0ff55b5e|c12da88f] (0+2/2) Accurately ripped
06 [bd6f54d0|6650a6b9] (0+2/2) Accurately ripped
07 [9c587578|262e00a1] (0+2/2) Accurately ripped
08 [be6b7e9f|e7786e4b] (0+2/2) Accurately ripped
09 [00d62978|3d531df3] (0+2/2) Accurately ripped
10 [7189cadd|4007f27f] (0+2/2) Accurately ripped
11 [7bb287ab|e88a7ad6] (0+2/2) Accurately ripped
12 [7f14ab0b|8288412a] (0+2/2) Accurately ripped
13 [2729177c|d0793c67] (0+2/2) Accurately ripped
14 [97d568f6|acf51a90] (0+2/2) Accurately ripped
15 [da513663|8f0ea698] (0+2/2) Accurately ripped
16 [533ac2df|2fbe4223] (0+2/2) Accurately ripped
17 [ba8934c5|29fec02c] (0+2/2) Accurately ripped
18 [bb90dd15|af6a9d95] (0+2/2) Accurately ripped
19 [de5f12e1|02e35493] (0+2/2) Accurately ripped
20 [80ccbf67|3903183c] (0+2/2) Accurately ripped
21 [7124f4f2|7dfd5413] (0+2/2) Accurately ripped
22 [1a78aac5|7e832268] (0+2/2) Accurately ripped
23 [85b023fa|24792ba0] (0+2/2) Accurately ripped

Track Peak [ CRC32 ] [W/O NULL] [ LOG ]
– 100,0 [79FD335F] [C077AA54] CRC32
01 93,0 [0B0BA7CB] [D136D62A]
02 93,5 [92E9BEB4] [52A43439]
03 98,1 [C29A53C5] [502C7361]
04 96,5 [FF65CB73] [57EBCFD9]
05 75,2 [8B26E4B8] [8F20B30D]
06 85,8 [DBE15040] [CE13F33C]
07 81,8 [52BD7E51] [6CEDCF36]
08 86,6 [688CA6C1] [D6CC43E9]
09 87,1 [66A29FC7] [7261E38B]
10 100,0 [F49A1C71] [2D8B443C]
11 100,0 [6F2E8257] [66FF6169]
12 90,0 [B6FC2ACF] [1B6D131C]
13 96,2 [35B72252] [0A8C519B]
14 96,9 [0BA60C1D] [FF761018]
15 73,8 [4E45DE6A] [2EA752CB]
16 75,3 [C31ADFF7] [032C80AC]
17 91,7 [3E4A8062] [36D6769A]
18 97,0 [6F2F8CDB] [7681F281]
19 93,1 [DC348CE6] [9FBECC9E]
20 92,0 [F339E62E] [F99F4473]
21 87,8 [51E7209E] [09D3FE32]
22 95,2 [A788733C] [718F1ECC]
23 92,5 [51942391] [6F4CF63B]

VA: Die Ariola Star-Club Aufnahmen (1999)

Tracklist CD4:

1. Rip It Up – The Roadrunners
2. You Can Make It If You Try – The Roadrunners
3. Little Ruby – The Roadrunners
4. Baby You Don’t Have To Go – The Roadrunners
5. Slow Down – The Roadrunners
6. That’s Alright – The Roadrunners
7. Beautiful Delilah – The Roadrunners
8. Long Tall Sally – The Roadrunners
9. Hoochie Coochie Man – The Roadrunners
10. You’d Better Move On – The Roadrunners
11. Roadrunner – The Roadrunners
12. Dizzy Miss Lizzy – Beat Band Battle
13. Farmer John – The Bats
14. Sweet Little Rock ‘N’ Roller – The Bats
15. Some Other Guy – The German Bonds
16. I’m A Hog For You – The German Bonds
17. Sweets For My Sweet – The German Bonds
18. Forellen Twist – The Broom Town Band
19. Good Golly Miss Molly – The Broom Town Band
20. Go Johnny Go – The Four Renders
21. Beautiful Dreamer – The Four Renders
22. Hippy Hippy Shake – The Four Renders
23. Now’s The Time To Fall In Love – Big Goff And The
24. I’ll Never Get Over You – Big Goff And The Tigers
25. Mean Woman Blues – Big Goff And The Tigers
26. Oh Carol – The Phatom Brothers
27. Shakin’ All Over – The Phatom Brothers

EAC Log
Exact Audio Copy V0.99 prebeta 4 from 23. January 2008

Отчёт EAC об извлечении, выполненном 31. декабря 2009, 15:55

The Roadrunners / Die Ariola Star Club Aufnahmen

Дисковод: Optiarc DVD RW AD-7203A Adapter: 3 ID: 0

Режим чтения : Достоверность
Использование точного потока : Да
Отключение кэша аудио : Да
Использование указателей C2 : Нет

Коррекция смещения при чтении : 48
Способность читать области Lead-in и Lead-out : Нет
Заполнение пропущенных сэмплов тишиной : Да
Удаление блоков с тишиной в начале и конце : Нет
При вычислениях CRC использовались нулевые сэмплы : Да
Интерфейс : Встроенный Win32-интерфейс для Win NT/2000

Выходной формат : Внутренние WAV-операции
Формат сэмплов : 44.100 Гц; 16 бит; стерео

TOC извлечённого CD

Трек | Старт | Длительность | Начальный сектор | Конечный сектор
––––––––––––––––––––––––––––––––––-
1 | 0:00.00 | 2:53.00 | 0 | 12974
2 | 2:53.00 | 3:51.37 | 12975 | 30336
3 | 6:44.37 | 2:32.00 | 30337 | 41736
4 | 9:16.37 | 4:51.38 | 41737 | 63599
5 | 14:08.00 | 2:34.37 | 63600 | 75186
6 | 16:42.37 | 3:12.38 | 75187 | 89624
7 | 19:55.00 | 2:48.00 | 89625 | 102224
8 | 22:43.00 | 3:17.00 | 102225 | 116999
9 | 26:00.00 | 6:36.37 | 117000 | 146736
10 | 32:36.37 | 3:19.00 | 146737 | 161661
11 | 35:55.37 | 3:00.48 | 161662 | 175209
12 | 38:56.10 | 3:04.40 | 175210 | 189049
13 | 42:00.50 | 2:44.00 | 189050 | 201349
14 | 44:44.50 | 2:29.65 | 201350 | 212589
15 | 47:14.40 | 2:38.15 | 212590 | 224454
16 | 49:52.55 | 2:10.45 | 224455 | 234249
17 | 52:03.25 | 2:24.22 | 234250 | 245071
18 | 54:27.47 | 2:05.45 | 245072 | 254491
19 | 56:33.17 | 2:25.03 | 254492 | 265369
20 | 58:58.20 | 2:21.25 | 265370 | 275969
21 | 61:19.45 | 2:02.17 | 275970 | 285136
22 | 63:21.62 | 2:15.23 | 285137 | 295284
23 | 65:37.10 | 2:21.62 | 295285 | 305921
24 | 67:58.72 | 1:59.73 | 305922 | 314919
25 | 69:58.70 | 2:49.52 | 314920 | 327646
26 | 72:48.47 | 2:22.65 | 327647 | 338361
27 | 75:11.37 | 2:17.38 | 338362 | 348674

Характеристики диапазона извлечения и сообщения об ошибках

Выбранный диапазон

Имя файла E:РаздачиAriola Star-ClubCD 4The Roadrunners – Die Ariola Star Club Aufnahmen.wav

Пиковый уровень 99.4 %
Качество диапазона 100.0 %
CRC копии D3EAFBD9
Копирование… OK

Ошибок не произошло

AccurateRip: сводка

Трек 1 нет в базе данных
Трек 2 нет в базе данных
Трек 3 нет в базе данных
Трек 4 нет в базе данных
Трек 5 нет в базе данных
Трек 6 нет в базе данных
Трек 7 нет в базе данных
Трек 8 нет в базе данных
Трек 9 нет в базе данных
Трек 10 нет в базе данных
Трек 11 нет в базе данных
Трек 12 нет в базе данных
Трек 13 нет в базе данных
Трек 14 нет в базе данных
Трек 15 нет в базе данных
Трек 16 нет в базе данных
Трек 17 нет в базе данных
Трек 18 нет в базе данных
Трек 19 нет в базе данных
Трек 20 нет в базе данных
Трек 21 нет в базе данных
Трек 22 нет в базе данных
Трек 23 нет в базе данных
Трек 24 нет в базе данных
Трек 25 нет в базе данных
Трек 26 нет в базе данных
Трек 27 нет в базе данных

Ни одного трека нет в базе AccurateRip

Конец отчёта

DR Log
foobar2000 1.2.9 / Dynamic Range Meter 1.1.1
log date: 2017-07-15 00:21:03

––––––––––––––––––––––––––––––––––––––––
Analyzed: The Roadrunners / Die Ariola Star Club Aufnahmen
––––––––––––––––––––––––––––––––––––––––

DR Peak RMS Duration Track
––––––––––––––––––––––––––––––––––––––––
DR10 -1.23 dB -13.41 dB 2:53 01-Rip It Up
DR11 -0.82 dB -13.71 dB 3:51 02-You Can’t Make It If You Try
DR10 -0.38 dB -13.06 dB 2:32 03-Little Ruby
DR10 -1.21 dB -15.43 dB 4:52 04-Baby You Don’t Have To Go
DR12 -0.92 dB -14.45 dB 2:34 05-Slow Down
DR11 -1.46 dB -14.50 dB 3:13 06-That’s All Right
DR12 -1.22 dB -14.37 dB 2:48 07-Beatiful Deliilah
DR11 -0.79 dB -13.66 dB 3:17 08-Long Tall Sally
DR12 -1.14 dB -15.45 dB 6:36 09-Hoochie Coochie Man
DR13 -1.93 dB -19.69 dB 3:19 10-Beat Band Battle The Bats / You’d Better Move On
DR11 -1.25 dB -13.94 dB 3:01 11-Beat Band Battle The Bats / Roadrunner
DR11 -0.05 dB -12.67 dB 3:05 12-Beat Band Battle The Bats / Dizzy Miss Lizzy
DR12 -0.20 dB -12.81 dB 2:44 13-Beat Band Battle The Bats / Farmer John
DR11 -0.06 dB -12.55 dB 2:30 14-Beat Band Battle The Bats / Sweet Little Rock ‘N’ Roller
DR11 -0.05 dB -12.07 dB 2:38 15-The German Bonds / Some Other Guy
DR11 -0.05 dB -12.53 dB 2:11 16-The German Bonds / I’m A Hog For You
DR10 -0.49 dB -11.75 dB 2:24 17-The German Bonds / Sweets For My Sweet
DR12 -0.10 dB -13.14 dB 2:06 18-The Broom Town Band / Forellen Twist
DR12 -0.09 dB -13.00 dB 2:25 19-The Broom Town Band / Good Golly Miss Molly
DR11 -0.10 dB -12.96 dB 2:21 20-The Four Renders / Go Johnny Go
DR11 -0.11 dB -12.98 dB 2:02 21-The Four Renders / Beatiful Dreamer
DR12 -0.05 dB -13.97 dB 2:15 22-The Four Renders / Hippy Hippy Shake
DR11 -0.11 dB -12.86 dB 2:22 23-Big GС†ff And The Tigers / Now’s The Time To Fall In Love
DR12 -0.07 dB -13.76 dB 2:00 24-Big GС†ff And The Tigers / I’ll Never Get Over You
DR12 -0.08 dB -13.42 dB 2:50 25-Big Gцff And The Tigers / Mean Woman Blues
DR12 -0.27 dB -13.87 dB 2:23 26-The Phantom Brothers / Oh Carol
DR13 -0.47 dB -15.31 dB 2:18 27-The Phantom Brothers / Shakin’ All Over
––––––––––––––––––––––––––––––––––––––––

Number of tracks: 27
Official DR value: DR11

Samplerate: 44100 Hz
Channels: 2
Bits per sample: 16
Bitrate: 911 kbps
Codec: FLAC

CUETools Log
[CUETools log; Date: 15.07.2017 0:06:43; Version: 2.1.4]
[CTDB TOCID: 1GqmDVN1H2IfsgPizgI.Y76WgsU-] found.
Track | CTDB Status
1 | (2/2) Accurately ripped
2 | (2/2) Accurately ripped
3 | (2/2) Accurately ripped
4 | (2/2) Accurately ripped
5 | (2/2) Accurately ripped
6 | (2/2) Accurately ripped
7 | (2/2) Accurately ripped
8 | (2/2) Accurately ripped
9 | (2/2) Accurately ripped
10 | (2/2) Accurately ripped
11 | (2/2) Accurately ripped
12 | (2/2) Accurately ripped
13 | (2/2) Accurately ripped
14 | (2/2) Accurately ripped
15 | (2/2) Accurately ripped
16 | (2/2) Accurately ripped
17 | (2/2) Accurately ripped
18 | (2/2) Accurately ripped
19 | (2/2) Accurately ripped
20 | (2/2) Accurately ripped
21 | (2/2) Accurately ripped
22 | (2/2) Accurately ripped
23 | (2/2) Accurately ripped
24 | (2/2) Accurately ripped
25 | (2/2) Accurately ripped
26 | (2/2) Accurately ripped
27 | (2/2) Accurately ripped
[AccurateRip ID: 0051673a-0604e854-9312291b] found.
Track [ CRC | V2 ] Status
01 [17d0aa03|07a71459] (0+2/2) Accurately ripped
02 [24f45b1a|c3da14b9] (0+2/2) Accurately ripped
03 [217faf65|64d4c5d5] (0+2/2) Accurately ripped
04 [87b4d87f|c2e3c0ad] (0+2/2) Accurately ripped
05 [198b18cb|68b90800] (0+2/2) Accurately ripped
06 [d00f9595|453f0d9e] (0+2/2) Accurately ripped
07 [b81f4c42|00aaa695] (0+2/2) Accurately ripped
08 [22cf7933|b1f8d21f] (0+2/2) Accurately ripped
09 [39a1da9c|5176986d] (0+2/2) Accurately ripped
10 [964a7b15|b515ba6a] (0+2/2) Accurately ripped
11 [954338e0|f98eeb63] (0+2/2) Accurately ripped
12 [5c75fb2a|3f6692b0] (0+2/2) Accurately ripped
13 [e27b0d3d|7ba7be45] (0+2/2) Accurately ripped
14 [e105151f|967c7e4f] (0+2/2) Accurately ripped
15 [6157fe3c|3fe568f7] (0+2/2) Accurately ripped
16 [7798157b|3bc852ab] (0+2/2) Accurately ripped
17 [5a6d66a7|e2509ca0] (0+2/2) Accurately ripped
18 [7e169a7e|33ad1025] (0+2/2) Accurately ripped
19 [8e5c1ac9|863a6384] (0+2/2) Accurately ripped
20 [dea6db05|e84e651f] (0+2/2) Accurately ripped
21 [ec3455b7|f7c59278] (0+2/2) Accurately ripped
22 [00efcc28|cd382635] (0+2/2) Accurately ripped
23 [147afa84|6d2d558d] (0+2/2) Accurately ripped
24 [20d6b198|e47c641f] (0+2/2) Accurately ripped
25 [ea66dc80|11bfdda1] (0+2/2) Accurately ripped
26 [6a4a94fb|c0eaa9e7] (0+2/2) Accurately ripped
27 [e73750ef|3ccafefd] (0+2/2) Accurately ripped

Track Peak [ CRC32 ] [W/O NULL] [ LOG ]
– 99,4 [D3EAFBD9] [E2DCE19F] CRC32
01 86,7 [FA5F35FC] [BE8C1ED2]
02 91,0 [E9E366BA] [B2832FC8]
03 95,7 [ECB58211] [52B68E60]
04 86,9 [7DBB11E4] [56B94AF6]
05 89,9 [BE7952BA] [AD67A833]
06 84,5 [3050BB05] [80A821C7]
07 86,8 [16F85FA7] [CBB70746]
08 91,3 [064CC60D] [F84D0F08]
09 87,7 [94B82487] [706E9D22]
10 80,1 [5C63D7A2] [ABFBCAC4]
11 86,5 [6E308BE5] [11509A0B]
12 99,3 [7EDFC770] [D14850A1]
13 97,7 [AEB06852] [43212232]
14 99,3 [2CA6A035] [557D2FEB]
15 99,4 [CDCF6126] [DFE6773A]
16 99,4 [8B056DFB] [C43918C7]
17 94,5 [A32D1383] [26D0E4B4]
18 98,9 [ADF1F72C] [49069C81]
19 99,0 [04E22CD0] [D14A9C5D]
20 98,9 [7AE00669] [DC98E3DB]
21 98,7 [B1085692] [26E27A99]
22 99,4 [AF6A3A77] [41C21BD5]
23 98,7 [C74B48B0] [5D04477F]
24 99,1 [EE279FA6] [CE4B4BE2]
25 99,0 [E0A37171] [08F5054D]
26 96,9 [010EB1DB] [E5D637DD]
27 94,7 [2B6CCCDD] [1A6BC083]

All thanks go to sinicinal

Box Set in my Blog

Download VA: Die Ariola Star-Club Aufnahmen (1999):

VA: Die Ariola Star-Club Aufmahmen (1999) Download, Warez, DDL, Free, Full Album, Torrent, Legal.

Download