VA – Capitol Sings Jerome Kern: The Song Is You (1992)

Download
VA - Capitol Sings Jerome Kern: The Song Is You (1992)

VA – Capitol Sings Jerome Kern: The Song Is You (1992)
EAC Rip | FLAC with CUE and log | scans | 304 mb
MP3 CBR 320kbps | RAR | 158 mb
Genre: jazz, jazz pop, pop

Capitol Sings Jerome Kern: The Song Is You is a 1992 compilation released by Capitol Records. This is part of the label’s Capitol Sings… series and features a wide range of artists covering his material, including Keely Smith, Nancy Wilson, Peggy Lee, Gordon MacRae and many more.

VA - Capitol Sings Jerome Kern: The Song Is You (1992)

1. Keely Smith – The Song Is You (3:13)
2. Helen Forrest – All the Things You Are (2:15)
3. Nat King Cole – Pick Yourself Up (3:11)
4. Lena Horne – In Love in Vain (2:32)
5. The Dinning Sisters – The Way You Look Tonight (3:20)
6. Dinah Washington – Why Was I Born? (2:42)
7. Gordon MacRae – Lovely to Look At (1:44)
8. Peggy Lee – I Won’t Dance (2:04)
9. Margaret Whiting – Look for the Silver Lining (2:59)
10. Johnny Mercer – They Didn’t Believe Me (2:48)
11. Trudy Richards – Can’t Help Lovin’ That Man (2:40)
12. Jo Stafford – Long Ago (And Far Away) (2:55)
13. The Pied Pipers – Who? (2:48)
14. Judy Garland – I’m Old Fashioned (3:22)
15. Dakota Staton – The Folks Who Live on the Hill (3:22)
16. The Four Freshmen – The Last Time I Saw Paris (2:40)
17. Carole Simpson – Sure Thing (2:20)
18. Peggy Lee – Make Believe (2:05)
19. The Four Preps – Smoke Gets in Your Eyes (3:11)
20. Dinah Washington – Bill (3:00)
21. Paul Whiteman – You Were Never Lovelier (3:17)
22. Martha Tilton & Johnny Mercer – A Fine Romance (2:46)
23. Nancy Wilson – Dearly Beloved (2:13)
24. Jo Stafford – Yesterdays (3:08)
25. Gordon MacRae – Old Man River (3:55)

Produced & compiled by Brad Benedict
Digitally remastered by Bob Norberg

EAC Log
Exact Audio Copy V1.1 from 23. June 2015

EAC extraction logfile from 2. February 2017, 7:19

Various Artists / Capitol Sings Jerome Kern: The Song Is You

Used drive : TEAC DVD-ROM DV-28SW Adapter: 1 ID: 0

Read mode : Secure
Utilize accurate stream : Yes
Defeat audio cache : Yes
Make use of C2 pointers : No

Read offset correction : 6
Overread into Lead-In and Lead-Out : No
Fill up missing offset samples with silence : Yes
Delete leading and trailing silent blocks : No
Null samples used in CRC calculations : Yes
Used interface : Native Win32 interface for Win NT & 2000
Gap handling : Appended to previous track

Used output format : Internal WAV Routines
Sample format : 44.100 Hz; 16 Bit; Stereo

TOC of the extracted CD

Track | Start | Length | Start sector | End sector
––––––––––––––––––––––––––––-
1 | 0:00.00 | 3:12.40 | 0 | 14439
2 | 3:12.40 | 2:14.52 | 14440 | 24541
3 | 5:27.17 | 3:11.15 | 24542 | 38881
4 | 8:38.32 | 2:31.48 | 38882 | 50254
5 | 11:10.05 | 3:20.30 | 50255 | 65284
6 | 14:30.35 | 2:42.07 | 65285 | 77441
7 | 17:12.42 | 1:44.15 | 77442 | 85256
8 | 18:56.57 | 2:04.33 | 85257 | 94589
9 | 21:01.15 | 2:58.55 | 94590 | 107994
10 | 23:59.70 | 2:47.45 | 107995 | 120564
11 | 26:47.40 | 2:39.60 | 120565 | 132549
12 | 29:27.25 | 2:55.25 | 132550 | 145699
13 | 32:22.50 | 2:47.70 | 145700 | 158294
14 | 35:10.45 | 3:22.27 | 158295 | 173471
15 | 38:32.72 | 3:21.53 | 173472 | 188599
16 | 41:54.50 | 2:40.27 | 188600 | 200626
17 | 44:35.02 | 2:19.43 | 200627 | 211094
18 | 46:54.45 | 2:05.07 | 211095 | 220476
19 | 48:59.52 | 3:11.13 | 220477 | 234814
20 | 52:10.65 | 2:59.45 | 234815 | 248284
21 | 55:10.35 | 3:16.55 | 248285 | 263039
22 | 58:27.15 | 2:45.67 | 263040 | 275481
23 | 61:13.07 | 2:13.08 | 275482 | 285464
24 | 63:26.15 | 3:07.45 | 285465 | 299534
25 | 66:33.60 | 3:55.47 | 299535 | 317206

Track 1

Filename C:My DocumentsMy FLACVA – Capitol Sings Jerome Kern, The Song Is You (1992) [FLAC]1 – Keely Smith – The Song Is You.wav

Pre-gap length 0:00:02.00

Peak level 93.2 %
Extraction speed 2.1 X
Track quality 99.9 %
Test CRC 47E6FD72
Copy CRC 47E6FD72
Accurately ripped (confidence 2) [C288D351] (AR v2)
Copy OK

Track 2

Filename C:My DocumentsMy FLACVA – Capitol Sings Jerome Kern, The Song Is You (1992) [FLAC]2 – Helen Forrest – All The Things You Are.wav

Pre-gap length 0:00:01.45

Peak level 72.3 %
Extraction speed 1.8 X
Track quality 100.0 %
Test CRC C2C4865A
Copy CRC C2C4865A
Accurately ripped (confidence 2) [C1F7E9CF] (AR v2)
Copy OK

Track 3

Filename C:My DocumentsMy FLACVA – Capitol Sings Jerome Kern, The Song Is You (1992) [FLAC]3 – Nat King Cole – Pick Yourself Up.wav

Pre-gap length 0:00:01.17

Peak level 80.4 %
Extraction speed 2.0 X
Track quality 99.9 %
Test CRC 37181005
Copy CRC 37181005
Accurately ripped (confidence 2) [1158A1E0] (AR v2)
Copy OK

Track 4

Filename C:My DocumentsMy FLACVA – Capitol Sings Jerome Kern, The Song Is You (1992) [FLAC]4 – Lena Horne – In Love In Vain.wav

Pre-gap length 0:00:01.45

Peak level 83.9 %
Extraction speed 3.0 X
Track quality 100.0 %
Test CRC 32F6AC49
Copy CRC 32F6AC49
Accurately ripped (confidence 2) [BEEECEA5] (AR v2)
Copy OK

Track 5

Filename C:My DocumentsMy FLACVA – Capitol Sings Jerome Kern, The Song Is You (1992) [FLAC]5 – The Dinning Sisters – The Way You Look Tonight.wav

Pre-gap length 0:00:01.38

Peak level 62.4 %
Extraction speed 3.2 X
Track quality 100.0 %
Test CRC 45634EFF
Copy CRC 45634EFF
Accurately ripped (confidence 2) [8D05C82C] (AR v2)
Copy OK

Track 6

Filename C:My DocumentsMy FLACVA – Capitol Sings Jerome Kern, The Song Is You (1992) [FLAC]6 – Dinah Washington – Why Was I Born.wav

Pre-gap length 0:00:01.13

Peak level 89.6 %
Extraction speed 3.3 X
Track quality 100.0 %
Test CRC 2AA946A5
Copy CRC 2AA946A5
Accurately ripped (confidence 2) [5F3C6E1D] (AR v2)
Copy OK

Track 7

Filename C:My DocumentsMy FLACVA – Capitol Sings Jerome Kern, The Song Is You (1992) [FLAC]7 – Gordon MacRae – Lovely To Look At.wav

Pre-gap length 0:00:01.27

Peak level 87.3 %
Extraction speed 3.2 X
Track quality 100.0 %
Test CRC 422613F9
Copy CRC 422613F9
Accurately ripped (confidence 2) [32AA3FE3] (AR v2)
Copy OK

Track 8

Filename C:My DocumentsMy FLACVA – Capitol Sings Jerome Kern, The Song Is You (1992) [FLAC]8 – Peggy Lee – I Won’t Dance.wav

Pre-gap length 0:00:01.20

Peak level 69.9 %
Extraction speed 3.4 X
Track quality 100.0 %
Test CRC 99489DCD
Copy CRC 99489DCD
Accurately ripped (confidence 2) [05C44826] (AR v2)
Copy OK

Track 9

Filename C:My DocumentsMy FLACVA – Capitol Sings Jerome Kern, The Song Is You (1992) [FLAC]9 – Margaret Whiting – Look For The Silver Lining.wav

Pre-gap length 0:00:01.30

Peak level 48.0 %
Extraction speed 3.8 X
Track quality 100.0 %
Test CRC 449EC2C5
Copy CRC 449EC2C5
Accurately ripped (confidence 2) [53CC4493] (AR v2)
Copy OK

Track 10

Filename C:My DocumentsMy FLACVA – Capitol Sings Jerome Kern, The Song Is You (1992) [FLAC]10 – Johnny Mercer – They Didn’t Believe Me.wav

Pre-gap length 0:00:01.18

Peak level 53.6 %
Extraction speed 3.9 X
Track quality 100.0 %
Test CRC 9DC55F69
Copy CRC 9DC55F69
Accurately ripped (confidence 2) [43B0A111] (AR v2)
Copy OK

Track 11

Filename C:My DocumentsMy FLACVA – Capitol Sings Jerome Kern, The Song Is You (1992) [FLAC]11 – Trudy Richards – Can’t Help Lovin’ That Man.wav

Pre-gap length 0:00:01.20

Peak level 67.5 %
Extraction speed 3.9 X
Track quality 100.0 %
Test CRC 4980808A
Copy CRC 4980808A
Accurately ripped (confidence 2) [E61BF76E] (AR v2)
Copy OK

Track 12

Filename C:My DocumentsMy FLACVA – Capitol Sings Jerome Kern, The Song Is You (1992) [FLAC]12 – Jo Stafford – Long Ago (And Far Away).wav

Pre-gap length 0:00:01.43

Peak level 49.8 %
Extraction speed 4.2 X
Track quality 100.0 %
Test CRC 17EEEB8F
Copy CRC 17EEEB8F
Accurately ripped (confidence 2) [F634F262] (AR v2)
Copy OK

Track 13

Filename C:My DocumentsMy FLACVA – Capitol Sings Jerome Kern, The Song Is You (1992) [FLAC]13 – The Pied Pipers – Who.wav

Pre-gap length 0:00:01.28

Peak level 85.4 %
Extraction speed 4.2 X
Track quality 100.0 %
Test CRC 2E83A222
Copy CRC 2E83A222
Accurately ripped (confidence 2) [4F489E83] (AR v2)
Copy OK

Track 14

Filename C:My DocumentsMy FLACVA – Capitol Sings Jerome Kern, The Song Is You (1992) [FLAC]14 – Judy Garland – I’m Old Fashioned.wav

Pre-gap length 0:00:01.18

Peak level 62.9 %
Extraction speed 4.5 X
Track quality 100.0 %
Test CRC 07A2BCD3
Copy CRC 07A2BCD3
Accurately ripped (confidence 2) [34310BCD] (AR v2)
Copy OK

Track 15

Filename C:My DocumentsMy FLACVA – Capitol Sings Jerome Kern, The Song Is You (1992) [FLAC]15 – Dakota Staton – The Folks Who Live On The Hill.wav

Pre-gap length 0:00:01.17

Peak level 63.5 %
Extraction speed 4.6 X
Track quality 100.0 %
Test CRC 90FABF59
Copy CRC 90FABF59
Accurately ripped (confidence 2) [842DA791] (AR v2)
Copy OK

Track 16

Filename C:My DocumentsMy FLACVA – Capitol Sings Jerome Kern, The Song Is You (1992) [FLAC]16 – The Four Freshmen – The Last Time I Saw Paris.wav

Pre-gap length 0:00:01.35

Peak level 68.1 %
Extraction speed 3.6 X
Track quality 99.9 %
Test CRC 09213C29
Copy CRC 09213C29
Accurately ripped (confidence 2) [250D759C] (AR v2)
Copy OK

Track 17

Filename C:My DocumentsMy FLACVA – Capitol Sings Jerome Kern, The Song Is You (1992) [FLAC]17 – Carole Simpson – Sure Thing.wav

Pre-gap length 0:00:01.30

Peak level 51.3 %
Extraction speed 4.5 X
Track quality 100.0 %
Test CRC 701F976A
Copy CRC 701F976A
Accurately ripped (confidence 2) [18D065D0] (AR v2)
Copy OK

Track 18

Filename C:My DocumentsMy FLACVA – Capitol Sings Jerome Kern, The Song Is You (1992) [FLAC]18 – Peggy Lee – Make Believe.wav

Pre-gap length 0:00:01.25

Peak level 98.9 %
Extraction speed 4.5 X
Track quality 100.0 %
Test CRC 8F2595C8
Copy CRC 8F2595C8
Accurately ripped (confidence 2) [73467A3D] (AR v2)
Copy OK

Track 19

Filename C:My DocumentsMy FLACVA – Capitol Sings Jerome Kern, The Song Is You (1992) [FLAC]19 – The Four Preps – Smoke Gets In Your Eyes.wav

Pre-gap length 0:00:01.27

Peak level 83.8 %
Extraction speed 0.5 X
Track quality 100.0 %
Test CRC 953DEAF8
Copy CRC 953DEAF8
Accurately ripped (confidence 2) [BBDF699B] (AR v2)
Copy OK

Track 20

Filename C:My DocumentsMy FLACVA – Capitol Sings Jerome Kern, The Song Is You (1992) [FLAC]20 – Dinah Washington – Bill.wav

Pre-gap length 0:00:01.23

Peak level 67.3 %
Extraction speed 4.1 X
Track quality 99.9 %
Test CRC 91A69A30
Copy CRC 91A69A30
Accurately ripped (confidence 2) [A94B3199] (AR v2)
Copy OK

Track 21

Filename C:My DocumentsMy FLACVA – Capitol Sings Jerome Kern, The Song Is You (1992) [FLAC]21 – Paul Whiteman – You Were Never Lovelier.wav

Pre-gap length 0:00:01.43

Peak level 65.7 %
Extraction speed 5.2 X
Track quality 100.0 %
Test CRC D2E2AA7B
Copy CRC D2E2AA7B
Accurately ripped (confidence 2) [49841396] (AR v2)
Copy OK

Track 22

Filename C:My DocumentsMy FLACVA – Capitol Sings Jerome Kern, The Song Is You (1992) [FLAC]22 – Martha Tilton & Johnny Mercer – A Fine Romance.wav

Pre-gap length 0:00:01.23

Peak level 91.6 %
Extraction speed 5.1 X
Track quality 100.0 %
Test CRC 219EA427
Copy CRC 219EA427
Accurately ripped (confidence 2) [6A44608F] (AR v2)
Copy OK

Track 23

Filename C:My DocumentsMy FLACVA – Capitol Sings Jerome Kern, The Song Is You (1992) [FLAC]23 – Nancy Wilson – Dearly Beloved.wav

Pre-gap length 0:00:01.22

Peak level 88.3 %
Extraction speed 3.9 X
Track quality 99.9 %
Test CRC 108745B9
Copy CRC 108745B9
Accurately ripped (confidence 2) [BA887FF8] (AR v2)
Copy OK

Track 24

Filename C:My DocumentsMy FLACVA – Capitol Sings Jerome Kern, The Song Is You (1992) [FLAC]24 – Jo Stafford – Yesterdays.wav

Pre-gap length 0:00:01.28

Peak level 59.4 %
Extraction speed 5.3 X
Track quality 100.0 %
Test CRC 9D4AA496
Copy CRC 9D4AA496
Accurately ripped (confidence 2) [5C3FDDC2] (AR v2)
Copy OK

Track 25

Filename C:My DocumentsMy FLACVA – Capitol Sings Jerome Kern, The Song Is You (1992) [FLAC]25 – Gordon MacRae – Old Man River.wav

Pre-gap length 0:00:01.28

Peak level 96.8 %
Extraction speed 5.6 X
Track quality 100.0 %
Test CRC AA50AD39
Copy CRC AA50AD39
Accurately ripped (confidence 2) [B039F727] (AR v2)
Copy OK

All tracks accurately ripped

No errors occurred

End of status report

–– CUETools DB Plugin V2.1.6

[CTDB TOCID: j92mTxeG_9hgdxkX.iNtiihKKXk-] found
Submit result: j92mTxeG_9hgdxkX.iNtiihKKXk- has been confirmed
Track | CTDB Status
1 | (7/7) Accurately ripped
2 | (7/7) Accurately ripped
3 | (7/7) Accurately ripped
4 | (7/7) Accurately ripped
5 | (7/7) Accurately ripped
6 | (7/7) Accurately ripped
7 | (7/7) Accurately ripped
8 | (7/7) Accurately ripped
9 | (7/7) Accurately ripped
10 | (7/7) Accurately ripped
11 | (7/7) Accurately ripped
12 | (7/7) Accurately ripped
13 | (7/7) Accurately ripped
14 | (7/7) Accurately ripped
15 | (7/7) Accurately ripped
16 | (7/7) Accurately ripped
17 | (7/7) Accurately ripped
18 | (7/7) Accurately ripped
19 | (7/7) Accurately ripped
20 | (7/7) Accurately ripped
21 | (7/7) Accurately ripped
22 | (7/7) Accurately ripped
23 | (7/7) Accurately ripped
24 | (7/7) Accurately ripped
25 | (7/7) Accurately ripped

==== Log checksum 313899C798A6E6B1AF8D7E637437931644FBA25ACD4779E49DE4537266E25771 ====

VA - Capitol Sings Jerome Kern: The Song Is You (1992)

VA – Capitol Sings Jerome Kern: The Song Is You (1992) Download, Warez, DDL, Free, Full Album, Torrent, Legal.

Download