VA – Best Violin 100 (2010)

Download
VA - Best Violin 100 (2010)

VA – Best Violin 100
EAC Rip | FLAC (tracks)+cue, log, front cover | 465:11 min | 2.04 GB
Label: Alliance/EMI Classics | Tracks: 100 | Rls.date: 2017
Classical

New chamber compositions by Telemann are now made available through intensive research. They are presented in modern score editions focusing on the Magdeburg Sunday Concerts (Sonntagsmusiken). The arias include pieces taken from complete sacred compositions and performed in Hamburgs principal places of worship during the church year 1726-27. The Eisenach court secretary Johann Friedrich Helbig was the author of the texts for the church compositions and the arias included in them.

TRACKLIST

CD1 – Vivaldi and the Italian Baroque
[03:44] 01. Vivaldi: ‘The Four Seasons (Spring)’ – 1. Allegro
[02:38] 02. Vivaldi: ‘The Four Seasons (Spring)’ – 2. Largo
[04:28] 03. Vivaldi: ‘The Four Seasons (Spring)’ – 3. Danza Pastorale
[05:10] 04. Vivaldi: ‘The Four Seasons (Summer)’ – 1. Allegro Non Molto
[02:05] 05. Vivaldi: ‘The Four Seasons (Summer)’ – 2. Adagio
[02:27] 06. Vivaldi: ‘The Four Seasons (Summer)’ – 3. Presto
[05:35] 07. Vivaldi: ‘The Four Seasons (Autumn)’ – 1. Allegro
[02:12] 08. Vivaldi: ‘The Four Seasons (Autumn)’ – 2. Adagio Molto
[03:26] 09. Vivaldi: ‘The Four Seasons (Autumn)’ – 3. Allegro
[03:30] 10. Vivaldi: ‘The Four Seasons (Winter)’ – 1. Allegro Non Molto
[02:01] 11. Vivaldi: ‘The Four Seasons (Winter)’ – 2. Largo
[03:14] 12. Vivaldi: ‘The Four Seasons (Winter)’ – 3. Allegro
[01:03] 13. Vivaldi: Violin Sonata In A, Op. 2 – 2, RV 31 – 1. Preludio A Capriccio
[01:45] 14. Vivaldi: Violin Sonata In A, Op. 2 – 2, RV 31 – 2. Corrente
[01:13] 15. Vivaldi: Violin Sonata In A, Op. 2 – 2, RV 31 – 3. Adagio
[02:17] 16. Vivaldi: Violin Sonata In A, Op. 2 – 2, RV 31 – 4. Giga
[07:45] 17. Tartini: Violin Sonata In G Minor, ‘The Devil’s Trill’
[03:41] 18. Boccherini: String Quintet In E, Op. 11 – 5, G 275 – Minuetto
[10:07] 19. Vitali: Chaconne In G Minor
[09:20] 20. Corelli: Violin Sonata In D Minor, Op. 5 – 12, ‘La Follia’

CD2 – Bach and Mozart
[05:10] 01. Bach: Brandenburg Concerto #5 In D, BWV 1050 – 3. Allegro
[07:45] 02. Bach: Concerto In D Minor For 2 Violins, BWV 1043, ‘Double’ – 2. Largo Ma…
[04:11] 03. Bach: Violin Concerto In A Minor, BWV 1041 – 1. [Allegro]
[06:01] 04. Bach: Concerto In C Minor For Oboe & Violin, BWV 1060R – 2. Adagio
[03:00] 05. Bach: Violin Concerto In E, BWV 1042 – 3. Allegro Assai
[12:54] 06. Bach: Violin Partita #2 In D Minor, BWV 1004 – 5. Chaconne
[04:53] 07. Bach: Sonata #3 In C For Solo Violin, BWV 1005 – 4. Allegro Assai
[03:55] 08. Bach: Violin Partita #3 In E, BWV 1006 – Preludio
[04:11] 09. Mozart: Violin Sonata In B Flat, K 378 – 3. Rondo: Allegro
[03:58] 10. Mozart: Violin Concerto #3 In G, K 216 – 1. Allegro
[11:56] 11. Mozart: Sinfonia Concertante In E Flat, K 364 – Andante
[08:35] 12. Mozart: Violin Concerto #5 In A, K 219, ‘Turkish’ – 3. Rondeau

CD3 – Beethoven and Brahms
[04:26] 01. Beethoven: Sonates Pour Violon & Piano – Sonate N°5 En Fa Majeur, Op.24 ”Le Printemps” : I Allegro
[01:11] 02. Beethoven: Sonates Pour Violon & Piano – Sonate N°5 En Fa Majeur, Op.24 ”Le Printemps” : III Scherzo (Allegro Molto)
[06:29] 03. Beethoven: Sonates Pour Violon & Piano – Sonate N°5 En Fa Majeur, Op.24 ”Le Printemps” : IV Rondo (Allegro Ma Non Troppo)
[04:29] 04. Beethoven: Romances (1992 Digital Remaster): G, Op. 40 (C1802)
[03:15] 05. Beethoven: Violin Sonata No. 2 In A Op. 12 No. 2: I. Allegro Vivace
[06:33] 06. Beethoven: Violin Sonata No. 3 In E Flat Op. 12 No. 3: II. Adagio Con Molt’espressione
[02:10] 07. Beethoven: Violin Sonata No. 4 In A Minor Op. 23: III. Allegro Molto
[03:54] 08. Beethoven: String Quartet No.1 In F Op.18 No.1: II. Adagio affettuoso ed appassionato (extract)
[05:36] 09. Beethoven: Triple Concerto For Violin, Cello & Piano In C Major, Op. 56 (1996 Digital Remaster): II. Largo
[03:34] 10. Beethoven: Violin Sonata No.8 In G Op.30: III. Allegro Vivace
[02:43] 11. Beethoven: Romances (1988 Digital Remaster): No. 2 In F Op. 50
[06:50] 12. Beethoven: Violin Sonata No. 9 In A ‘Kreutzer’ Op. 47 (1985 Digital Remaster): III. Finale (Presto)
[04:06] 13. Beethoven: Violin Concerto In D Op. 61 (Cadenzas By Vasa Prihoda) (1988 Digital Remaster): I. Allegro ma non troppo
[03:29] 14. Beethoven: Violin Concerto In D Op. 61 (Cadenzas By Vasa Prihoda) (1988 Digital Remaster): II. Larghetto
[05:03] 15. Beethoven: Violin Concerto In D Op. 61 (Cadenzas By Vasa Prihoda) (1988 Digital Remaster): III. Rondo (Allegro)
[06:11] 16. Brahms: Sonata For Violin And Piano No. 2 In A Major, Op. 100: II. Andante tranquillo – Vivace – Andante – Vivace di piu – Andante – Vivace
[08:33] 17. Brahms: Concerto For Violin And Orchestra In D Major Op. 77 (Cadenzas: Kreisler) (1996 Digital Remaster): Allegro giocoso, ma non troppo vivace

CD4 – The 19th Century Violin
[03:00] 01. Sarasate – Concert fantasy Carmen – Sara Chang
[07:58] 02. Mendelssohn Violin Concerto in E minor -2. Andante- Y.Menuchin
[02:24] 03. Mendelssohn – Auf FlugelnGeanges – R. Capucon
[05:47] 04. Lalo- Symphonie espagnale Op.21 – 3.Allegro- L.Kagan
[06:45] 05. Paganini – Violin Concerto No1 in D -3.Rondo – Michael Rabin
[08:58] 06. Saint Saens – Introduction and Rondo capricioso in A – U. Hoelsher
[05:29] 07. Massenet – Meditation – Sara Chang
[04:30] 08. Tchajkowsky – Russian Dance – Ida Haendel
[09:42] 09. Tchaikovsky – Violin Cocnerto in D- 3. Allegro – V. Spivakov
[08:44] 10. Bruch – Violin Concero No1 2. Adagio – M. Ushida
[05:23] 11. Vieuxtemps – Violin Concerto No2 – 2. Adagio – Y. Menuchin
[07:00] 12. Paganini – Violin Concerto No2 3. Rondo – Y. Menuchin

CD5 – The 20th Century Violin
[03:53] 01. Prokofiev – Violin Concerto No. 1 In D Major, Op. 19: Scherzo (Vivacissimo)
[02:06] 01. Romeo & Juliet: Masques – Romeo & Juliet: Masques
[08:54] 03. Elgar – Violin Concerto In B Minor Op. 61: Cadenza (Accompagnata: Lento) Allegro molto
[03:20] 04. Elgar – Salut D’amour Op. 12
[07:39] 05. Sibelius – Violin Concerto In D Minor Op. 47: III. Allegro Ma Non Tanto
[03:04] 06. Piece en forme de habanera – Piece en forme de habanera
[03:26] 07. Berceuse Op. 16 (1979 Digital Remaster)
[05:03] 08. Shostakovich – Concerto For Violin & Orchestra No. 1 In A Minor Op. 99 (2005 Digital Remaster): Burlesque: Allegro con brio
[03:16] 09. Shostakovich – Romance From The Gadfly
[05:49] 10. Konzert fur Violine und Orchester D-Dur: I. Toccata
[05:16] 11. Szymanowski – Notturno & Tarantella Op.28: Tarantella
[02:34] 12. Delius – Hassan (Arr. Lionel Tertis): Serenade (violin Solo)
[06:51] 13. Walton – Violin Concerto: II. Presto Capriccioso Alla Napolitana – Trio (Canzonetta) – Tempo I
[04:04] 14. Part – Spiegel Im Spiegel (Chillout Excerpt)
[01:32] 15. Bernstein – Serenade For Violin, String Orchestra, Harp & Percussion
[05:05] 16. John Williams – Schindler’s List – Theme
[06:20] 17. Prokofiev – Concerto For Violin And Orchestra No. 2 Op. 63 (2004 Digital Remaster): Allegro, ben marcato

CD6 – Encores and Showpieces
[05:29] 01. Bazzini – Scherzo fantastique – Maxim Vengerov
[03:08] 02. Dvorak – Humoreska – K.W. Chung
[04:30] 03. Paganini – Caprice 24 – M.Riabin
[03:20] 04. Rossini – Andante and Variations – G. Kramer
[03:03] 05. Kreisler – La Gitarra – T. Little
[02:20] 06. Khachaturian – Sabre Dance – D.Sikovietsky
[01:19] 07. Rimsky – Korsakov – Flight of the Bumble Bee – T. Little
[05:58] 08. Wieniawski – Polonaise brillante – M. Vengerov
[03:17] 09. Kreisler – Liebefround – F. Kreisler
[02:31] 10. Brahms – Hungarian Dance No5 – T. Little
[05:29] 11. Tchaikovsky – Valse scherzo – V. Yampolsky
[03:34] 12. Sarasate – Zapateada – M. Rabin
[01:59] 13. Kreisler – Schon Rosmarin – K.W.Chung
[02:55] 14. Suk – Burleska – M. Rabin
[03:26] 15. Falla – Dance espagnole – T. Little
[02:41] 16. Schedrin – Balalaika – M. Vengerov
[05:09] 17. Schubert – Ave Maria – K.W Chung
[05:21] 18. Sarasate – Introduction and Tarantella Op. 43 – M. Vengerov
[04:57] 19. Kreisler – Preludium and Allegro in style of Paganini – N. Milstein
[03:00] 20. Monti – Czardas – T. Little
[03:16] 21. Paganini – Moto perpetuo Op. 11 – M. Rabin
[01:53] 22. Dinicu – Hora staccata – M. Rabin

EAC Log
CD1
Exact Audio Copy V0.99 prebeta 5 from 4. May 2009

EAC extraction logfile from 4. December 2010, 0:09

Various / Best Violin 100 – Cd 1

Used drive : _NEC DVD_RW ND-4551A Adapter: 2 ID: 2

Read mode : Secure
Utilize accurate stream : Yes
Defeat audio cache : Yes
Make use of C2 pointers : No

Read offset correction : 48
Overread into Lead-In and Lead-Out : No
Fill up missing offset samples with silence : Yes
Delete leading and trailing silent blocks : No
Null samples used in CRC calculations : Yes
Used interface : Native Win32 interface for Win NT & 2000
Gap handling : Appended to previous track

Used output format : User Defined Encoder
Selected bitrate : 768 kBit/s
Quality : High
Add ID3 tag : No
Command line compressor : C:ProgrammiExact Audio CopyFLACFLAC.EXE
Additional command line options : -8 -V -T "ARTIST=%a" -T "TITLE=%t" -T "ALBUM=%g" -T "DATE=%y" -T "TRACKNUMBER=%n" -T "TOTALTRACKS=%x" -T "GENRE=%m" -T "ALBUM ARTIST=%v" -T "ALBUMARTIST=%v" -T "COMMENT=EAC V0.99 prebeta 5, Secure Mode, Test & Copy, Accurat

TOC of the extracted CD

Track | Start | Length | Start sector | End sector
––––––––––––––––––––––––––––-
1 | 0:00.00 | 3:44.57 | 0 | 16856
2 | 3:44.57 | 2:38.65 | 16857 | 28771
3 | 6:23.47 | 4:28.54 | 28772 | 48925
4 | 10:52.26 | 5:10.00 | 48926 | 72175
5 | 16:02.26 | 2:05.46 | 72176 | 81596
6 | 18:07.72 | 2:27.08 | 81597 | 92629
7 | 20:35.05 | 5:35.40 | 92630 | 117794
8 | 26:10.45 | 2:12.27 | 117795 | 127721
9 | 28:22.72 | 3:26.04 | 127722 | 143175
10 | 31:49.01 | 3:30.14 | 143176 | 158939
11 | 35:19.15 | 2:01.63 | 158940 | 168077
12 | 37:21.03 | 3:14.73 | 168078 | 182700
13 | 40:36.01 | 1:03.62 | 182701 | 187487
14 | 41:39.63 | 1:45.59 | 187488 | 195421
15 | 43:25.47 | 1:13.39 | 195422 | 200935
16 | 44:39.11 | 2:17.37 | 200936 | 211247
17 | 46:56.48 | 7:45.24 | 211248 | 246146
18 | 54:41.72 | 3:41.26 | 246147 | 262747
19 | 58:23.23 | 10:07.60 | 262748 | 308332
20 | 68:31.08 | 9:20.55 | 308333 | 350387

Track 1

Filename C:Documents and SettingsAdministratorDocumentiBest Violin 100 – Cd 11 – Vivaldi ‘The Four Seasons (Spring)’ – 1. Allegro.wav

Pre-gap length 0:00:02.00

Peak level 77.7 %
Track quality 100.0 %
Test CRC 25ED0ACC
Copy CRC 25ED0ACC
Accurately ripped (confidence 1) [E753E4E2]
Copy OK

Track 2

Filename C:Documents and SettingsAdministratorDocumentiBest Violin 100 – Cd 12 – Vivaldi ‘The Four Seasons (Spring)’ – 2. Largo.wav

Peak level 34.2 %
Track quality 100.0 %
Test CRC 17AB7C6B
Copy CRC 17AB7C6B
Accurately ripped (confidence 1) [2E2E8B63]
Copy OK

Track 3

Filename C:Documents and SettingsAdministratorDocumentiBest Violin 100 – Cd 13 – Vivaldi ‘The Four Seasons (Spring)’ – 3. Danza Pastorale.wav

Peak level 67.3 %
Track quality 100.0 %
Test CRC 39AC257E
Copy CRC 39AC257E
Accurately ripped (confidence 1) [94C469E4]
Copy OK

Track 4

Filename C:Documents and SettingsAdministratorDocumentiBest Violin 100 – Cd 14 – Vivaldi ‘The Four Seasons (Summer)’ – 1. Allegro Non Molto.wav

Pre-gap length 0:00:02.60

Peak level 79.3 %
Track quality 100.0 %
Test CRC FA370F51
Copy CRC FA370F51
Accurately ripped (confidence 1) [B266377F]
Copy OK

Track 5

Filename C:Documents and SettingsAdministratorDocumentiBest Violin 100 – Cd 15 – Vivaldi ‘The Four Seasons (Summer)’ – 2. Adagio.wav

Pre-gap length 0:00:00.11

Peak level 53.5 %
Track quality 100.0 %
Test CRC 7F32E78A
Copy CRC 7F32E78A
Accurately ripped (confidence 1) [A4DB8323]
Copy OK

Track 6

Filename C:Documents and SettingsAdministratorDocumentiBest Violin 100 – Cd 16 – Vivaldi ‘The Four Seasons (Summer)’ – 3. Presto.wav

Peak level 78.1 %
Track quality 99.9 %
Test CRC 08C58A13
Copy CRC 08C58A13
Accurately ripped (confidence 1) [2AF887FE]
Copy OK

Track 7

Filename C:Documents and SettingsAdministratorDocumentiBest Violin 100 – Cd 17 – Vivaldi ‘The Four Seasons (Autumn)’ – 1. Allegro.wav

Pre-gap length 0:00:00.64

Peak level 99.8 %
Track quality 100.0 %
Test CRC 28136737
Copy CRC 28136737
Accurately ripped (confidence 1) [3481FE75]
Copy OK

Track 8

Filename C:Documents and SettingsAdministratorDocumentiBest Violin 100 – Cd 18 – Vivaldi ‘The Four Seasons (Autumn)’ – 2. Adagio Molto.wav

Peak level 19.8 %
Track quality 100.0 %
Test CRC F2779BD8
Copy CRC F2779BD8
Accurately ripped (confidence 1) [97EE7FC2]
Copy OK

Track 9

Filename C:Documents and SettingsAdministratorDocumentiBest Violin 100 – Cd 19 – Vivaldi ‘The Four Seasons (Autumn)’ – 3. Allegro.wav

Peak level 82.4 %
Track quality 100.0 %
Test CRC 32B0CF3F
Copy CRC 32B0CF3F
Accurately ripped (confidence 1) [7B0D651F]
Copy OK

Track 10

Filename C:Documents and SettingsAdministratorDocumentiBest Violin 100 – Cd 110 – Vivaldi ‘The Four Seasons (Winter)’ – 1. Allegro Non Molto.wav

Pre-gap length 0:00:01.71

Peak level 99.8 %
Track quality 99.9 %
Test CRC 52973844
Copy CRC 52973844
Accurately ripped (confidence 1) [88E002B1]
Copy OK

Track 11

Filename C:Documents and SettingsAdministratorDocumentiBest Violin 100 – Cd 111 – Vivaldi ‘The Four Seasons (Winter)’ – 2. Largo.wav

Peak level 20.4 %
Track quality 99.9 %
Test CRC 4A9BC865
Copy CRC 4A9BC865
Accurately ripped (confidence 1) [D9967C2B]
Copy OK

Track 12

Filename C:Documents and SettingsAdministratorDocumentiBest Violin 100 – Cd 112 – Vivaldi ‘The Four Seasons (Winter)’ – 3. Allegro.wav

Peak level 99.8 %
Track quality 100.0 %
Test CRC 070E1780
Copy CRC 070E1780
Accurately ripped (confidence 1) [EE883022]
Copy OK

Track 13

Filename C:Documents and SettingsAdministratorDocumentiBest Violin 100 – Cd 12, RV 31 – 1. Preludio A Capriccio.wav

Pre-gap length 0:00:02.06

Peak level 59.0 %
Track quality 100.0 %
Test CRC 5BFD630C
Copy CRC 5BFD630C
Accurately ripped (confidence 1) [5AD9612C]
Copy OK

Track 14

Filename C:Documents and SettingsAdministratorDocumentiBest Violin 100 – Cd 12, RV 31 – 2. Corrente.wav

Peak level 39.3 %
Track quality 100.0 %
Test CRC E661128B
Copy CRC E661128B
Accurately ripped (confidence 1) [1FCD870B]
Copy OK

Track 15

Filename C:Documents and SettingsAdministratorDocumentiBest Violin 100 – Cd 12, RV 31 – 3. Adagio.wav

Pre-gap length 0:00:00.05

Peak level 48.3 %
Track quality 100.0 %
Test CRC 43B65988
Copy CRC 43B65988
Accurately ripped (confidence 1) [70B18A94]
Copy OK

Track 16

Filename C:Documents and SettingsAdministratorDocumentiBest Violin 100 – Cd 12, RV 31 – 4. Giga.wav

Pre-gap length 0:00:00.11

Peak level 63.0 %
Track quality 99.9 %
Test CRC 1696979E
Copy CRC 1696979E
Accurately ripped (confidence 1) [5CD72EAF]
Copy OK

Track 17

Filename C:Documents and SettingsAdministratorDocumentiBest Violin 100 – Cd 117 – Tartini- Violin Sonata In G Minor, ‘The Devil’s Trill’ – 3.wav

Pre-gap length 0:00:03.28

Peak level 86.0 %
Track quality 100.0 %
Test CRC 19563E77
Copy CRC 19563E77
Accurately ripped (confidence 1) [73DE78B6]
Copy OK

Track 18

Filename C:Documents and SettingsAdministratorDocumentiBest Violin 100 – Cd 15, G 275 – Minuetto.wav

Pre-gap length 0:00:03.59

Peak level 47.1 %
Track quality 100.0 %
Test CRC 23876F9A
Copy CRC 23876F9A
Accurately ripped (confidence 1) [2AFB384C]
Copy OK

Track 19

Filename C:Documents and SettingsAdministratorDocumentiBest Violin 100 – Cd 119 – Vitali- Chaconne In G Minor.wav

Pre-gap length 0:00:03.19

Peak level 69.0 %
Track quality 100.0 %
Test CRC 3AD81BA2
Copy CRC 3AD81BA2
Accurately ripped (confidence 1) [3AA93E9C]
Copy OK

Track 20

Filename C:Documents and SettingsAdministratorDocumentiBest Violin 100 – Cd 112, ‘La Follia’.wav

Pre-gap length 0:00:02.12

Peak level 78.9 %
Track quality 100.0 %
Test CRC 4C83E891
Copy CRC 4C83E891
Accurately ripped (confidence 1) [A8D57F0B]
Copy OK

All tracks accurately ripped

No errors occurred

End of status report

CD2
Exact Audio Copy V0.99 prebeta 5 from 4. May 2009

EAC extraction logfile from 4. December 2010, 10:42

Various / Best Violin 100 – Cd 2

Used drive : _NEC DVD_RW ND-4551A Adapter: 2 ID: 2

Read mode : Secure
Utilize accurate stream : Yes
Defeat audio cache : Yes
Make use of C2 pointers : No

Read offset correction : 48
Overread into Lead-In and Lead-Out : No
Fill up missing offset samples with silence : Yes
Delete leading and trailing silent blocks : No
Null samples used in CRC calculations : Yes
Used interface : Native Win32 interface for Win NT & 2000
Gap handling : Appended to previous track

Used output format : User Defined Encoder
Selected bitrate : 768 kBit/s
Quality : High
Add ID3 tag : No
Command line compressor : C:ProgrammiExact Audio CopyFLACFLAC.EXE
Additional command line options : -8 -V -T "ARTIST=%a" -T "TITLE=%t" -T "ALBUM=%g" -T "DATE=%y" -T "TRACKNUMBER=%n" -T "TOTALTRACKS=%x" -T "GENRE=%m" -T "ALBUM ARTIST=%v" -T "ALBUMARTIST=%v" -T "COMMENT=EAC V0.99 prebeta 5, Secure Mode, Test & Copy, Accurat

TOC of the extracted CD

Track | Start | Length | Start sector | End sector
––––––––––––––––––––––––––––-
1 | 0:00.00 | 5:10.16 | 0 | 23265
2 | 5:10.16 | 7:45.14 | 23266 | 58154
3 | 12:55.30 | 4:11.71 | 58155 | 77050
4 | 17:07.26 | 6:01.10 | 77051 | 104135
5 | 23:08.36 | 3:00.64 | 104136 | 117699
6 | 26:09.25 | 12:54.69 | 117700 | 175818
7 | 39:04.19 | 4:53.63 | 175819 | 197856
8 | 43:58.07 | 3:55.60 | 197857 | 215541
9 | 47:53.67 | 4:11.16 | 215542 | 234382
10 | 52:05.08 | 3:58.65 | 234383 | 252297
11 | 56:03.73 | 11:56.73 | 252298 | 306070
12 | 68:00.71 | 8:35.34 | 306071 | 344729

Track 1

Filename C:Documents and SettingsAdministratorDocumentiBest Violin 100 – Cd 21 – Bach Brandenburg Concerto #5 In D, BWV 1050 – 3. Allegro.wav

Pre-gap length 0:00:02.00

Peak level 60.1 %
Track quality 100.0 %
Test CRC 62E46930
Copy CRC 62E46930
Accurately ripped (confidence 1) [F00C2DE2]
Copy OK

Track 2

Filename C:Documents and SettingsAdministratorDocumentiBest Violin 100 – Cd 22 – Bach Concerto In D Minor For 2 Violins, BWV 1043, ‘Double’ – 2. Largo Ma Non Tanto.wav

Pre-gap length 0:00:00.04

Peak level 53.5 %
Track quality 100.0 %
Test CRC 5175C43C
Copy CRC 5175C43C
Accurately ripped (confidence 1) [6433CA5E]
Copy OK

Track 3

Filename C:Documents and SettingsAdministratorDocumentiBest Violin 100 – Cd 23 – Bach Violin Concerto In A Minor, BWV 1041 – 1. [Allegro].wav

Pre-gap length 0:00:02.18

Peak level 77.7 %
Track quality 100.0 %
Test CRC 341B4F90
Copy CRC 341B4F90
Accurately ripped (confidence 1) [B80C212C]
Copy OK

Track 4

Filename C:Documents and SettingsAdministratorDocumentiBest Violin 100 – Cd 24 – Bach Concerto In C Minor For Oboe & Violin, BWV 1060R – 2. Adagio.wav

Pre-gap length 0:00:02.04

Peak level 50.5 %
Track quality 100.0 %
Test CRC 737813BA
Copy CRC 737813BA
Accurately ripped (confidence 1) [98105976]
Copy OK

Track 5

Filename C:Documents and SettingsAdministratorDocumentiBest Violin 100 – Cd 25 – Bach Violin Concerto In E, BWV 1042 – 3. Allegro Assai.wav

Pre-gap length 0:00:04.22

Peak level 65.9 %
Track quality 100.0 %
Test CRC 916CFF69
Copy CRC 916CFF69
Accurately ripped (confidence 1) [058C69F5]
Copy OK

Track 6

Filename C:Documents and SettingsAdministratorDocumentiBest Violin 100 – Cd 26 – Bach Violin Partita #2 In D Minor, BWV 1004 – 5. Chaconne.wav

Pre-gap length 0:00:01.61

Peak level 69.3 %
Track quality 100.0 %
Test CRC D5881974
Copy CRC D5881974
Accurately ripped (confidence 1) [72B4E68E]
Copy OK

Track 7

Filename C:Documents and SettingsAdministratorDocumentiBest Violin 100 – Cd 27 – Bach Sonata #3 In C For Solo Violin, BWV 1005 – 4. Allegro Assai.wav

Pre-gap length 0:00:00.72

Peak level 45.1 %
Track quality 99.9 %
Test CRC 5A5BD3D2
Copy CRC 5A5BD3D2
Accurately ripped (confidence 1) [A1021BEF]
Copy OK

Track 8

Filename C:Documents and SettingsAdministratorDocumentiBest Violin 100 – Cd 28 – Bach Violin Partita #3 In E, BWV 1006 – Preludio.wav

Pre-gap length 0:00:01.26

Peak level 57.7 %
Track quality 100.0 %
Test CRC F9589434
Copy CRC F9589434
Accurately ripped (confidence 1) [4FCE2C71]
Copy OK

Track 9

Filename C:Documents and SettingsAdministratorDocumentiBest Violin 100 – Cd 29 – Mozart Violin Sonata In B Flat, K 378 – 3. Rondo- Allegro.wav

Pre-gap length 0:00:03.31

Peak level 86.3 %
Track quality 100.0 %
Test CRC E8EA6552
Copy CRC E8EA6552
Accurately ripped (confidence 1) [A752B158]
Copy OK

Track 10

Filename C:Documents and SettingsAdministratorDocumentiBest Violin 100 – Cd 210 – Mozart Violin Concerto #3 In G, K 216 – 1. Allegro.wav

Pre-gap length 0:00:02.21

Peak level 93.3 %
Track quality 100.0 %
Test CRC 5BC48062
Copy CRC 5BC48062
Accurately ripped (confidence 1) [57AD7730]
Copy OK

Track 11

Filename C:Documents and SettingsAdministratorDocumentiBest Violin 100 – Cd 211 – Mozart Sinfonia Concertante In E Flat, K 364 – Andante.wav

Pre-gap length 0:00:04.57

Peak level 80.2 %
Track quality 100.0 %
Test CRC 8C3239A4
Copy CRC 8C3239A4
Accurately ripped (confidence 1) [6C20B722]
Copy OK

Track 12

Filename C:Documents and SettingsAdministratorDocumentiBest Violin 100 – Cd 212 – Mozart Violin Concerto #5 In A, K 219, ‘Turkish’ – 3. Rondeau.wav

Pre-gap length 0:00:04.11

Peak level 70.6 %
Track quality 100.0 %
Test CRC 0C44C65F
Copy CRC 0C44C65F
Accurately ripped (confidence 1) [4395125E]
Copy OK

All tracks accurately ripped

No errors occurred

End of status report

CD3
Exact Audio Copy V0.99 prebeta 5 from 4. May 2009

EAC extraction logfile from 3. December 2010, 21:30

Various / Best Violin 100 – Cd 3

Used drive : _NEC DVD_RW ND-4551A Adapter: 2 ID: 2

Read mode : Secure
Utilize accurate stream : Yes
Defeat audio cache : Yes
Make use of C2 pointers : No

Read offset correction : 48
Overread into Lead-In and Lead-Out : No
Fill up missing offset samples with silence : Yes
Delete leading and trailing silent blocks : No
Null samples used in CRC calculations : Yes
Used interface : Native Win32 interface for Win NT & 2000
Gap handling : Appended to previous track

Used output format : User Defined Encoder
Selected bitrate : 768 kBit/s
Quality : High
Add ID3 tag : No
Command line compressor : C:ProgrammiExact Audio CopyFLACFLAC.EXE
Additional command line options : -8 -V -T "ARTIST=%a" -T "TITLE=%t" -T "ALBUM=%g" -T "DATE=%y" -T "TRACKNUMBER=%n" -T "TOTALTRACKS=%x" -T "GENRE=%m" -T "ALBUM ARTIST=%v" -T "ALBUMARTIST=%v" -T "COMMENT=EAC V0.99 prebeta 5, Secure Mode, Test & Copy, Accurat

TOC of the extracted CD

Track | Start | Length | Start sector | End sector
––––––––––––––––––––––––––––-
1 | 0:00.00 | 4:26.00 | 0 | 19949
2 | 4:26.00 | 1:11.51 | 19950 | 25325
3 | 5:37.51 | 6:31.52 | 25326 | 54702
4 | 12:09.28 | 4:29.21 | 54703 | 74898
5 | 16:38.49 | 3:15.58 | 74899 | 89581
6 | 19:54.32 | 6:33.52 | 89582 | 119108
7 | 26:28.09 | 2:10.24 | 119109 | 128882
8 | 28:38.33 | 3:54.00 | 128883 | 146432
9 | 32:32.33 | 5:36.42 | 146433 | 171674
10 | 38:09.00 | 3:34.39 | 171675 | 187763
11 | 41:43.39 | 2:43.28 | 187764 | 200016
12 | 44:26.67 | 6:50.11 | 200017 | 230777
13 | 51:17.03 | 4:06.63 | 230778 | 249290
14 | 55:23.66 | 3:29.21 | 249291 | 264986
15 | 58:53.12 | 5:03.62 | 264987 | 287773
16 | 63:56.74 | 6:11.13 | 287774 | 315611
17 | 70:08.12 | 8:33.66 | 315612 | 354152

Track 1

Filename C:Documents and SettingsAdministratorDocumenti1. Beethoven – Sonates Pour Violon & Piano – Sonate N°5 En Fa Majeur, Op.24 ”Le Printemps” – I Allegro.wav

Pre-gap length 0:00:02.00

Peak level 94.4 %
Track quality 100.0 %
Test CRC 81C88708
Copy CRC 81C88708
Accurately ripped (confidence 1) [333C7BB4]
Copy OK

Track 2

Filename C:Documents and SettingsAdministratorDocumenti2. Beethoven – Sonates Pour Violon & Piano – Sonate N°5 En Fa Majeur, Op.24 ”Le Printemps” – III Scherzo.wav

Peak level 53.3 %
Track quality 100.0 %
Test CRC 51F97E79
Copy CRC 51F97E79
Accurately ripped (confidence 1) [F08FDA39]
Copy OK

Track 3

Filename C:Documents and SettingsAdministratorDocumenti3. Beethoven – Sonates Pour Violon & Piano – Sonate N°5 En Fa Majeur, Op.24 ”Le Printemps” – IV Rondo.wav

Peak level 70.6 %
Track quality 100.0 %
Test CRC 45FFCD2E
Copy CRC 45FFCD2E
Accurately ripped (confidence 1) [C7CF1140]
Copy OK

Track 4

Filename C:Documents and SettingsAdministratorDocumenti4. Beethoven – Romances (1992 Digital Remaster)- G, Op. 40 (C1802).wav

Pre-gap length 0:00:02.31

Peak level 82.2 %
Track quality 99.9 %
Test CRC 1BA36154
Copy CRC 1BA36154
Accurately ripped (confidence 1) [D5BAF8DD]
Copy OK

Track 5

Filename C:Documents and SettingsAdministratorDocumenti5. Beethoven – Violin Sonata No. 2 In A Op. 12 No. 2- I. Allegro Vivace.wav

Pre-gap length 0:00:03.40

Peak level 72.0 %
Track quality 100.0 %
Test CRC 76477715
Copy CRC 76477715
Accurately ripped (confidence 1) [2FA95964]
Copy OK

Track 6

Filename C:Documents and SettingsAdministratorDocumenti6. Beethoven – Violin Sonata No. 3 In E Flat Op. 12 No. 3- II. Adagio Con Molt’Espressione.wav

Pre-gap length 0:00:03.03

Peak level 99.3 %
Track quality 100.0 %
Test CRC 0B3D5D4F
Copy CRC 0B3D5D4F
Accurately ripped (confidence 1) [FFA8D03A]
Copy OK

Track 7

Filename C:Documents and SettingsAdministratorDocumenti7. Beethoven – Violin Sonata No. 4 In A Minor Op. 23- III. Allegro Molto.wav

Pre-gap length 0:00:03.03

Peak level 70.5 %
Track quality 100.0 %
Test CRC 337C2167
Copy CRC 337C2167
Accurately ripped (confidence 1) [F17190F9]
Copy OK

Track 8

Filename C:Documents and SettingsAdministratorDocumenti8. Beethoven – String Quartet No.1 In F Op.18 No.1- II. Adagio Affettuoso Ed Appassionato.wav

Pre-gap length 0:00:03.21

Peak level 67.7 %
Track quality 100.0 %
Test CRC 12E2240A
Copy CRC 12E2240A
Accurately ripped (confidence 1) [0A4A88E9]
Copy OK

Track 9

Filename C:Documents and SettingsAdministratorDocumenti9. Beethoven – Triple Concerto For Violin, Cello & Piano In C Major, Op. 56- II. Largo.wav

Pre-gap length 0:00:02.39

Peak level 75.8 %
Track quality 100.0 %
Test CRC 4D3A9202
Copy CRC 4D3A9202
Accurately ripped (confidence 1) [74E4B4D0]
Copy OK

Track 10

Filename C:Documents and SettingsAdministratorDocumenti10. Beethoven – Violin Sonata No.8 In G Op.30- III. Allegro Vivace.wav

Pre-gap length 0:00:02.41

Peak level 98.8 %
Track quality 99.9 %
Test CRC EA64F247
Copy CRC EA64F247
Accurately ripped (confidence 1) [07D38B6C]
Copy OK

Track 11

Filename C:Documents and SettingsAdministratorDocumenti11. Beethoven – Romances (1988 Digital Remaster)- No. 2 In F Op. 50.wav

Pre-gap length 0:00:02.70

Peak level 66.7 %
Track quality 99.9 %
Test CRC 51F24804
Copy CRC 51F24804
Accurately ripped (confidence 1) [40167AED]
Copy OK

Track 12

Filename C:Documents and SettingsAdministratorDocumenti12. Beethoven – Violin Sonata No. 9 In A ‘Kreutzer’ Op. 47 (1985 Digital Remaster)- III. Finale (Presto).wav

Pre-gap length 0:00:03.66

Peak level 69.4 %
Track quality 100.0 %
Test CRC 8819E695
Copy CRC 8819E695
Accurately ripped (confidence 1) [4FE8CCE0]
Copy OK

Track 13

Filename C:Documents and SettingsAdministratorDocumenti13. Beethoven – Violin Concerto In D Op. 61 (Cadenzas By Vasa Prihoda) (1988 Digital Remaster)- I. Allegro Ma Non Troppo.wav

Pre-gap length 0:00:02.39

Peak level 81.2 %
Track quality 100.0 %
Test CRC 06E2BE30
Copy CRC 06E2BE30
Accurately ripped (confidence 1) [2805BEEB]
Copy OK

Track 14

Filename C:Documents and SettingsAdministratorDocumenti14. Beethoven – Violin Concerto In D Op. 61 (Cadenzas By Vasa Prihoda) (1988 Digital Remaster)- II. Larghetto -.wav

Pre-gap length 0:00:02.35

Peak level 41.2 %
Track quality 100.0 %
Test CRC F1422A1E
Copy CRC F1422A1E
Accurately ripped (confidence 1) [64B46F3C]
Copy OK

Track 15

Filename C:Documents and SettingsAdministratorDocumenti15. Beethoven – Violin Concerto In D Op. 61 (Cadenzas By Vasa Prihoda) (1988 Digital Remaster)- III. Rondo (Allegro).wav

Pre-gap length 0:00:01.07

Peak level 93.0 %
Track quality 99.9 %
Test CRC F32AD559
Copy CRC F32AD559
Accurately ripped (confidence 1) [E9CF2912]
Copy OK

Track 16

Filename C:Documents and SettingsAdministratorDocumenti16. Brahms – Sonata For Violin And Piano No. 2 In A Major, Op. 100- II. Andante Tranquillo.wav

Pre-gap length 0:00:03.70

Peak level 98.0 %
Track quality 100.0 %
Test CRC CE92A868
Copy CRC CE92A868
Accurately ripped (confidence 1) [C783E0AA]
Copy OK

Track 17

Filename C:Documents and SettingsAdministratorDocumenti17. Brahms – Concerto For Violin And Orchestra In D Major Op. 77 (Cadenzas- Kreisler) – Allegro Giocoso, Ma Non Troppo Vivace.wav

Pre-gap length 0:00:01.48

Peak level 94.5 %
Track quality 100.0 %
Test CRC 118C5229
Copy CRC 118C5229
Accurately ripped (confidence 1) [C254EFE6]
Copy OK

All tracks accurately ripped

No errors occurred

End of status report

CD4
Exact Audio Copy V0.99 prebeta 5 from 4. May 2009

EAC extraction logfile from 3. December 2010, 22:25

Various / Best Violin 100 – Cd 4

Used drive : _NEC DVD_RW ND-4551A Adapter: 2 ID: 2

Read mode : Secure
Utilize accurate stream : Yes
Defeat audio cache : Yes
Make use of C2 pointers : No

Read offset correction : 48
Overread into Lead-In and Lead-Out : No
Fill up missing offset samples with silence : Yes
Delete leading and trailing silent blocks : No
Null samples used in CRC calculations : Yes
Used interface : Native Win32 interface for Win NT & 2000
Gap handling : Appended to previous track

Used output format : User Defined Encoder
Selected bitrate : 768 kBit/s
Quality : High
Add ID3 tag : No
Command line compressor : C:ProgrammiExact Audio CopyFLACFLAC.EXE
Additional command line options : -8 -V -T "ARTIST=%a" -T "TITLE=%t" -T "ALBUM=%g" -T "DATE=%y" -T "TRACKNUMBER=%n" -T "TOTALTRACKS=%x" -T "GENRE=%m" -T "ALBUM ARTIST=%v" -T "ALBUMARTIST=%v" -T "COMMENT=EAC V0.99 prebeta 5, Secure Mode, Test & Copy, Accurat

TOC of the extracted CD

Track | Start | Length | Start sector | End sector
––––––––––––––––––––––––––––-
1 | 0:00.00 | 3:00.00 | 0 | 13499
2 | 3:00.00 | 7:58.44 | 13500 | 49393
3 | 10:58.44 | 2:24.64 | 49394 | 60257
4 | 13:23.33 | 5:47.51 | 60258 | 86333
5 | 19:11.09 | 6:45.28 | 86334 | 116736
6 | 25:56.37 | 8:58.20 | 116737 | 157106
7 | 34:54.57 | 5:29.14 | 157107 | 181795
8 | 40:23.71 | 4:30.29 | 181796 | 202074
9 | 44:54.25 | 9:42.33 | 202075 | 245757
10 | 54:36.58 | 8:44.38 | 245758 | 285095
11 | 63:21.21 | 5:23.28 | 285096 | 309348
12 | 68:44.49 | 7:00.54 | 309349 | 340902

Track 1

Filename C:Documents and SettingsAdministratorDocumentiBest Violin 100 – Cd 41 – Sarasate – Concert fantasy Carmen – Sara Chang.wav

Pre-gap length 0:00:02.00

Peak level 99.8 %
Track quality 99.9 %
Test CRC 404FB971
Copy CRC 404FB971
Accurately ripped (confidence 1) [1D8E06C3]
Copy OK

Track 2

Filename C:Documents and SettingsAdministratorDocumentiBest Violin 100 – Cd 42 – Mendelssohn Violin Concerto in E minor -2. Andante- Y.Menuchin.wav

Pre-gap length 0:00:00.66

Peak level 90.6 %
Track quality 100.0 %
Test CRC 0196F5F6
Copy CRC 0196F5F6
Accurately ripped (confidence 1) [19137314]
Copy OK

Track 3

Filename C:Documents and SettingsAdministratorDocumentiBest Violin 100 – Cd 43 – Mendelssohn – Auf FlugelnGeanges – R. Capucon.wav

Pre-gap length 0:00:03.34

Peak level 31.9 %
Track quality 100.0 %
Test CRC 11AFC9F6
Copy CRC 11AFC9F6
Accurately ripped (confidence 1) [406FC538]
Copy OK

Track 4

Filename C:Documents and SettingsAdministratorDocumentiBest Violin 100 – Cd 44 – Lalo- Symphonie espagnale Op.21 – 3.Allegro- L.Kagan.wav

Pre-gap length 0:00:03.04

Peak level 99.8 %
Track quality 99.9 %
Test CRC 2E0B5D52
Copy CRC 2E0B5D52
Accurately ripped (confidence 1) [E3592A26]
Copy OK

Track 5

Filename C:Documents and SettingsAdministratorDocumentiBest Violin 100 – Cd 45 – Paganini – Violin Concerto No1 in D -3.Rondo – Michael Rabin.wav

Pre-gap length 0:00:03.00

Peak level 90.2 %
Track quality 100.0 %
Test CRC 2EB97F2B
Copy CRC 2EB97F2B
Accurately ripped (confidence 1) [14FCACAC]
Copy OK

Track 6

Filename C:Documents and SettingsAdministratorDocumentiBest Violin 100 – Cd 46 – Saint Saens – Introduction and Rondo capricioso in A – U. Hoelsher.wav

Pre-gap length 0:00:05.21

Peak level 95.6 %
Track quality 99.9 %
Test CRC D1EC15B3
Copy CRC D1EC15B3
Accurately ripped (confidence 1) [F241CEAC]
Copy OK

Track 7

Filename C:Documents and SettingsAdministratorDocumentiBest Violin 100 – Cd 47 – Massenet – Meditation – Sara Chang.wav

Pre-gap length 0:00:03.02

Peak level 76.9 %
Track quality 100.0 %
Test CRC 44C808DD
Copy CRC 44C808DD
Accurately ripped (confidence 1) [3E7DD0FE]
Copy OK

Track 8

Filename C:Documents and SettingsAdministratorDocumentiBest Violin 100 – Cd 48 – Tchajkowsky – Russian Dance – Ida Haendel.wav

Pre-gap length 0:00:00.54

Peak level 96.5 %
Track quality 100.0 %
Test CRC FACB16A5
Copy CRC FACB16A5
Accurately ripped (confidence 1) [CAA6475A]
Copy OK

Track 9

Filename C:Documents and SettingsAdministratorDocumentiBest Violin 100 – Cd 49 – Tchaikovsky – Violin Cocnerto in D- 3. Allegro – V. Spivakov.wav

Pre-gap length 0:00:03.13

Peak level 94.4 %
Track quality 99.9 %
Test CRC 3D3D9E0C
Copy CRC 3D3D9E0C
Accurately ripped (confidence 1) [F64C06B3]
Copy OK

Track 10

Filename C:Documents and SettingsAdministratorDocumentiBest Violin 100 – Cd 410 – Bruch – Violin Concero No1 2. Adagio – M. Ushida.wav

Pre-gap length 0:00:00.59

Peak level 81.3 %
Track quality 100.0 %
Test CRC D858E1FE
Copy CRC D858E1FE
Accurately ripped (confidence 1) [6249940C]
Copy OK

Track 11

Filename C:Documents and SettingsAdministratorDocumentiBest Violin 100 – Cd 411 – Vieuxtemps – Violin Concerto No2 – 2. Adagio – Y. Menuchin.wav

Pre-gap length 0:00:04.53

Peak level 91.7 %
Track quality 100.0 %
Test CRC FCBCD14C
Copy CRC FCBCD14C
Accurately ripped (confidence 1) [296C760E]
Copy OK

Track 12

Filename C:Documents and SettingsAdministratorDocumentiBest Violin 100 – Cd 412 – Paganini – Violin Concerto No2 3. Rondo – Y. Menuchin.wav

Pre-gap length 0:00:04.34

Peak level 78.6 %
Track quality 99.9 %
Test CRC 288DE96E
Copy CRC 288DE96E
Accurately ripped (confidence 1) [221C432D]
Copy OK

All tracks accurately ripped

No errors occurred

End of status report

CD5
Exact Audio Copy V0.99 prebeta 5 from 4. May 2009

EAC extraction logfile from 3. December 2010, 23:22

Various / Best Violin 100 – Cd 5

Used drive : _NEC DVD_RW ND-4551A Adapter: 2 ID: 2

Read mode : Secure
Utilize accurate stream : Yes
Defeat audio cache : Yes
Make use of C2 pointers : No

Read offset correction : 48
Overread into Lead-In and Lead-Out : No
Fill up missing offset samples with silence : Yes
Delete leading and trailing silent blocks : No
Null samples used in CRC calculations : Yes
Used interface : Native Win32 interface for Win NT & 2000
Gap handling : Appended to previous track

Used output format : User Defined Encoder
Selected bitrate : 768 kBit/s
Quality : High
Add ID3 tag : No
Command line compressor : C:ProgrammiExact Audio CopyFLACFLAC.EXE
Additional command line options : -8 -V -T "ARTIST=%a" -T "TITLE=%t" -T "ALBUM=%g" -T "DATE=%y" -T "TRACKNUMBER=%n" -T "TOTALTRACKS=%x" -T "GENRE=%m" -T "ALBUM ARTIST=%v" -T "ALBUMARTIST=%v" -T "COMMENT=EAC V0.99 prebeta 5, Secure Mode, Test & Copy, Accurat

TOC of the extracted CD

Track | Start | Length | Start sector | End sector
––––––––––––––––––––––––––––-
1 | 0:00.00 | 3:53.59 | 0 | 17533
2 | 3:53.59 | 2:06.50 | 17534 | 27033
3 | 6:00.34 | 8:54.28 | 27034 | 67111
4 | 14:54.62 | 3:20.39 | 67112 | 82150
5 | 18:15.26 | 7:39.73 | 82151 | 116648
6 | 25:55.24 | 3:04.04 | 116649 | 130452
7 | 28:59.28 | 3:26.36 | 130453 | 145938
8 | 32:25.64 | 5:03.41 | 145939 | 168704
9 | 37:29.30 | 3:16.25 | 168705 | 183429
10 | 40:45.55 | 5:49.17 | 183430 | 209621
11 | 46:34.72 | 5:16.13 | 209622 | 233334
12 | 51:51.10 | 2:34.56 | 233335 | 244940
13 | 54:25.66 | 6:51.08 | 244941 | 275773
14 | 61:16.74 | 4:04.68 | 275774 | 294141
15 | 65:21.67 | 1:32.05 | 294142 | 301046
16 | 66:53.72 | 5:05.55 | 301047 | 323976
17 | 71:59.52 | 6:20.57 | 323977 | 352533

Track 1

Filename C:Documents and SettingsAdministratorDocumentiBest Violin 100 – Cd 51. Prokofiev – Violin Concerto No. 1 In D Major, Op. 19- Scherzo (Vivacissimo).wav

Pre-gap length 0:00:02.00

Peak level 68.8 %
Track quality 99.9 %
Test CRC 3BCA0025
Copy CRC 3BCA0025
Accurately ripped (confidence 1) [4CC40730]
Copy OK

Track 2

Filename C:Documents and SettingsAdministratorDocumentiBest Violin 100 – Cd 52. Prokofiev – Romйo & Juliet- Masques.wav

Pre-gap length 0:00:00.65

Peak level 88.5 %
Track quality 100.0 %
Test CRC 23161E1B
Copy CRC 23161E1B
Accurately ripped (confidence 1) [B24EA6C0]
Copy OK

Track 3

Filename C:Documents and SettingsAdministratorDocumentiBest Violin 100 – Cd 53. Elgar – Violin Concerto In B Minor Op. 61- Cadenza (Accompagnata- Lento) – Allegro Molto.wav

Pre-gap length 0:00:02.17

Peak level 80.7 %
Track quality 100.0 %
Test CRC B2041E6F
Copy CRC B2041E6F
Accurately ripped (confidence 1) [8099E0B8]
Copy OK

Track 4

Filename C:Documents and SettingsAdministratorDocumentiBest Violin 100 – Cd 54. Elgar – Salut D’amour Op. 12.wav

Pre-gap length 0:00:03.51

Peak level 51.0 %
Track quality 100.0 %
Test CRC 07C99563
Copy CRC 07C99563
Accurately ripped (confidence 1) [ABF56312]
Copy OK

Track 5

Filename C:Documents and SettingsAdministratorDocumentiBest Violin 100 – Cd 55. Sibelius – Violin Concerto In D Minor Op. 47- III. Allegro Ma Non Tanto.wav

Pre-gap length 0:00:02.38

Peak level 92.8 %
Track quality 100.0 %
Test CRC F5E0C268
Copy CRC F5E0C268
Accurately ripped (confidence 1) [EA788DB4]
Copy OK

Track 6

Filename C:Documents and SettingsAdministratorDocumentiBest Violin 100 – Cd 56. Ravel – Piиce En Forme De Habanera.wav

Pre-gap length 0:00:03.13

Peak level 50.1 %
Track quality 100.0 %
Test CRC 722E7201
Copy CRC 722E7201
Accurately ripped (confidence 1) [940F94E6]
Copy OK

Track 7

Filename C:Documents and SettingsAdministratorDocumentiBest Violin 100 – Cd 57. Faurи – Berceuse Op. 16.wav

Pre-gap length 0:00:02.49

Peak level 46.8 %
Track quality 100.0 %
Test CRC 39A62EA7
Copy CRC 39A62EA7
Accurately ripped (confidence 1) [A75AF878]
Copy OK

Track 8

Filename C:Documents and SettingsAdministratorDocumentiBest Violin 100 – Cd 58. Shostakovich – Concerto For Violin & Orchestra No. 1 In A Minor Op. 99- Burlesque- Allegro Con Brio.wav

Pre-gap length 0:00:03.27

Peak level 83.8 %
Track quality 100.0 %
Test CRC 810AF67C
Copy CRC 810AF67C
Accurately ripped (confidence 1) [20E549E3]
Copy OK

Track 9

Filename C:Documents and SettingsAdministratorDocumentiBest Violin 100 – Cd 59. Shostakovich – Romance From The Gadfly.wav

Pre-gap length 0:00:01.38

Peak level 68.2 %
Track quality 100.0 %
Test CRC EA197160
Copy CRC EA197160
Accurately ripped (confidence 1) [14BC5E47]
Copy OK

Track 10

Filename C:Documents and SettingsAdministratorDocumentiBest Violin 100 – Cd 510. Stravinsky – Konzert Fьr Violine Und Orchester D-Dur- I. Toccata.wav

Pre-gap length 0:00:02.43

Peak level 99.9 %
Track quality 100.0 %
Test CRC 65ADCEC2
Copy CRC 65ADCEC2
Accurately ripped (confidence 1) [D44860A6]
Copy OK

Track 11

Filename C:Documents and SettingsAdministratorDocumentiBest Violin 100 – Cd 511. Szymanowski – Notturno & Tarantella Op.28- Tarantella.wav

Pre-gap length 0:00:01.74

Peak level 99.8 %
Track quality 100.0 %
Test CRC 6373C539
Copy CRC 6373C539
Accurately ripped (confidence 1) [55734ECF]
Copy OK

Track 12

Filename C:Documents and SettingsAdministratorDocumentiBest Violin 100 – Cd 512. Delius – Hassan (Arr. Lionel Tertis)- Serenade (violin Solo).wav

Pre-gap length 0:00:02.32

Peak level 28.3 %
Track quality 99.9 %
Test CRC 0603F2BF
Copy CRC 0603F2BF
Accurately ripped (confidence 1) [E5986D29]
Copy OK

Track 13

Filename C:Documents and SettingsAdministratorDocumentiBest Violin 100 – Cd 513. Walton – Violin Concerto- II. Presto Capriccioso Alla Napolitana – Trio (Canzonetta) – Tem.wav

Pre-gap length 0:00:01.20

Peak level 77.4 %
Track quality 99.9 %
Test CRC D6D7ADE4
Copy CRC D6D7ADE4
Accurately ripped (confidence 1) [B87A42C3]
Copy OK

Track 14

Filename C:Documents and SettingsAdministratorDocumentiBest Violin 100 – Cd 514. Part – Spiegel Im Spiegel (Chillout Excerpt).wav

Pre-gap length 0:00:03.00

Peak level 28.0 %
Track quality 100.0 %
Test CRC B74D3FF3
Copy CRC B74D3FF3
Accurately ripped (confidence 1) [F027EA46]
Copy OK

Track 15

Filename C:Documents and SettingsAdministratorDocumentiBest Violin 100 – Cd 515. Bernstein – Serenade For Violin, String Orchestra, Harp & Percussion.wav

Pre-gap length 0:00:04.12

Peak level 99.8 %
Track quality 100.0 %
Test CRC 3A767519
Copy CRC 3A767519
Accurately ripped (confidence 1) [F6D9946B]
Copy OK

Track 16

Filename C:Documents and SettingsAdministratorDocumentiBest Violin 100 – Cd 516. John Williams – Schindler’s List – Theme.wav

Pre-gap length 0:00:03.17

Peak level 48.1 %
Track quality 100.0 %
Test CRC 790A7DF9
Copy CRC 790A7DF9
Accurately ripped (confidence 1) [B217BFE5]
Copy OK

Track 17

Filename C:Documents and SettingsAdministratorDocumentiBest Violin 100 – Cd 517. Prokofiev – Concerto For Violin And Orchestra No. 2 Op. 63- Allegro, Ben Marcato.wav

Pre-gap length 0:00:03.27

Peak level 50.2 %
Track quality 100.0 %
Test CRC 38EA9185
Copy CRC 450A18AB
Accurately ripped (confidence 1) [861E85BB]
Copy OK

All tracks accurately ripped

No errors occurred

End of status report

CD6
Exact Audio Copy V0.99 prebeta 5 from 4. May 2009

EAC extraction logfile from 4. December 2010, 1:03

Various / Best Violin 100 – Cd 6

Used drive : _NEC DVD_RW ND-4551A Adapter: 2 ID: 2

Read mode : Secure
Utilize accurate stream : Yes
Defeat audio cache : Yes
Make use of C2 pointers : No

Read offset correction : 48
Overread into Lead-In and Lead-Out : No
Fill up missing offset samples with silence : Yes
Delete leading and trailing silent blocks : No
Null samples used in CRC calculations : Yes
Used interface : Native Win32 interface for Win NT & 2000
Gap handling : Appended to previous track

Used output format : User Defined Encoder
Selected bitrate : 768 kBit/s
Quality : High
Add ID3 tag : No
Command line compressor : C:ProgrammiExact Audio CopyFLACFLAC.EXE
Additional command line options : -8 -V -T "ARTIST=%a" -T "TITLE=%t" -T "ALBUM=%g" -T "DATE=%y" -T "TRACKNUMBER=%n" -T "TOTALTRACKS=%x" -T "GENRE=%m" -T "ALBUM ARTIST=%v" -T "ALBUMARTIST=%v" -T "COMMENT=EAC V0.99 prebeta 5, Secure Mode, Test & Copy, Accurat

TOC of the extracted CD

Track | Start | Length | Start sector | End sector
––––––––––––––––––––––––––––-
1 | 0:00.00 | 5:29.65 | 0 | 24739
2 | 5:29.65 | 3:08.40 | 24740 | 38879
3 | 8:38.30 | 4:30.58 | 38880 | 59187
4 | 13:09.13 | 3:20.54 | 59188 | 74241
5 | 16:29.67 | 3:03.53 | 74242 | 88019
6 | 19:33.45 | 2:20.03 | 88020 | 98522
7 | 21:53.48 | 1:19.68 | 98523 | 104515
8 | 23:13.41 | 5:58.13 | 104516 | 131378
9 | 29:11.54 | 3:17.32 | 131379 | 146185
10 | 32:29.11 | 2:31.34 | 146186 | 157544
11 | 35:00.45 | 5:29.66 | 157545 | 182285
12 | 40:30.36 | 3:34.17 | 182286 | 198352
13 | 44:04.53 | 1:59.32 | 198353 | 207309
14 | 46:04.10 | 2:55.55 | 207310 | 220489
15 | 48:59.65 | 3:26.65 | 220490 | 236004
16 | 52:26.55 | 2:41.73 | 236005 | 248152
17 | 55:08.53 | 5:09.07 | 248153 | 271334
18 | 60:17.60 | 5:21.40 | 271335 | 295449
19 | 65:39.25 | 4:57.40 | 295450 | 317764
20 | 70:36.65 | 3:00.34 | 317765 | 331298
21 | 73:37.24 | 3:16.21 | 331299 | 346019
22 | 76:53.45 | 1:53.42 | 346020 | 354536

Track 1

Filename C:Documents and SettingsAdministratorDocumentiBest Violin 100 – Cd 61 – Bazzini – Scherzo fantastique – Maxim Vengerov.wav

Pre-gap length 0:00:02.00

Peak level 89.0 %
Track quality 100.0 %
Test CRC F9C319D9
Copy CRC F9C319D9
Accurately ripped (confidence 1) [6E25A77B]
Copy OK

Track 2

Filename C:Documents and SettingsAdministratorDocumentiBest Violin 100 – Cd 62 – Dvorak – Humoreska – K.W. Chung.wav

Pre-gap length 0:00:01.08

Peak level 72.9 %
Track quality 100.0 %
Test CRC 5D356D0C
Copy CRC 5D356D0C
Accurately ripped (confidence 1) [E2C8883D]
Copy OK

Track 3

Filename C:Documents and SettingsAdministratorDocumentiBest Violin 100 – Cd 63 – Paganini – Caprice 24 – M.Riabin.wav

Pre-gap length 0:00:02.13

Peak level 52.9 %
Track quality 100.0 %
Test CRC EA10578E
Copy CRC EA10578E
Accurately ripped (confidence 1) [23B95DD5]
Copy OK

Track 4

Filename C:Documents and SettingsAdministratorDocumentiBest Violin 100 – Cd 64 – Rossini – Andante and Variations – G. Kramer.wav

Pre-gap length 0:00:04.42

Peak level 99.8 %
Track quality 100.0 %
Test CRC 55F2C319
Copy CRC 55F2C319
Accurately ripped (confidence 1) [C54BE617]
Copy OK

Track 5

Filename C:Documents and SettingsAdministratorDocumentiBest Violin 100 – Cd 65 – Kreisler – La Gitarra – T. Little.wav

Pre-gap length 0:00:01.44

Peak level 87.2 %
Track quality 100.0 %
Test CRC A376C01D
Copy CRC A376C01D
Accurately ripped (confidence 1) [BC1CC80A]
Copy OK

Track 6

Filename C:Documents and SettingsAdministratorDocumentiBest Violin 100 – Cd 66 – Khachaturian – Sabre Dance – D.Sikovietsky.wav

Pre-gap length 0:00:02.04

Peak level 64.5 %
Track quality 100.0 %
Test CRC BC571BEB
Copy CRC BC571BEB
Accurately ripped (confidence 1) [12ADD210]
Copy OK

Track 7

Filename C:Documents and SettingsAdministratorDocumentiBest Violin 100 – Cd 67 – Rimsky – Korsakov – Flight of the Bumble Bee – T. Little.wav

Pre-gap length 0:00:02.73

Peak level 73.8 %
Track quality 100.0 %
Test CRC 091C5B56
Copy CRC 091C5B56
Accurately ripped (confidence 1) [1B792C84]
Copy OK

Track 8

Filename C:Documents and SettingsAdministratorDocumentiBest Violin 100 – Cd 68 – Wieniawski – Polonaise brillante – M. Vengerov.wav

Pre-gap length 0:00:01.70

Peak level 86.0 %
Track quality 100.0 %
Test CRC 6B206D40
Copy CRC 6B206D40
Accurately ripped (confidence 1) [379473AD]
Copy OK

Track 9

Filename C:Documents and SettingsAdministratorDocumentiBest Violin 100 – Cd 69 – Kreisler – Liebefround – F. Kreisler.wav

Pre-gap length 0:00:00.60

Peak level 62.9 %
Track quality 100.0 %
Test CRC A3692273
Copy CRC A3692273
Accurately ripped (confidence 1) [09282F4C]
Copy OK

Track 10

Filename C:Documents and SettingsAdministratorDocumentiBest Violin 100 – Cd 610 – Brahms – Hungarian Dance No5 – T. Little.wav

Pre-gap length 0:00:02.56

Peak level 80.3 %
Track quality 100.0 %
Test CRC C1217B14
Copy CRC C1217B14
Accurately ripped (confidence 1) [BA208139]
Copy OK

Track 11

Filename C:Documents and SettingsAdministratorDocumentiBest Violin 100 – Cd 611 – Tchaikovsky – Valse scherzo – V. Yampolsky.wav

Pre-gap length 0:00:00.73

Peak level 65.2 %
Track quality 100.0 %
Test CRC 73BFF3FD
Copy CRC 73BFF3FD
Accurately ripped (confidence 1) [23E3BA77]
Copy OK

Track 12

Filename C:Documents and SettingsAdministratorDocumentiBest Violin 100 – Cd 612 – Sarasate – Zapateada – M. Rabin.wav

Pre-gap length 0:00:03.09

Peak level 82.2 %
Track quality 100.0 %
Test CRC C28E5997
Copy CRC C28E5997
Accurately ripped (confidence 1) [496A5856]
Copy OK

Track 13

Filename C:Documents and SettingsAdministratorDocumentiBest Violin 100 – Cd 613 – Kreisler – Schon Rosmarin – K.W.Chung.wav

Pre-gap length 0:00:04.64

Peak level 63.4 %
Track quality 100.0 %
Test CRC B3B59185
Copy CRC B3B59185
Accurately ripped (confidence 1) [1C31C3BB]
Copy OK

Track 14

Filename C:Documents and SettingsAdministratorDocumentiBest Violin 100 – Cd 614 – Suk – Burleska – M. Rabin.wav

Pre-gap length 0:00:03.36

Peak level 77.6 %
Track quality 100.0 %
Test CRC 27D9707B
Copy CRC 27D9707B
Accurately ripped (confidence 1) [0E43B37A]
Copy OK

Track 15

Filename C:Documents and SettingsAdministratorDocumentiBest Violin 100 – Cd 615 – Falla – Dance espagnole – T. Little.wav

Pre-gap length 0:00:02.65

Peak level 87.3 %
Track quality 99.9 %
Test CRC 271A4C41
Copy CRC 271A4C41
Accurately ripped (confidence 1) [659D574B]
Copy OK

Track 16

Filename C:Documents and SettingsAdministratorDocumentiBest Violin 100 – Cd 616 – Schedrin – Balalaika – M. Vengerov.wav

Pre-gap length 0:00:00.70

Peak level 91.7 %
Track quality 100.0 %
Test CRC 0FD1FFE6
Copy CRC 0FD1FFE6
Accurately ripped (confidence 1) [AB2EAC89]
Copy OK

Track 17

Filename C:Documents and SettingsAdministratorDocumentiBest Violin 100 – Cd 617 – Schubert – Ave Maria – K.W Chung.wav

Pre-gap length 0:00:02.26

Peak level 88.5 %
Track quality 100.0 %
Test CRC 414E0DF6
Copy CRC 414E0DF6
Accurately ripped (confidence 1) [4136E949]
Copy OK

Track 18

Filename C:Documents and SettingsAdministratorDocumentiBest Violin 100 – Cd 618 – Sarasate – Introduction and Tarantella Op. 43 – M. Vengerov.wav

Pre-gap length 0:00:00.48

Peak level 81.1 %
Track quality 100.0 %
Test CRC FC3B0304
Copy CRC FC3B0304
Accurately ripped (confidence 1) [7C15AEAC]
Copy OK

Track 19

Filename C:Documents and SettingsAdministratorDocumentiBest Violin 100 – Cd 619 – Kreisler – Preludium and Allegro in style of Paganini – N. Milstein.wav

Pre-gap length 0:00:02.32

Peak level 49.4 %
Track quality 99.9 %
Test CRC E48714FD
Copy CRC E48714FD
Accurately ripped (confidence 1) [36C8C2D0]
Copy OK

Track 20

Filename C:Documents and SettingsAdministratorDocumentiBest Violin 100 – Cd 620 – Monti – Czardas – T. Little.wav

Pre-gap length 0:00:04.34

Peak level 88.5 %
Track quality 100.0 %
Test CRC A36D9ACA
Copy CRC A36D9ACA
Accurately ripped (confidence 1) [0272FC7D]
Copy OK

Track 21

Filename C:Documents and SettingsAdministratorDocumentiBest Violin 100 – Cd 621 – Paganini – Moto perpetuo Op. 11 – M. Rabin.wav

Pre-gap length 0:00:03.18

Peak level 79.9 %
Track quality 100.0 %
Test CRC 83931D76
Copy CRC 83931D76
Accurately ripped (confidence 1) [E1498BED]
Copy OK

Track 22

Filename C:Documents and SettingsAdministratorDocumentiBest Violin 100 – Cd 622 – Dinicu – Hora staccata – M. Rabin.wav

Pre-gap length 0:00:02.48

Peak level 65.1 %
Track quality 99.9 %
Test CRC 81130F76
Copy CRC 81130F76
Accurately ripped (confidence 1) [9B9B98FC]
Copy OK

All tracks accurately ripped

No errors occurred

End of status report

Thanks to the Original customer.

VA – Best Violin 100 (2010) Download, Warez, DDL, Free, Full Album, Torrent, Legal.

Download