VA – A Tchaikovsky Festival (1992) | ViralVideoPk

Daily Dose of Free Downloads

VA – A Tchaikovsky Festival (1992)

Download

VA - A Tchaikovsky Festival (1992)

VA – A Tchaikovsky Festival (1992)
EAC Rip | FLAC with CUE and log | scans | 304 mb
MP3 CBR 320kbps | RAR | 162 mb
Genre: classical

A Tchaikovsky Festival is a compilation album released in 1992 by Classical Heritage via Intersound. It features three orchestra performing three compositions.

VA - A Tchaikovsky Festival (1992)

1. Slovak Philharmonic – 1812 Overture

London Festival Orchestra – Symphony No. 4 in F minor, Op. 36
2. Andante sosenuto. Moderato con anima Symphony No. 4 in F Minor
3. Andantino in modo di canzona Symphony No. 4 in F Minor
4. Scherzo, Pizzicato ostinato: Allegro Symphony No. 4 in F Minor
5. Finale: Allegro con fuoco Symphony No. 4 in F Minor

6. New Philharmonia Orchestra Of London – Capriccio UItelien, Op. 45

EAC Log
Exact Audio Copy V1.1 from 23. June 2015

EAC extraction logfile from 12. December 2016, 8:20

Various Artists / A Tchaikovsky Festival

Used drive : TEAC DVD-ROM DV-28SW Adapter: 1 ID: 0

Read mode : Secure
Utilize accurate stream : Yes
Defeat audio cache : Yes
Make use of C2 pointers : No

Read offset correction : 6
Overread into Lead-In and Lead-Out : No
Fill up missing offset samples with silence : Yes
Delete leading and trailing silent blocks : No
Null samples used in CRC calculations : Yes
Used interface : Native Win32 interface for Win NT & 2000
Gap handling : Appended to previous track

Used output format : Internal WAV Routines
Sample format : 44.100 Hz; 16 Bit; Stereo

TOC of the extracted CD

Track | Start | Length | Start sector | End sector
––––––––––––––––––––––––––––-
1 | 0:00.00 | 15:36.40 | 0 | 70239
2 | 15:36.40 | 17:50.00 | 70240 | 150489
3 | 33:26.40 | 9:25.72 | 150490 | 192936
4 | 42:52.37 | 5:51.73 | 192937 | 219334
5 | 48:44.35 | 8:03.20 | 219335 | 255579
6 | 56:47.55 | 15:32.07 | 255580 | 325486

Track 1

Filename C:My DocumentsMy FLACVA – A Tchaikovsky Festival (1992) [FLAC]1 – Slovak Philharmonic – 1812 Overture.wav

Pre-gap length 0:00:02.00

Peak level 83.4 %
Extraction speed 3.5 X
Track quality 100.0 %
Test CRC 40173674
Copy CRC 40173674
Accurately ripped (confidence 3) [2BAF0E5C] (AR v2)
Copy OK

Track 2

Filename C:My DocumentsMy FLACVA – A Tchaikovsky Festival (1992) [FLAC]2 – London Festival Orchestra – Symphony No. 4 in F minor, Op. 36- Andante sosenuto. Moderato con anima.wav

Peak level 72.5 %
Extraction speed 4.2 X
Track quality 99.9 %
Test CRC 60CE52B9
Copy CRC 60CE52B9
Accurately ripped (confidence 3) [B081032E] (AR v2)
Copy OK

Track 3

Filename C:My DocumentsMy FLACVA – A Tchaikovsky Festival (1992) [FLAC]3 – London Festival Orchestra – Symphony No. 4 in F minor, Op. 36- Andantino in modo di canzona.wav

Peak level 56.1 %
Extraction speed 5.1 X
Track quality 100.0 %
Test CRC DC88FF0E
Copy CRC DC88FF0E
Accurately ripped (confidence 3) [81F9F7CC] (AR v2)
Copy OK

Track 4

Filename C:My DocumentsMy FLACVA – A Tchaikovsky Festival (1992) [FLAC]4 – London Festival Orchestra – Symphony No. 4 in F minor, Op. 36- Scherzo, Pizzicato ostinato- allegro.wav

Peak level 76.0 %
Extraction speed 3.5 X
Track quality 100.0 %
Test CRC BC1435F1
Copy CRC BC1435F1
Accurately ripped (confidence 3) [399530C3] (AR v2)
Copy OK

Track 5

Filename C:My DocumentsMy FLACVA – A Tchaikovsky Festival (1992) [FLAC]5 – London Festival Orchestra – Symphony No. 4 in F minor, Op. 36- Finale- Allegro con fuoco.wav

Peak level 75.8 %
Extraction speed 5.5 X
Track quality 100.0 %
Test CRC D3F12020
Copy CRC D3F12020
Accurately ripped (confidence 3) [1CBF5282] (AR v2)
Copy OK

Track 6

Filename C:My DocumentsMy FLACVA – A Tchaikovsky Festival (1992) [FLAC]6 – New Philharmonia Orchestra Of London – Capriccio Italien, Op. 45.wav

Peak level 89.7 %
Extraction speed 1.9 X
Track quality 100.0 %
Test CRC F14300D2
Copy CRC F14300D2
Accurately ripped (confidence 3) [AF02D53A] (AR v2)
Copy OK

All tracks accurately ripped

No errors occurred

End of status report

–– CUETools DB Plugin V2.1.6

[CTDB TOCID: LqmCGPzqzWnxluy1JxTgcMvt424-] found
Submit result: LqmCGPzqzWnxluy1JxTgcMvt424- has been confirmed
Track | CTDB Status
1 | (9/9) Accurately ripped
2 | (9/9) Accurately ripped
3 | (9/9) Accurately ripped
4 | (9/9) Accurately ripped
5 | (9/9) Accurately ripped
6 | (9/9) Accurately ripped

==== Log checksum 1B96010DDFDE1FAA4D35C3A51E7A02B685DD2590FDAB819B27E5FC1E823E54D5 ====

VA - A Tchaikovsky Festival (1992)

VA – A Tchaikovsky Festival (1992) Download, Warez, DDL, Free, Full Album, Torrent, Legal.

Download


  • Recent Posts

  • Recent Tags