VA – A Groovy Kind of Sax (1995)

Download
VA - A Groovy Kind of Sax (1995)

VA – A Groovy Kind of Sax (1995)
EAC Rip | FLAC (Tracks) +CUE, LOG | 372 MB | Covers Included
Genre: Smooth Jazz | Label: Emporio | Catalog Number: EMPRCD 601

Various pop songs given the Saxophone treatment in Smooth jazz style.

EAC Log
Exact Audio Copy V1.1 from 23. June 2015

EAC extraction logfile from 17. December 2016, 13:19

Various Artists / A Groovy Kind of Sax

Used drive : PIONEER BD-RW BDR-206 Adapter: 1 ID: 0

Read mode : Secure
Utilize accurate stream : Yes
Defeat audio cache : Yes
Make use of C2 pointers : No

Read offset correction : 667
Overread into Lead-In and Lead-Out : No
Fill up missing offset samples with silence : Yes
Delete leading and trailing silent blocks : No
Null samples used in CRC calculations : Yes
Used interface : Native Win32 interface for Win NT & 2000
Gap handling : Appended to previous track

Used output format : User Defined Encoder
Selected bitrate : 896 kBit/s
Quality : High
Add ID3 tag : No
Command line compressor : C:Program Files (x86)Exact Audio CopyFlacflac.exe
Additional command line options : -8 -V -T "TITLE=%title%" -T "ARTIST=%artist%" -T "ALBUMARTIST=%albumartist%" -T "ALBUM=%albumtitle%" -T "DATE=%year%" -T "TRACKNUMBER=%tracknr%" -T "TRACKTOTAL=%numtracks%" -T "GENRE=%genre%" -T "COMMENT=%comment%" -T "PERFORMER=%albuminterpret%" -T "COMPOSER=%composer%" %source% -o %dest%

TOC of the extracted CD

Track | Start | Length | Start sector | End sector
––––––––––––––––––––––––––––-
1 | 0:00.32 | 2:57.33 | 32 | 13339
2 | 2:57.65 | 3:47.62 | 13340 | 30426
3 | 6:45.52 | 4:17.43 | 30427 | 49744
4 | 11:03.20 | 3:06.15 | 49745 | 63709
5 | 14:09.35 | 3:26.35 | 63710 | 79194
6 | 17:35.70 | 4:00.05 | 79195 | 97199
7 | 21:36.00 | 2:44.65 | 97200 | 109564
8 | 24:20.65 | 3:32.02 | 109565 | 125466
9 | 27:52.67 | 4:29.73 | 125467 | 145714
10 | 32:22.65 | 2:51.00 | 145715 | 158539
11 | 35:13.65 | 3:01.35 | 158540 | 172149
12 | 38:15.25 | 3:56.25 | 172150 | 189874
13 | 42:11.50 | 3:10.07 | 189875 | 204131
14 | 45:21.57 | 3:41.13 | 204132 | 220719
15 | 49:02.70 | 4:00.40 | 220720 | 238759
16 | 53:03.35 | 3:33.35 | 238760 | 254769
17 | 56:36.70 | 3:25.02 | 254770 | 270146
18 | 60:01.72 | 3:38.30 | 270147 | 286526
19 | 63:40.27 | 2:56.33 | 286527 | 299759
20 | 66:36.60 | 2:35.22 | 299760 | 311406
21 | 69:12.07 | 3:17.53 | 311407 | 326234

Track 1

Filename D:EAC ripsVarious Artists – A Groovy Kind of Sax (1995) [Flac+.cue]1 – A Groovy Kind of Love.wav

Pre-gap length 0:00:02.32

Peak level 100.0 %
Extraction speed 2.8 X
Track quality 100.0 %
Test CRC 24496FFD
Copy CRC 24496FFD
Accurately ripped (confidence 3) [58D91AE9] (AR v2)
Copy OK

Track 2

Filename D:EAC ripsVarious Artists – A Groovy Kind of Sax (1995) [Flac+.cue]2 – Arthur’s Theme (The Best That You Can Do).wav

Pre-gap length 0:00:01.68

Peak level 100.0 %
Extraction speed 3.1 X
Track quality 100.0 %
Test CRC 10D5D815
Copy CRC 10D5D815
Accurately ripped (confidence 3) [D86C21F1] (AR v2)
Copy OK

Track 3

Filename D:EAC ripsVarious Artists – A Groovy Kind of Sax (1995) [Flac+.cue]3 – Misty.wav

Pre-gap length 0:00:01.22

Peak level 100.0 %
Extraction speed 3.4 X
Track quality 100.0 %
Test CRC AA3DA325
Copy CRC AA3DA325
Accurately ripped (confidence 3) [45414E92] (AR v2)
Copy OK

Track 4

Filename D:EAC ripsVarious Artists – A Groovy Kind of Sax (1995) [Flac+.cue]4 – My Cherie Amour.wav

Pre-gap length 0:00:01.45

Peak level 100.0 %
Extraction speed 3.4 X
Track quality 100.0 %
Test CRC A3217F17
Copy CRC A3217F17
Accurately ripped (confidence 3) [7F8A1E39] (AR v2)
Copy OK

Track 5

Filename D:EAC ripsVarious Artists – A Groovy Kind of Sax (1995) [Flac+.cue]5 – We’ve Only Just Begun.wav

Pre-gap length 0:00:01.50

Peak level 100.0 %
Extraction speed 3.2 X
Track quality 99.9 %
Test CRC 918BEED2
Copy CRC 918BEED2
Accurately ripped (confidence 3) [66BE8ED2] (AR v2)
Copy OK

Track 6

Filename D:EAC ripsVarious Artists – A Groovy Kind of Sax (1995) [Flac+.cue]6 – All the Things You Are.wav

Pre-gap length 0:00:01.48

Peak level 99.9 %
Extraction speed 3.9 X
Track quality 100.0 %
Test CRC DDE60987
Copy CRC DDE60987
Accurately ripped (confidence 3) [90A24F3A] (AR v2)
Copy OK

Track 7

Filename D:EAC ripsVarious Artists – A Groovy Kind of Sax (1995) [Flac+.cue]7 – If.wav

Pre-gap length 0:00:01.48

Peak level 100.0 %
Extraction speed 3.8 X
Track quality 100.0 %
Test CRC 19B17271
Copy CRC 19B17271
Accurately ripped (confidence 3) [174FA540] (AR v2)
Copy OK

Track 8

Filename D:EAC ripsVarious Artists – A Groovy Kind of Sax (1995) [Flac+.cue]8 – Saving All My Love for You.wav

Pre-gap length 0:00:01.30

Peak level 100.0 %
Extraction speed 4.1 X
Track quality 100.0 %
Test CRC 768E2F40
Copy CRC 768E2F40
Accurately ripped (confidence 3) [3ECC11C9] (AR v2)
Copy OK

Track 9

Filename D:EAC ripsVarious Artists – A Groovy Kind of Sax (1995) [Flac+.cue]9 – Just the Way You Are.wav

Pre-gap length 0:00:01.62

Peak level 100.0 %
Extraction speed 3.9 X
Track quality 99.9 %
Test CRC 405B860F
Copy CRC 405B860F
Accurately ripped (confidence 3) [41983138] (AR v2)
Copy OK

Track 10

Filename D:EAC ripsVarious Artists – A Groovy Kind of Sax (1995) [Flac+.cue]10 – Moon River.wav

Pre-gap length 0:00:01.50

Peak level 100.0 %
Extraction speed 3.6 X
Track quality 99.9 %
Test CRC 5E9AE98E
Copy CRC 5E9AE98E
Accurately ripped (confidence 3) [52B12743] (AR v2)
Copy OK

Track 11

Filename D:EAC ripsVarious Artists – A Groovy Kind of Sax (1995) [Flac+.cue]11 – I Love You Because.wav

Pre-gap length 0:00:01.51

Peak level 100.0 %
Extraction speed 4.3 X
Track quality 100.0 %
Test CRC 05A509EB
Copy CRC 05A509EB
Accurately ripped (confidence 3) [3C9F1A37] (AR v2)
Copy OK

Track 12

Filename D:EAC ripsVarious Artists – A Groovy Kind of Sax (1995) [Flac+.cue]12 – Always on My Mind.wav

Pre-gap length 0:00:01.39

Peak level 99.9 %
Extraction speed 4.7 X
Track quality 100.0 %
Test CRC 0E059D03
Copy CRC 0E059D03
Accurately ripped (confidence 3) [18A09221] (AR v2)
Copy OK

Track 13

Filename D:EAC ripsVarious Artists – A Groovy Kind of Sax (1995) [Flac+.cue]13 – Just for You.wav

Pre-gap length 0:00:01.18

Peak level 100.0 %
Extraction speed 4.6 X
Track quality 100.0 %
Test CRC BDB73AF2
Copy CRC BDB73AF2
Accurately ripped (confidence 3) [A1A6C2A3] (AR v2)
Copy OK

Track 14

Filename D:EAC ripsVarious Artists – A Groovy Kind of Sax (1995) [Flac+.cue]14 – Love Me Tender.wav

Pre-gap length 0:00:01.73

Peak level 99.9 %
Extraction speed 4.8 X
Track quality 100.0 %
Test CRC C1825FD0
Copy CRC C1825FD0
Accurately ripped (confidence 3) [1F5AF7C3] (AR v2)
Copy OK

Track 15

Filename D:EAC ripsVarious Artists – A Groovy Kind of Sax (1995) [Flac+.cue]15 – Always.wav

Pre-gap length 0:00:01.58

Peak level 100.0 %
Extraction speed 5.1 X
Track quality 100.0 %
Test CRC 444D2015
Copy CRC 444D2015
Accurately ripped (confidence 3) [4BAC55C4] (AR v2)
Copy OK

Track 16

Filename D:EAC ripsVarious Artists – A Groovy Kind of Sax (1995) [Flac+.cue]16 – Sometimes When We Touch.wav

Pre-gap length 0:00:01.09

Peak level 100.0 %
Extraction speed 4.4 X
Track quality 99.9 %
Test CRC 57BD3E0D
Copy CRC 57BD3E0D
Accurately ripped (confidence 3) [74303CEE] (AR v2)
Copy OK

Track 17

Filename D:EAC ripsVarious Artists – A Groovy Kind of Sax (1995) [Flac+.cue]17 – The Rose.wav

Pre-gap length 0:00:01.43

Peak level 99.9 %
Extraction speed 5.2 X
Track quality 100.0 %
Test CRC 1C39E2E5
Copy CRC 1C39E2E5
Accurately ripped (confidence 3) [D07AD9F1] (AR v2)
Copy OK

Track 18

Filename D:EAC ripsVarious Artists – A Groovy Kind of Sax (1995) [Flac+.cue]18 – The Very Thought of You.wav

Pre-gap length 0:00:01.02

Peak level 100.0 %
Extraction speed 5.3 X
Track quality 100.0 %
Test CRC 1DB1B6A3
Copy CRC 1DB1B6A3
Accurately ripped (confidence 3) [4167DEA5] (AR v2)
Copy OK

Track 19

Filename D:EAC ripsVarious Artists – A Groovy Kind of Sax (1995) [Flac+.cue]19 – A Beautiful Friendship.wav

Pre-gap length 0:00:00.62

Peak level 100.0 %
Extraction speed 5.2 X
Track quality 100.0 %
Test CRC 14B2DA17
Copy CRC 14B2DA17
Accurately ripped (confidence 3) [2A8F7A98] (AR v2)
Copy OK

Track 20

Filename D:EAC ripsVarious Artists – A Groovy Kind of Sax (1995) [Flac+.cue]20 – Chanson D’Amour.wav

Pre-gap length 0:00:01.53

Peak level 100.0 %
Extraction speed 5.1 X
Track quality 100.0 %
Test CRC 55837DC7
Copy CRC 55837DC7
Accurately ripped (confidence 3) [E34033AD] (AR v2)
Copy OK

Track 21

Filename D:EAC ripsVarious Artists – A Groovy Kind of Sax (1995) [Flac+.cue]21 – Killing Me Softly.wav

Pre-gap length 0:00:01.50

Peak level 100.0 %
Extraction speed 5.5 X
Track quality 100.0 %
Test CRC 67662874
Copy CRC 67662874
Accurately ripped (confidence 3) [D5A6D957] (AR v2)
Copy OK

All tracks accurately ripped

No errors occurred

End of status report

–– CUETools DB Plugin V2.1.6

[CTDB TOCID: aO6kqa4YMh5PUxJHNWUuGJrZ1eA-] found
Submit result: aO6kqa4YMh5PUxJHNWUuGJrZ1eA- has been confirmed
Track | CTDB Status
1 | (7/7) Accurately ripped
2 | (7/7) Accurately ripped
3 | (7/7) Accurately ripped
4 | (7/7) Accurately ripped
5 | (7/7) Accurately ripped
6 | (7/7) Accurately ripped
7 | (7/7) Accurately ripped
8 | (7/7) Accurately ripped
9 | (7/7) Accurately ripped
10 | (7/7) Accurately ripped
11 | (7/7) Accurately ripped
12 | (7/7) Accurately ripped
13 | (7/7) Accurately ripped
14 | (7/7) Accurately ripped
15 | (7/7) Accurately ripped
16 | (7/7) Accurately ripped
17 | (7/7) Accurately ripped
18 | (7/7) Accurately ripped
19 | (7/7) Accurately ripped
20 | (7/7) Accurately ripped
21 | (7/7) Accurately ripped

==== Log checksum 7F042424C6377606520881A0627FF36907E8D0885885A21C3A6573B4841C7C4B ====

Tracklist:
01. A Groovy Kind of Love (02:57)
02. Arthur’s Theme (The Best That You Can Do) (03:47)
03. Misty (04:17)
04. My Cherie Amour (03:06)
05. We’ve Only Just Begun (03:26)
06. All the Things You Are (04:00)
07. If (02:44)
08. Saving All My Love for You (03:32)
09. Just the Way You Are (04:30)
10. Moon River (02:51)
11. I Love You Because (03:01)
12. Always on My Mind (03:56)
13. Just for You (03:10)
14. Love Me Tender (03:41)
15. Always (04:00)
16. Sometimes When We Touch (03:33)
17. The Rose (03:25)
18. The Very Thought of You (03:38)
19. A Beautiful Friendship (02:56)
20. Chanson D’Amour (02:35)
21. Killing Me Softly (03:17)

VA – A Groovy Kind of Sax (1995) Download, Warez, DDL, Free, Full Album, Torrent, Legal.

Download