VA – A Broke Down Melody (Soundtrack) (2006) **[RE-UP]**

Download
VA - A Broke Down Melody (Soundtrack) (2006) **[RE-UP]**

VA – A Broke Down Melody (Soundtrack) (2006)
EAC Rip | FLAC with CUE and log | scans | 337 mb
MP3 CBR 320kbps | RAR | 161 mb
Genre: soundtrack, acoustic, reggae, country, jazz, lounge, exotica, psychedelic rock

A Broke Down Melody is the 1996 soundtrack CD to the movie of the same name. Released on 14 November, 2006, it features music by Jack Johnson, Doug Martsch of Built To Spill, Feist, and Pearl Jam’s Eddie Vedder.

If you would like to see the film this was made for, click here.

This is a soundtrack to a surf film directed by Chris and Emmett Malloy, who have collabrated with surfer/singer/songwriter Jack Johnson for a number of films and soundtracks. Johnson has taken advantage of the opportunities in his career to present to the world the music of his friends, along with some of his own musical interests.

VA - A Broke Down Melody (Soundtrack) (2006) **[RE-UP]**

01. Culver City Dub Collective – The Cave
02. Jack Johnson – Breakdown (Movie Version)
03. Kings Of Convenience with Feist – Know How
04. Johnny Osbourne – We Need Love
05. M. Ward – Transfiguration #1
06. Jack Johnson, Matt Costa & Zach Gill – Let It Be Sung
07. Eddie Vedder – Goodbye
08. The Beta Band – Needles In My Eyes
09. Doug Martsch – Heart (Things Never Shared)
10. Matt Costa – The Road
11. Astor Piazzolla – Vuelvo al Sur (Koop Remix)
12. Jack Johnson – Home
–-
CD mastered by Robert Carranza
Soundtrack Supervisor: Emmett Malloy
Music Clearance by Janetta Fox

EAC Log
EAC extraction logfile from 6. December 2006, 14:57 for CD
Various / A Broke Down Melody (Music From And Inspired By The Film)

Used drive : LITE-ON DVDRW SOHW-1633S Adapter: 0 ID: 0
Read mode : Secure with NO C2, accurate stream, disable cache
Read offset correction : 12
Overread into Lead-In and Lead-Out : No

Used output format : Internal WAV Routines
44.100 Hz; 16 Bit; Stereo

Other options :
Fill up missing offset samples with silence : Yes
Delete leading and trailing silent blocks : No
Installed external ASPI interface

Track 1
Filename D:FLACVA – A Broke Down Melody (Soundtrack) (2006) [FLAC]1 – Culver City Dub Collective – The Cave.wav

Pre-gap length 0:00:02.00

Peak level 99.5 %
Track quality 100.0 %
Test CRC 1478C66F
Copy CRC 1478C66F
Copy OK

Track 2
Filename D:FLACVA – A Broke Down Melody (Soundtrack) (2006) [FLAC]2 – Jack Johnson – Breakdown (Movie Version).wav

Peak level 98.8 %
Track quality 100.0 %
Test CRC 1786B876
Copy CRC 1786B876
Copy OK

Track 3
Filename D:FLACVA – A Broke Down Melody (Soundtrack) (2006) [FLAC]3 – Kings Of Convenience with Feist – Know How.wav

Peak level 89.1 %
Track quality 100.0 %
Test CRC 7757899F
Copy CRC 7757899F
Copy OK

Track 4
Filename D:FLACVA – A Broke Down Melody (Soundtrack) (2006) [FLAC]4 – Johnny Osbourne – We Need Love.wav

Peak level 98.8 %
Track quality 99.9 %
Test CRC 8A1ECEE8
Copy CRC 8A1ECEE8
Copy OK

Track 5
Filename D:FLACVA – A Broke Down Melody (Soundtrack) (2006) [FLAC]5 – M. Ward – Transfiguration #1.wav

Peak level 97.7 %
Track quality 100.0 %
Test CRC 720DB4F2
Copy CRC 720DB4F2
Copy OK

Track 6
Filename D:FLACVA – A Broke Down Melody (Soundtrack) (2006) [FLAC]6 – Jack Johnson, Matt Costa & Zach Gill – Let It Be Sung.wav

Peak level 99.2 %
Track quality 99.9 %
Test CRC 2B456374
Copy CRC 2B456374
Copy OK

Track 7
Filename D:FLACVA – A Broke Down Melody (Soundtrack) (2006) [FLAC]7 – Eddie Vedder – Goodbye.wav

Peak level 98.8 %
Track quality 100.0 %
Test CRC 51A96847
Copy CRC 51A96847
Copy OK

Track 8
Filename D:FLACVA – A Broke Down Melody (Soundtrack) (2006) [FLAC]8 – The Beta Band – Needles In My Eyes.wav

Peak level 96.8 %
Track quality 100.0 %
Test CRC D656FE7D
Copy CRC D656FE7D
Copy OK

Track 9
Filename D:FLACVA – A Broke Down Melody (Soundtrack) (2006) [FLAC]9 – Doug Martsch – Heart (Things Never Shared).wav

Peak level 98.8 %
Track quality 100.0 %
Test CRC D77D2F73
Copy CRC D77D2F73
Copy OK

Track 10
Filename D:FLACVA – A Broke Down Melody (Soundtrack) (2006) [FLAC]10 – Matt Costa – The Road.wav

Peak level 98.8 %
Track quality 99.9 %
Test CRC A267ED33
Copy CRC A267ED33
Copy OK

Track 11
Filename D:FLACVA – A Broke Down Melody (Soundtrack) (2006) [FLAC]11 – Astor Piazzolla – Vuelvo al Sur (Koop Remix).wav

Peak level 94.7 %
Track quality 99.9 %
Test CRC 1EA697A6
Copy CRC 1EA697A6
Copy OK

Track 12
Filename D:FLACVA – A Broke Down Melody (Soundtrack) (2006) [FLAC]12 – Jack Johnson – Home.wav

Peak level 98.8 %
Track quality 100.0 %
Test CRC 06E9DF14
Copy CRC 06E9DF14
Copy OK

No errors occured

End of status report

VA - A Broke Down Melody (Soundtrack) (2006) **[RE-UP]**

Check out other titles in my Avaxhome blog

VA – A Broke Down Melody (Soundtrack) (2006) **[RE-UP]** Download, Warez, DDL, Free, Full Album, Torrent, Legal.

Download