VA – 25 Hard-To-Find Motown Classics Volume III (1986) **[RE-UP]**

Download
VA - 25 Hard-To-Find Motown Classics Volume III (1986) **[RE-UP]**

VA – 25 Hard-To-Find Motown Classics Volume III (1986)
EAC Rip | FLAC with CUE and log | scans | 409 mb
MP3 CBR 320kbps | RAR | 162 mb
Genre: soul, R&B

25 Hard-To-Find Motown Classics is a compilation CD released by Motown in 1986, and this is the third volume. A wide range of artists offering soulful classics.

VA - 25 Hard-To-Find Motown Classics Volume III (1986) **[RE-UP]**

01. Kim Weston – Take Me In Your Arms (Rock Me A Little While)
02. Kim Weston – Looking For The Right Guy
03. Kim Weston – Love Me All The Way
04. Velvelettes – A Bird In The Hand (Is Worth Two In The Bush)
05. Tammi Terrell – Come On And See Me
06. Brenda Holloway – Operator
07. Brenda Holloway – I’ll Be Available
08. Brenda Holloway – I’ll Always Love You
09. Shorty Long – Devil With The Blue Dress
10. The Supremes – He’s My Man
11. Edwin Starr – Agent Double O Soul
12. Edwin Starr – Stop Her On Sight (S.O.S.)
13. Eddie Holland – Leaving Here
14. Eddie Holland – Just Ain’t Enough Love
15. Eddie Holland – Candy To Me
16. The Isley Brothers – This Old Heart Of Mine (Is Weak For You)
17. The Isley Brothers – Behind A Painted Smile
18. The Spinners – Truly Yours
19. The Contours – Just A Little Misunderstanding
20. The Contours – Do You Love Me
21. The Contours – First I Look At The Purse
22. Marv Johnson – Why Do You Want To Let Me Go
23. The Elgins – Stay In My Lonely Arms
24. The Elgins – Put Yourself In My Place
25. Blinky – I Wouldn’t Change The Man He Is

EAC Log
EAC extraction logfile from 9. September 2006, 10:55 for CD
Various / 25 Hard To Find Motown Classics Volume III

Used drive : LITE-ON DVDRW SOHW-1633S Adapter: 0 ID: 0
Read mode : Secure with NO C2, accurate stream, disable cache
Read offset correction : 12
Overread into Lead-In and Lead-Out : No

Used output format : Internal WAV Routines
44.100 Hz; 16 Bit; Stereo

Other options :
Fill up missing offset samples with silence : Yes
Delete leading and trailing silent blocks : No
Installed external ASPI interface

Track 1
Filename D:FLACVA – 25 Hard To Find Motown Classics Volume III (1986) [FLAC]1 – Kim Weston – Take Me In Your Arms (Rock Me A Little While).wav

Pre-gap length 0:00:02.00

Peak level 84.0 %
Track quality 99.9 %
Test CRC B43E53CE
Copy CRC B43E53CE
Copy OK

Track 2
Filename D:FLACVA – 25 Hard To Find Motown Classics Volume III (1986) [FLAC]2 – Kim Weston – Looking For The Right Guy.wav

Pre-gap length 0:00:02.33

Peak level 82.9 %
Track quality 100.0 %
Test CRC 8173B187
Copy CRC 8173B187
Copy OK

Track 3
Filename D:FLACVA – 25 Hard To Find Motown Classics Volume III (1986) [FLAC]3 – Kim Weston – Love Me All The Way.wav

Pre-gap length 0:00:02.40

Peak level 100.0 %
Track quality 100.0 %
Test CRC DD81F750
Copy CRC DD81F750
Copy OK

Track 4
Filename D:FLACVA – 25 Hard To Find Motown Classics Volume III (1986) [FLAC]4 – Velvelettes – A Bird In The Hand (Is Worth Two In The Bush).wav

Pre-gap length 0:00:02.80

Peak level 88.4 %
Track quality 100.0 %
Test CRC 283E2142
Copy CRC 283E2142
Copy OK

Track 5
Filename D:FLACVA – 25 Hard To Find Motown Classics Volume III (1986) [FLAC]5 – Tammi Terrell – Come On And See Me.wav

Pre-gap length 0:00:03.09

Peak level 94.1 %
Track quality 99.9 %
Test CRC E5B2E393
Copy CRC E5B2E393
Copy OK

Track 6
Filename D:FLACVA – 25 Hard To Find Motown Classics Volume III (1986) [FLAC]6 – Brenda Holloway – Operator.wav

Pre-gap length 0:00:02.66

Peak level 77.3 %
Track quality 100.0 %
Test CRC 0E3E378A
Copy CRC 0E3E378A
Copy OK

Track 7
Filename D:FLACVA – 25 Hard To Find Motown Classics Volume III (1986) [FLAC]7 – Brenda Holloway – I’ll Be Available.wav

Pre-gap length 0:00:02.57

Peak level 95.5 %
Track quality 100.0 %
Test CRC EDD9A573
Copy CRC EDD9A573
Copy OK

Track 8
Filename D:FLACVA – 25 Hard To Find Motown Classics Volume III (1986) [FLAC]8 – Brenda Holloway – I’ll Always Love You.wav

Pre-gap length 0:00:02.53

Peak level 94.6 %
Track quality 99.9 %
Test CRC 2D7C58D3
Copy CRC 2D7C58D3
Copy OK

Track 9
Filename D:FLACVA – 25 Hard To Find Motown Classics Volume III (1986) [FLAC]9 – Shorty Long – Devil With The Blue Dress.wav

Pre-gap length 0:00:03.10

Peak level 91.2 %
Track quality 99.9 %
Test CRC B06EFE59
Copy CRC B06EFE59
Copy OK

Track 10
Filename D:FLACVA – 25 Hard To Find Motown Classics Volume III (1986) [FLAC]10 – The Supremes – He’s My Man.wav

Pre-gap length 0:00:02.29

Peak level 99.1 %
Track quality 100.0 %
Test CRC 8FD7FF5E
Copy CRC 8FD7FF5E
Copy OK

Track 11
Filename D:FLACVA – 25 Hard To Find Motown Classics Volume III (1986) [FLAC]11 – Edwin Starr – Agent Double O Soul.wav

Pre-gap length 0:00:02.33

Peak level 100.0 %
Track quality 99.9 %
Test CRC ED5DE6BB
Copy CRC ED5DE6BB
Copy OK

Track 12
Filename D:FLACVA – 25 Hard To Find Motown Classics Volume III (1986) [FLAC]12 – Edwin Starr – Stop Her On Sight (S.O.S.).wav

Pre-gap length 0:00:02.80

Peak level 98.6 %
Track quality 100.0 %
Test CRC D7BA98B9
Copy CRC D7BA98B9
Copy OK

Track 13
Filename D:FLACVA – 25 Hard To Find Motown Classics Volume III (1986) [FLAC]13 – Eddie Holland – Leaving Here.wav

Pre-gap length 0:00:03.02

Peak level 95.4 %
Track quality 100.0 %
Test CRC 1143EBA3
Copy CRC 1143EBA3
Copy OK

Track 14
Filename D:FLACVA – 25 Hard To Find Motown Classics Volume III (1986) [FLAC]14 – Eddie Holland – Just Ain’t Enough Love.wav

Pre-gap length 0:00:02.69

Peak level 100.0 %
Track quality 100.0 %
Test CRC 95744361
Copy CRC 95744361
Copy OK

Track 15
Filename D:FLACVA – 25 Hard To Find Motown Classics Volume III (1986) [FLAC]15 – Eddie Holland – Candy To Me.wav

Pre-gap length 0:00:03.17

Peak level 91.8 %
Track quality 100.0 %
Test CRC 41E486C2
Copy CRC 41E486C2
Copy OK

Track 16
Filename D:FLACVA – 25 Hard To Find Motown Classics Volume III (1986) [FLAC]16 – The Isley Brothers – This Old Heart Of Mine (Is Weak For You).wav

Pre-gap length 0:00:03.02

Peak level 86.7 %
Track quality 100.0 %
Test CRC 5ADC257D
Copy CRC 5ADC257D
Copy OK

Track 17
Filename D:FLACVA – 25 Hard To Find Motown Classics Volume III (1986) [FLAC]17 – The Isley Brothers – Behind A Painted Smile.wav

Pre-gap length 0:00:02.16

Peak level 90.5 %
Track quality 99.9 %
Test CRC AA6ED377
Copy CRC AA6ED377
Copy OK

Track 18
Filename D:FLACVA – 25 Hard To Find Motown Classics Volume III (1986) [FLAC]18 – The Spinners – Truly Yours.wav

Pre-gap length 0:00:03.22

Peak level 93.5 %
Track quality 100.0 %
Test CRC B75C4FED
Copy CRC B75C4FED
Copy OK

Track 19
Filename D:FLACVA – 25 Hard To Find Motown Classics Volume III (1986) [FLAC]19 – The Contours – Just A Little Misunderstanding.wav

Pre-gap length 0:00:02.36

Peak level 95.6 %
Track quality 100.0 %
Test CRC 8E146A8A
Copy CRC 8E146A8A
Copy OK

Track 20
Filename D:FLACVA – 25 Hard To Find Motown Classics Volume III (1986) [FLAC]20 – The Contours – Do You Love Me.wav

Pre-gap length 0:00:02.76

Peak level 91.3 %
Track quality 100.0 %
Test CRC 4C365E23
Copy CRC 4C365E23
Copy OK

Track 21
Filename D:FLACVA – 25 Hard To Find Motown Classics Volume III (1986) [FLAC]21 – The Contours – First I Look At The Purse.wav

Pre-gap length 0:00:02.66

Peak level 89.8 %
Track quality 100.0 %
Test CRC D6F64FC0
Copy CRC D6F64FC0
Copy OK

Track 22
Filename D:FLACVA – 25 Hard To Find Motown Classics Volume III (1986) [FLAC]22 – Marv Johnson – Why Do You Want To Let Me Go.wav

Pre-gap length 0:00:02.66

Peak level 92.3 %
Track quality 100.0 %
Test CRC 8F3EF47C
Copy CRC 8F3EF47C
Copy OK

Track 23
Filename D:FLACVA – 25 Hard To Find Motown Classics Volume III (1986) [FLAC]23 – The Elgins – Stay In My Lonely Arms.wav

Pre-gap length 0:00:02.40

Peak level 87.2 %
Track quality 100.0 %
Test CRC B3BF54AF
Copy CRC B3BF54AF
Copy OK

Track 24
Filename D:FLACVA – 25 Hard To Find Motown Classics Volume III (1986) [FLAC]24 – The Elgins – Put Yourself In My Place.wav

Pre-gap length 0:00:02.84

Peak level 100.0 %
Track quality 99.9 %
Test CRC C56F744C
Copy CRC C56F744C
Copy OK

Track 25
Filename D:FLACVA – 25 Hard To Find Motown Classics Volume III (1986) [FLAC]25 – Blinky – I Wouldn’t Change The Man He Is.wav

Pre-gap length 0:00:01.77

Peak level 100.0 %
Track quality 100.0 %
Test CRC 57026222
Copy CRC 57026222
Copy OK

No errors occured

End of status report

VA - 25 Hard-To-Find Motown Classics Volume III (1986) **[RE-UP]**

Check out other titles in my Avaxhome blog

VA – 25 Hard-To-Find Motown Classics Volume III (1986) **[RE-UP]** Download, Warez, DDL, Free, Full Album, Torrent, Legal.

Download