VA – 125 Hits The War Years (2009) {5CD Box Set}

Download
VA - 125 Hits The War Years (2009) {5CD Box Set}

VA – 125 Hits The War Years (2009) {5CD Box Set}
EAC Rip | FLAC (Img) + Cue + Log ~ 1,42 Gb | MP3 CBR320 ~ 882 Mb
Scans (JPG, 600 dpi) ~ 105 Mb | RAR 5% Recovery
Pop, Jazz | Welton #HIT558

A collection of hits from the times of World War II 1939-1945. Includes legendary performers – Glenn Miller, Oscar Peterson, Bing Crosby & The Andrews Sisters, Vera Lynn, Charlie Parker, Duke Ellington, Doris Day, Frank Sinatra, Count Basie, Ella Fitzgerald, Benny Goodman, Billie Holiday, Peggy Lee, Coleman Hawkins, George Formby, Nat King Cole, Gracie Fields …

***************

VA - 125 Hits The War Years (2009) {5CD Box Set}

VA - 125 Hits The War Years (2009) {5CD Box Set}

Track List CD1:

01. Vera Lynn – We’ll Meet Again [3:01]
02. The Mayfair Orchestra – Rule Britannia [2:15]
03. George Formby – When I’m Cleaning Windows [2:55]
04. Glen Miller – Chattanooga Choo Choo [3:29]
05. Andrew Sisters – Don’t Fence Me In [1:37]
06. Billie Holiday – That Ole Devil Called Love [2:55]
07. Ella Fitzgerald – Into Each Life Some Rain Must Fall [3:09]
08. Fats Waller – I Can’t Give You Anything But Love [2:45]
09. Frank Sinatra – Long Ago And Far Away [2:36]
10. Mel Torme – Where Or When [3:14]
11. Django Reinhardt – The Sheik Of Araby [2:59]
12. Dick Haymes – Love Letters [2:45]
13. Count Basie – 12th Street Rag [3:02]
14. Bette Davis – They’re Either Too Young Or Too Old (from Thank Your Lucky Stars) [3:47]
15. Benny Goodman – Cuckoo In The Clock [2:57]
16. The Mills Brothers – Paper Doll [2:39]
17. Doris Day – We’ll Be Together Again [3:19]
18. Billie Holiday – I Cover The Waterfront [3:31]
19. Sidney Bechet – After You’ve Gone [3:29]
20. Bill Boyd – Jitterburg Jive [2:53]
21. Perry Como – You Won’t Be Satisfied [2:11]
22. Dinah Shore – Body And Soul [2:51]
23. Gracie Fields – Isle Of Capri [3:14]
24. Arthur Askey – Get In Your Shelter [2:56]
25. Flanagan And Allen – Run Rabbit Run [2:47]

EAC Log
Exact Audio Copy V1.3 from 2. September 2016

EAC extraction logfile from 14. June 2017, 20:23

Various Artists / 125 Hits The War Years (CD1)

Used drive : PLEXTOR DVDR PX-716A Adapter: 1 ID: 0

Read mode : Secure
Utilize accurate stream : Yes
Defeat audio cache : Yes
Make use of C2 pointers : No

Read offset correction : 30
Overread into Lead-In and Lead-Out : No
Fill up missing offset samples with silence : Yes
Delete leading and trailing silent blocks : No
Null samples used in CRC calculations : Yes
Used interface : Native Win32 interface for Win NT & 2000

Used output format : User Defined Encoder
Selected bitrate : 1024 kBit/s
Quality : High
Add ID3 tag : No
Command line compressor : C:Program Files (x86)Exact Audio CopyFlacflac.exe
Additional command line options : -6 -V -T "ARTIST=%artist%" -T "TITLE=%title%" -T "ALBUM=%albumtitle%" -T "DATE=%year%" -T "TRACKNUMBER=%tracknr%" -T "GENRE=%genre%" -T "COMMENT=%comment%" -T "BAND=%albuminterpret%" -T "ALBUMARTIST=%albuminterpret%" -T "COMPOSER=%composer%" %haslyrics%–tag-from-file=LYRICS="%lyricsfile%"%haslyrics% -T "DISCNUMBER=%cdnumber%" -T "TOTALDISCS=%totalcds%" -T "TOTALTRACKS=%numtracks%" %hascover%–picture="%coverfile%"%hascover% %source% -o %dest%

TOC of the extracted CD

Track | Start | Length | Start sector | End sector
––––––––––––––––––––––––––––-
1 | 0:00.00 | 3:01.15 | 0 | 13589
2 | 3:01.15 | 2:15.29 | 13590 | 23743
3 | 5:16.44 | 2:55.15 | 23744 | 36883
4 | 8:11.59 | 3:29.25 | 36884 | 52583
5 | 11:41.09 | 1:37.31 | 52584 | 59889
6 | 13:18.40 | 2:54.61 | 59890 | 73000
7 | 16:13.26 | 3:09.21 | 73001 | 87196
8 | 19:22.47 | 2:44.56 | 87197 | 99552
9 | 22:07.28 | 2:35.41 | 99553 | 111218
10 | 24:42.69 | 3:13.66 | 111219 | 125759
11 | 27:56.60 | 2:59.02 | 125760 | 139186
12 | 30:55.62 | 2:44.41 | 139187 | 151527
13 | 33:40.28 | 3:02.29 | 151528 | 165206
14 | 36:42.57 | 3:47.17 | 165207 | 182248
15 | 40:29.74 | 2:56.53 | 182249 | 195501
16 | 43:26.52 | 2:39.01 | 195502 | 207427
17 | 46:05.53 | 3:18.38 | 207428 | 222315
18 | 49:24.16 | 3:30.64 | 222316 | 238129
19 | 52:55.05 | 3:29.12 | 238130 | 253816
20 | 56:24.17 | 2:52.46 | 253817 | 266762
21 | 59:16.63 | 2:11.24 | 266763 | 276611
22 | 61:28.12 | 2:50.67 | 276612 | 289428
23 | 64:19.04 | 3:14.07 | 289429 | 303985
24 | 67:33.11 | 2:55.69 | 303986 | 317179
25 | 70:29.05 | 2:46.70 | 317180 | 329699

Range status and errors

Selected range

Filename C:mmVA125 Hits The War Years [HIT558]Various Artists – 125 Hits The War Years (CD1).wav

Peak level 100.0 %
Extraction speed 3.7 X
Range quality 99.9 %
Test CRC 057E77C4
Copy CRC 057E77C4
Copy OK

No errors occurred

AccurateRip summary

Track 1 not present in database
Track 2 not present in database
Track 3 not present in database
Track 4 not present in database
Track 5 not present in database
Track 6 not present in database
Track 7 not present in database
Track 8 not present in database
Track 9 not present in database
Track 10 not present in database
Track 11 not present in database
Track 12 not present in database
Track 13 not present in database
Track 14 not present in database
Track 15 not present in database
Track 16 not present in database
Track 17 not present in database
Track 18 not present in database
Track 19 not present in database
Track 20 not present in database
Track 21 not present in database
Track 22 not present in database
Track 23 not present in database
Track 24 not present in database
Track 25 not present in database

None of the tracks are present in the AccurateRip database

End of status report

–– CUETools DB Plugin V2.1.6

[CTDB TOCID: fXVGJ5h9jkG9q_HLLQcaPNQRmTY-] found
Submit result: fXVGJ5h9jkG9q_HLLQcaPNQRmTY- has been confirmed
Track | CTDB Status
1 | (1/1) Accurately ripped
2 | (1/1) Accurately ripped
3 | (1/1) Accurately ripped
4 | (1/1) Accurately ripped
5 | (1/1) Accurately ripped
6 | (1/1) Accurately ripped
7 | (1/1) Accurately ripped
8 | (1/1) Accurately ripped
9 | (1/1) Accurately ripped
10 | (1/1) Accurately ripped
11 | (1/1) Accurately ripped
12 | (1/1) Accurately ripped
13 | (1/1) Accurately ripped
14 | (1/1) Accurately ripped
15 | (1/1) Accurately ripped
16 | (1/1) Accurately ripped
17 | (1/1) Accurately ripped
18 | (1/1) Accurately ripped
19 | (1/1) Accurately ripped
20 | (1/1) Accurately ripped
21 | (1/1) Accurately ripped
22 | (1/1) Accurately ripped
23 | (1/1) Accurately ripped
24 | (1/1) Accurately ripped
25 | (1/1) Accurately ripped

DR Log
foobar2000 1.2.6 / Dynamic Range Meter 1.1.1
log date: 2017-07-31 00:14:56

––––––––––––––––––––––––––––––––––––––––
Analyzed: Andrew Sisters / 125 Hits The War Years (CD1) (1)
Arthur Askey / 125 Hits The War Years (CD1) (2)
––––––––––––––––––––––––––––––––––––––––

DR Peak RMS Duration Track
––––––––––––––––––––––––––––––––––––––––
DR12 -4.16 dB -18.23 dB 1:37 05-Don’t Fence Me In
DR13 -1.15 dB -17.56 dB 2:56 24-Get In Your Shelter
––––––––––––––––––––––––––––––––––––––––

Number of tracks: 2
Official DR value: DR13

Samplerate: 44100 Hz
Channels: 2
Bits per sample: 16
Bitrate: 515 kbps
Codec: FLAC
================================================================================

––––––––––––––––––––––––––––––––––––––––
Statistics for: 15-Cuckoo In The Clock
Number of samples: 7792764
Duration: 2:57
––––––––––––––––––––––––––––––––––––––––

Left Right

Peak Value: -1.00 dB –- -1.29 dB
Avg RMS: -17.40 dB –- -16.68 dB
DR channel: 12.94 dB –- 13.35 dB
––––––––––––––––––––––––––––––––––––––––

Official DR Value: DR13

Samplerate: 44100 Hz
Channels: 2
Bits per sample: 16
Bitrate: 515 kbps
Codec: FLAC
================================================================================
––––––––––––––––––––––––––––––––––––––––
Analyzed: Bette Davis / 125 Hits The War Years (CD1) (1)
Bill Boyd / 125 Hits The War Years (CD1) (2)
––––––––––––––––––––––––––––––––––––––––

DR Peak RMS Duration Track
––––––––––––––––––––––––––––––––––––––––
DR10 -3.53 dB -17.07 dB 3:47 14-They’re Either Too Young Or Too Old (from Thank Your Lucky Stars)
DR13 -0.17 dB -16.18 dB 2:53 20-Jitterburg Jive
––––––––––––––––––––––––––––––––––––––––

Number of tracks: 2
Official DR value: DR11

Samplerate: 44100 Hz
Channels: 2
Bits per sample: 16
Bitrate: 515 kbps
Codec: FLAC
================================================================================

––––––––––––––––––––––––––––––––––––––––
Analyzed: Billie Holiday / 125 Hits The War Years (CD1)
––––––––––––––––––––––––––––––––––––––––

DR Peak RMS Duration Track
––––––––––––––––––––––––––––––––––––––––
DR14 0.00 dB -17.90 dB 2:55 06-That Ole Devil Called Love
DR13 0.00 dB -16.89 dB 3:31 18-I Cover The Waterfront
––––––––––––––––––––––––––––––––––––––––

Number of tracks: 2
Official DR value: DR13

Samplerate: 44100 Hz
Channels: 2
Bits per sample: 16
Bitrate: 515 kbps
Codec: FLAC
================================================================================

––––––––––––––––––––––––––––––––––––––––
Statistics for: 13-12th Street Rag
Number of samples: 8043252
Duration: 3:02
––––––––––––––––––––––––––––––––––––––––

Left Right

Peak Value: 0.00 dB –- -0.76 dB
Avg RMS: -19.33 dB –- -18.61 dB
DR channel: 14.91 dB –- 14.66 dB
––––––––––––––––––––––––––––––––––––––––

Official DR Value: DR15

Samplerate: 44100 Hz
Channels: 2
Bits per sample: 16
Bitrate: 515 kbps
Codec: FLAC
================================================================================
––––––––––––––––––––––––––––––––––––––––
Analyzed: Dick Haymes / 125 Hits The War Years (CD1) (1)
Dinah Shore / 125 Hits The War Years (CD1) (2)
––––––––––––––––––––––––––––––––––––––––

DR Peak RMS Duration Track
––––––––––––––––––––––––––––––––––––––––
DR11 -0.11 dB -15.02 dB 2:45 12-Love Letters
DR13 -0.24 dB -18.16 dB 2:51 22-Body And Soul
––––––––––––––––––––––––––––––––––––––––

Number of tracks: 2
Official DR value: DR12

Samplerate: 44100 Hz
Channels: 2
Bits per sample: 16
Bitrate: 515 kbps
Codec: FLAC
================================================================================

––––––––––––––––––––––––––––––––––––––––
Analyzed: Django Reinhardt / 125 Hits The War Years (CD1) (1)
Doris Day / 125 Hits The War Years (CD1) (2)
––––––––––––––––––––––––––––––––––––––––

DR Peak RMS Duration Track
––––––––––––––––––––––––––––––––––––––––
DR13 0.00 dB -15.07 dB 2:59 11-The Sheik Of Araby
DR13 0.00 dB -18.47 dB 3:19 17-We’ll Be Together Again
––––––––––––––––––––––––––––––––––––––––

Number of tracks: 2
Official DR value: DR13

Samplerate: 44100 Hz
Channels: 2
Bits per sample: 16
Bitrate: 515 kbps
Codec: FLAC
================================================================================

––––––––––––––––––––––––––––––––––––––––
Analyzed: Ella Fitzgerald / 125 Hits The War Years (CD1) (1)
Fats Waller / 125 Hits The War Years (CD1) (2)
Flanagan And Allen / 125 Hits The War Years (CD1) (3)
––––––––––––––––––––––––––––––––––––––––

DR Peak RMS Duration Track
––––––––––––––––––––––––––––––––––––––––
DR12 0.00 dB -15.03 dB 3:09 07-Into Each Life Some Rain Must Fall
DR13 0.00 dB -16.30 dB 2:45 08-I Can’t Give You Anything But Love
DR12 -1.98 dB -16.23 dB 2:47 25-Run Rabbit Run
––––––––––––––––––––––––––––––––––––––––

Number of tracks: 3
Official DR value: DR12

Samplerate: 44100 Hz
Channels: 2
Bits per sample: 16
Bitrate: 515 kbps
Codec: FLAC
================================================================================

––––––––––––––––––––––––––––––––––––––––
Statistics for: 09-Long Ago And Far Away
Number of samples: 6859608
Duration: 2:36
––––––––––––––––––––––––––––––––––––––––

Left Right

Peak Value: -2.21 dB –- 0.00 dB
Avg RMS: -13.74 dB –- -12.15 dB
DR channel: 8.70 dB –- 9.39 dB
––––––––––––––––––––––––––––––––––––––––

Official DR Value: DR9

Samplerate: 44100 Hz
Channels: 2
Bits per sample: 16
Bitrate: 515 kbps
Codec: FLAC
================================================================================
––––––––––––––––––––––––––––––––––––––––
Analyzed: George Formby / 125 Hits The War Years (CD1) (1)
Glen Miller / 125 Hits The War Years (CD1) (2)
Gracie Fields / 125 Hits The War Years (CD1) (3)
––––––––––––––––––––––––––––––––––––––––

DR Peak RMS Duration Track
––––––––––––––––––––––––––––––––––––––––
DR13 0.00 dB -16.92 dB 2:55 03-When I’m Cleaning Windows
DR13 0.00 dB -15.48 dB 3:29 04-Chattanooga Choo Choo
DR13 -0.01 dB -18.57 dB 3:14 23-Isle Of Capri
––––––––––––––––––––––––––––––––––––––––

Number of tracks: 3
Official DR value: DR13

Samplerate: 44100 Hz
Channels: 2
Bits per sample: 16
Bitrate: 515 kbps
Codec: FLAC
================================================================================

––––––––––––––––––––––––––––––––––––––––
Analyzed: Mel Torme / 125 Hits The War Years (CD1) (1)
Perry Como / 125 Hits The War Years (CD1) (2)
––––––––––––––––––––––––––––––––––––––––

DR Peak RMS Duration Track
––––––––––––––––––––––––––––––––––––––––
DR11 -0.12 dB -14.48 dB 3:14 10-Where Or When
DR12 0.00 dB -15.33 dB 2:11 21-You Won’t Be Satisfied
––––––––––––––––––––––––––––––––––––––––

Number of tracks: 2
Official DR value: DR12

Samplerate: 44100 Hz
Channels: 2
Bits per sample: 16
Bitrate: 515 kbps
Codec: FLAC
================================================================================

––––––––––––––––––––––––––––––––––––––––
Statistics for: 19-After You’ve Gone
Number of samples: 9223956
Duration: 3:29
––––––––––––––––––––––––––––––––––––––––

Left Right

Peak Value: -0.38 dB –- -0.01 dB
Avg RMS: -16.35 dB –- -16.87 dB
DR channel: 13.59 dB –- 14.35 dB
––––––––––––––––––––––––––––––––––––––––

Official DR Value: DR14

Samplerate: 44100 Hz
Channels: 2
Bits per sample: 16
Bitrate: 515 kbps
Codec: FLAC
================================================================================
––––––––––––––––––––––––––––––––––––––––
Analyzed: The Mayfair Orchestra / 125 Hits The War Years (CD1) (1)
The Mills Brothers / 125 Hits The War Years (CD1) (2)
––––––––––––––––––––––––––––––––––––––––

DR Peak RMS Duration Track
––––––––––––––––––––––––––––––––––––––––
DR13 -0.50 dB -17.69 dB 2:15 02-Rule Britannia
DR14 -0.21 dB -19.47 dB 2:39 16-Paper Doll
––––––––––––––––––––––––––––––––––––––––

Number of tracks: 2
Official DR value: DR14

Samplerate: 44100 Hz
Channels: 2
Bits per sample: 16
Bitrate: 515 kbps
Codec: FLAC
================================================================================

––––––––––––––––––––––––––––––––––––––––
Statistics for: 01-We’ll Meet Again
Number of samples: 7990920
Duration: 3:01
––––––––––––––––––––––––––––––––––––––––

Left Right

Peak Value: -2.44 dB –- -2.27 dB
Avg RMS: -15.14 dB –- -14.56 dB
DR channel: 9.39 dB –- 9.09 dB
––––––––––––––––––––––––––––––––––––––––

Official DR Value: DR9

Samplerate: 44100 Hz
Channels: 2
Bits per sample: 16
Bitrate: 515 kbps
Codec: FLAC
================================================================================

CUETools Log
[CUETools log; Date: 31.07.2017 0:14:17; Version: 2.1.5]
[CTDB TOCID: fXVGJ5h9jkG9q_HLLQcaPNQRmTY-] found.
Track | CTDB Status
1 | (2/2) Accurately ripped
2 | (2/2) Accurately ripped
3 | (2/2) Accurately ripped
4 | (2/2) Accurately ripped
5 | (2/2) Accurately ripped
6 | (2/2) Accurately ripped
7 | (2/2) Accurately ripped
8 | (2/2) Accurately ripped
9 | (2/2) Accurately ripped
10 | (2/2) Accurately ripped
11 | (2/2) Accurately ripped
12 | (2/2) Accurately ripped
13 | (2/2) Accurately ripped
14 | (2/2) Accurately ripped
15 | (2/2) Accurately ripped
16 | (2/2) Accurately ripped
17 | (2/2) Accurately ripped
18 | (2/2) Accurately ripped
19 | (2/2) Accurately ripped
20 | (2/2) Accurately ripped
21 | (2/2) Accurately ripped
22 | (2/2) Accurately ripped
23 | (2/2) Accurately ripped
24 | (2/2) Accurately ripped
25 | (2/2) Accurately ripped
[AccurateRip ID: 00406df8-04901d70-75112c19] found.
Track [ CRC | V2 ] Status
01 [bf52ad92|7a08995a] (0+1/1) Accurately ripped
02 [4343972f|f466044c] (0+1/1) Accurately ripped
03 [8345512d|61edf94c] (0+1/1) Accurately ripped
04 [7246d4c4|995ca14b] (0+1/1) Accurately ripped
05 [d728629d|e03690b9] (0+1/1) Accurately ripped
06 [2cbe411e|6907bf1e] (0+1/1) Accurately ripped
07 [f35c63d6|20a5b4d7] (0+1/1) Accurately ripped
08 [63643145|89a72ead] (0+1/1) Accurately ripped
09 [978ae2ed|57c3b6bf] (0+1/1) Accurately ripped
10 [57b97643|497d7501] (0+1/1) Accurately ripped
11 [bfd87d74|773a0dd5] (0+1/1) Accurately ripped
12 [6334f6e2|dee99792] (0+1/1) Accurately ripped
13 [5cee9d69|c0a17f0b] (0+1/1) Accurately ripped
14 [72f6a467|f3106d1f] (0+1/1) Accurately ripped
15 [6a0e2a2f|c474f0b9] (0+1/1) Accurately ripped
16 [6149a0e8|0da24f14] (0+1/1) Accurately ripped
17 [7d96ff61|56d286ca] (0+1/1) Accurately ripped
18 [2f9d2a6c|011d68ac] (0+1/1) Accurately ripped
19 [b8116541|31f4539e] (0+1/1) Accurately ripped
20 [322d7091|e4673a0a] (0+1/1) Accurately ripped
21 [508b768d|a8d5d7d9] (0+1/1) Accurately ripped
22 [5377861e|d11e9833] (0+1/1) Accurately ripped
23 [b105ab0d|014588d1] (0+1/1) Accurately ripped
24 [e2d0624f|564f7e5b] (0+1/1) Accurately ripped
25 [9d98a6a2|0b722808] (0+1/1) Accurately ripped

Track Peak [ CRC32 ] [W/O NULL] [ LOG ]
– 100,0 [057E77C4] [EA6D8B2E] CRC32
01 77,0 [F3A6F6E0] [416FA019]
02 94,3 [0F21B2C3] [E09EF110]
03 100,0 [47DEC1BD] [E628CD0E]
04 99,9 [06C58B24] [78B2EA0D]
05 61,9 [6890FC6D] [3553F253]
06 100,0 [B7D790B2] [685A84A2]
07 100,0 [0255054A] [4F5F2778]
08 100,0 [D76A1FA0] [1E5C76DC]
09 99,9 [B1045305] [733749A6]
10 98,5 [B80B7DD4] [C0D632C0]
11 100,0 [0BFFF3ED] [74A3E0D2]
12 98,6 [0620732D] [8929E6C4]
13 100,0 [0185A1B7] [F042601E]
14 66,6 [F6E23729] [3448D336]
15 89,1 [01E4681B] [FA0E8938]
16 97,6 [0C96270C] [DEECAAE1]
17 99,9 [D18CD74B] [B7C1C65A]
18 99,9 [CA138811] [67DAD1D2]
19 99,9 [192454CB] [782C641C]
20 98,0 [39AF236B] [5199678F]
21 100,0 [F8D9D4A3] [B8391880]
22 97,2 [EE06C390] [C7A0EC86]
23 99,8 [DCF6B671] [020235B1]
24 87,6 [1E579DBD] [43D2CC41]
25 79,5 [C41A5EDC] [EAE65BDE]

Track List CD2:

01. Gracie Fields – Sing As We Go [2:31]
02. Vera Lynn – The White Cliffs Of Dover [3:19]
03. The Mayfair Orchestra – Jerusalem [3:04]
04. Billie Holiday – Georgia On My Mind [3:20]
05. Glenn Miller – Moonlight Serenade [3:19]
06. Peggy Lee – The Way You Look Tonight [3:18]
07. Perry Como – Temptation [2:46]
08. The Andrews Sisters – Straighten Up And Fly Right [2:29]
09. Django Reinhardt – Nuages [4:06]
10. Bing Crosby – You Are My Sunshine [2:39]
11. Al Jolson – Rock-a-Bye Your Baby [2:51]
12. Sidney Bechet – Salty Dog [4:04]
13. Gene Krupa – Drum Boogie [3:11]
14. Mel Torme – It Happened In Monterey [2:51]
15. Oscar Peterson – Blue Moon [2:52]
16. Ella Fitzgerald – Sing Song Swing [2:42]
17. Frank Sinatra – It Could Happen To You [2:56]
18. Jo Stafford – Sugar (That Sugar Baby o’ Mine) [2:36]
19. Coleman Hawkins – Hawkins Barrel House [2:57]
20. Billie Holiday – On The Sunny Side Of The Street [3:01]
21. Benny Goodman – Peace, Brother [2:41]
22. Cab Calloway – Jumpin’ Jive [2:59]
23. George Formby – Leaning On A Lamp Post [3:06]
24. Billy Cotton – Me And My Girl [3:02]
25. Dick Haymes – You’ll Never Know [2:48]

EAC Log
Exact Audio Copy V1.3 from 2. September 2016

EAC extraction logfile from 4. July 2017, 23:59

Various Artists / 125 Hits The War Years (CD2)

Used drive : ATAPI iHAS124 D Adapter: 0 ID: 2

Read mode : Secure
Utilize accurate stream : Yes
Defeat audio cache : Yes
Make use of C2 pointers : No

Read offset correction : 6
Overread into Lead-In and Lead-Out : No
Fill up missing offset samples with silence : Yes
Delete leading and trailing silent blocks : No
Null samples used in CRC calculations : Yes
Used interface : Installed external ASPI interface

Used output format : User Defined Encoder
Selected bitrate : 1024 kBit/s
Quality : High
Add ID3 tag : No
Command line compressor : C:Program Files (x86)Exact Audio CopyFlacflac.exe
Additional command line options : -6 -V -T "ARTIST=%artist%" -T "TITLE=%title%" -T "ALBUM=%albumtitle%" -T "DATE=%year%" -T "TRACKNUMBER=%tracknr%" -T "GENRE=%genre%" -T "COMMENT=%comment%" -T "BAND=%albuminterpret%" -T "ALBUMARTIST=%albuminterpret%" -T "COMPOSER=%composer%" %haslyrics%–tag-from-file=LYRICS="%lyricsfile%"%haslyrics% -T "DISCNUMBER=%cdnumber%" -T "TOTALDISCS=%totalcds%" -T "TOTALTRACKS=%numtracks%" %hascover%–picture="%coverfile%"%hascover% %source% -o %dest%

TOC of the extracted CD

Track | Start | Length | Start sector | End sector
––––––––––––––––––––––––––––-
1 | 0:00.00 | 2:31.02 | 0 | 11326
2 | 2:31.02 | 3:19.06 | 11327 | 26257
3 | 5:50.08 | 3:03.59 | 26258 | 40041
4 | 8:53.67 | 3:20.33 | 40042 | 55074
5 | 12:14.25 | 3:19.14 | 55075 | 70013
6 | 15:33.39 | 3:17.72 | 70014 | 84860
7 | 18:51.36 | 2:45.49 | 84861 | 97284
8 | 21:37.10 | 2:29.22 | 97285 | 108481
9 | 24:06.32 | 4:05.48 | 108482 | 126904
10 | 28:12.05 | 2:39.22 | 126905 | 138851
11 | 30:51.27 | 2:50.73 | 138852 | 151674
12 | 33:42.25 | 4:04.14 | 151675 | 169988
13 | 37:46.39 | 3:11.30 | 169989 | 184343
14 | 40:57.69 | 2:50.62 | 184344 | 197155
15 | 43:48.56 | 2:51.49 | 197156 | 210029
16 | 46:40.30 | 2:42.10 | 210030 | 222189
17 | 49:22.40 | 2:56.29 | 222190 | 235418
18 | 52:18.69 | 2:36.20 | 235419 | 247138
19 | 54:55.14 | 2:57.31 | 247139 | 260444
20 | 57:52.45 | 3:01.05 | 260445 | 274024
21 | 60:53.50 | 2:40.57 | 274025 | 286081
22 | 63:34.32 | 2:59.11 | 286082 | 299517
23 | 66:33.43 | 3:05.62 | 299518 | 313454
24 | 69:39.30 | 3:01.66 | 313455 | 327095
25 | 72:41.21 | 2:48.30 | 327096 | 339725

Range status and errors

Selected range

Filename C:mmVA2009 – 125 Hits The War Years [HIT558]Various Artists – 125 Hits The War Years (CD2).wav

Peak level 100.0 %
Extraction speed 9.8 X
Range quality 100.0 %
Test CRC A183C8C3
Copy CRC A183C8C3
Copy OK

No errors occurred

AccurateRip summary

Track 1 not present in database
Track 2 not present in database
Track 3 not present in database
Track 4 not present in database
Track 5 not present in database
Track 6 not present in database
Track 7 not present in database
Track 8 not present in database
Track 9 not present in database
Track 10 not present in database
Track 11 not present in database
Track 12 not present in database
Track 13 not present in database
Track 14 not present in database
Track 15 not present in database
Track 16 not present in database
Track 17 not present in database
Track 18 not present in database
Track 19 not present in database
Track 20 not present in database
Track 21 not present in database
Track 22 not present in database
Track 23 not present in database
Track 24 not present in database
Track 25 not present in database

None of the tracks are present in the AccurateRip database

End of status report

–– CUETools DB Plugin V2.1.6

[CTDB TOCID: 1.7odw95WaSC82wCExAs9hH4hV4-] found
Submit result: already submitted
Track | CTDB Status
1 | (2/2) Accurately ripped
2 | (2/2) Accurately ripped
3 | (2/2) Accurately ripped
4 | (2/2) Accurately ripped
5 | (2/2) Accurately ripped
6 | (2/2) Accurately ripped
7 | (2/2) Accurately ripped
8 | (2/2) Accurately ripped
9 | (2/2) Accurately ripped
10 | (2/2) Accurately ripped
11 | (2/2) Accurately ripped
12 | (2/2) Accurately ripped
13 | (2/2) Accurately ripped
14 | (2/2) Accurately ripped
15 | (2/2) Accurately ripped
16 | (2/2) Accurately ripped
17 | (2/2) Accurately ripped
18 | (2/2) Accurately ripped
19 | (2/2) Accurately ripped
20 | (2/2) Accurately ripped
21 | (2/2) Accurately ripped
22 | (2/2) Accurately ripped
23 | (2/2) Accurately ripped
24 | (2/2) Accurately ripped
25 | (2/2) Accurately ripped

DR Log
foobar2000 1.2.6 / Dynamic Range Meter 1.1.1
log date: 2017-07-31 00:17:34

––––––––––––––––––––––––––––––––––––––––
Analyzed: Al Jolson / 125 Hits The War Years (CD2) (1)
Benny Goodman / 125 Hits The War Years (CD2) (2)
––––––––––––––––––––––––––––––––––––––––

DR Peak RMS Duration Track
––––––––––––––––––––––––––––––––––––––––
DR13 -0.09 dB -16.36 dB 2:51 11-Rock-a-Bye Your Baby
DR14 0.00 dB -16.92 dB 2:41 21-Peace, Brother
––––––––––––––––––––––––––––––––––––––––

Number of tracks: 2
Official DR value: DR14

Samplerate: 44100 Hz
Channels: 2
Bits per sample: 16
Bitrate: 498 kbps
Codec: FLAC
================================================================================

––––––––––––––––––––––––––––––––––––––––
Analyzed: Billie Holiday / 125 Hits The War Years (CD2) (1-2)
Billy Cotton / 125 Hits The War Years (CD2) (3)
––––––––––––––––––––––––––––––––––––––––

DR Peak RMS Duration Track
––––––––––––––––––––––––––––––––––––––––
DR12 0.00 dB -17.63 dB 3:20 04-Georgia On My Mind
DR12 0.00 dB -14.27 dB 3:01 20-On The Sunny Side Of The Street
DR10 -1.03 dB -13.25 dB 3:02 24-Me And My Girl
––––––––––––––––––––––––––––––––––––––––

Number of tracks: 3
Official DR value: DR11

Samplerate: 44100 Hz
Channels: 2
Bits per sample: 16
Bitrate: 498 kbps
Codec: FLAC
================================================================================

––––––––––––––––––––––––––––––––––––––––
Analyzed: Bing Crosby / 125 Hits The War Years (CD2) (1)
Cab Calloway / 125 Hits The War Years (CD2) (2)
––––––––––––––––––––––––––––––––––––––––

DR Peak RMS Duration Track
––––––––––––––––––––––––––––––––––––––––
DR13 0.00 dB -16.21 dB 2:39 10-You Are My Sunshine
DR16 -0.83 dB -19.36 dB 2:59 22-Jumpin’ Jive
––––––––––––––––––––––––––––––––––––––––

Number of tracks: 2
Official DR value: DR14

Samplerate: 44100 Hz
Channels: 2
Bits per sample: 16
Bitrate: 498 kbps
Codec: FLAC
================================================================================

––––––––––––––––––––––––––––––––––––––––
Analyzed: Coleman Hawkins / 125 Hits The War Years (CD2) (1)
Dick Haymes / 125 Hits The War Years (CD2) (2)
––––––––––––––––––––––––––––––––––––––––

DR Peak RMS Duration Track
––––––––––––––––––––––––––––––––––––––––
DR13 0.00 dB -17.14 dB 2:57 19-Hawkins Barrel House
DR10 -2.74 dB -16.61 dB 2:48 25-You’ll Never Know
––––––––––––––––––––––––––––––––––––––––

Number of tracks: 2
Official DR value: DR12

Samplerate: 44100 Hz
Channels: 2
Bits per sample: 16
Bitrate: 498 kbps
Codec: FLAC
================================================================================

––––––––––––––––––––––––––––––––––––––––
Analyzed: Django Reinhardt / 125 Hits The War Years (CD2) (1)
Ella Fitzgerald / 125 Hits The War Years (CD2) (2)
Frank Sinatra / 125 Hits The War Years (CD2) (3)
––––––––––––––––––––––––––––––––––––––––

DR Peak RMS Duration Track
––––––––––––––––––––––––––––––––––––––––
DR14 0.00 dB -20.87 dB 4:06 09-Nuages
DR11 -4.13 dB -17.87 dB 2:42 16-Sing Song Swing
DR8 0.00 dB -10.00 dB 2:56 17-It Could Happen To You
––––––––––––––––––––––––––––––––––––––––

Number of tracks: 3
Official DR value: DR11

Samplerate: 44100 Hz
Channels: 2
Bits per sample: 16
Bitrate: 498 kbps
Codec: FLAC
================================================================================

––––––––––––––––––––––––––––––––––––––––
Analyzed: Gene Krupa / 125 Hits The War Years (CD2) (1)
George Formby / 125 Hits The War Years (CD2) (2)
––––––––––––––––––––––––––––––––––––––––

DR Peak RMS Duration Track
––––––––––––––––––––––––––––––––––––––––
DR9 -8.22 dB -20.45 dB 3:11 13-Drum Boogie
DR10 -1.80 dB -15.59 dB 3:06 23-Leaning On A Lamp Post
––––––––––––––––––––––––––––––––––––––––

Number of tracks: 2
Official DR value: DR10

Samplerate: 44100 Hz
Channels: 2
Bits per sample: 16
Bitrate: 498 kbps
Codec: FLAC
================================================================================

––––––––––––––––––––––––––––––––––––––––
Statistics for: 05-Moonlight Serenade
Number of samples: 8784132
Duration: 3:19
––––––––––––––––––––––––––––––––––––––––

Left Right

Peak Value: -0.65 dB –- 0.00 dB
Avg RMS: -12.95 dB –- -12.53 dB
DR channel: 10.21 dB –- 10.11 dB
––––––––––––––––––––––––––––––––––––––––

Official DR Value: DR10

Samplerate: 44100 Hz
Channels: 2
Bits per sample: 16
Bitrate: 498 kbps
Codec: FLAC
================================================================================
––––––––––––––––––––––––––––––––––––––––
Analyzed: Gracie Fields / 125 Hits The War Years (CD2) (1)
Jo Stafford / 125 Hits The War Years (CD2) (2)
––––––––––––––––––––––––––––––––––––––––

DR Peak RMS Duration Track
––––––––––––––––––––––––––––––––––––––––
DR10 -1.28 dB -14.47 dB 2:31 01-Sing As We Go
DR11 -2.16 dB -16.69 dB 2:36 18-Sugar (That Sugar Baby o’ Mine)
––––––––––––––––––––––––––––––––––––––––

Number of tracks: 2
Official DR value: DR11

Samplerate: 44100 Hz
Channels: 2
Bits per sample: 16
Bitrate: 498 kbps
Codec: FLAC
================================================================================

––––––––––––––––––––––––––––––––––––––––
Analyzed: Mel Torme / 125 Hits The War Years (CD2) (1)
Oscar Peterson / 125 Hits The War Years (CD2) (2)
––––––––––––––––––––––––––––––––––––––––

DR Peak RMS Duration Track
––––––––––––––––––––––––––––––––––––––––
DR13 0.00 dB -16.89 dB 2:51 14-It Happened In Monterey
DR14 0.00 dB -16.22 dB 2:52 15-Blue Moon
––––––––––––––––––––––––––––––––––––––––

Number of tracks: 2
Official DR value: DR14

Samplerate: 44100 Hz
Channels: 2
Bits per sample: 16
Bitrate: 498 kbps
Codec: FLAC
================================================================================

––––––––––––––––––––––––––––––––––––––––
Analyzed: Peggy Lee / 125 Hits The War Years (CD2) (1)
Perry Como / 125 Hits The War Years (CD2) (2)
Sidney Bechet / 125 Hits The War Years (CD2) (3)
––––––––––––––––––––––––––––––––––––––––

DR Peak RMS Duration Track
––––––––––––––––––––––––––––––––––––––––
DR12 -0.02 dB -20.88 dB 3:18 06-The Way You Look Tonight
DR12 -0.17 dB -17.34 dB 2:46 07-Temptation
DR12 -0.09 dB -15.25 dB 4:04 12-Salty Dog
––––––––––––––––––––––––––––––––––––––––

Number of tracks: 3
Official DR value: DR12

Samplerate: 44100 Hz
Channels: 2
Bits per sample: 16
Bitrate: 498 kbps
Codec: FLAC
================================================================================

––––––––––––––––––––––––––––––––––––––––
Statistics for: 08-Straighten Up And Fly Right
Number of samples: 6583836
Duration: 2:29
––––––––––––––––––––––––––––––––––––––––

Left Right

Peak Value: -1.64 dB –- 0.00 dB
Avg RMS: -18.36 dB –- -18.19 dB
DR channel: 14.44 dB –- 14.40 dB
––––––––––––––––––––––––––––––––––––––––

Official DR Value: DR14

Samplerate: 44100 Hz
Channels: 2
Bits per sample: 16
Bitrate: 498 kbps
Codec: FLAC
================================================================================
––––––––––––––––––––––––––––––––––––––––
Statistics for: 03-Jerusalem
Number of samples: 8104992
Duration: 3:04
––––––––––––––––––––––––––––––––––––––––

Left Right

Peak Value: -0.71 dB –- -0.87 dB
Avg RMS: -18.84 dB –- -18.90 dB
DR channel: 13.75 dB –- 13.49 dB
––––––––––––––––––––––––––––––––––––––––

Official DR Value: DR14

Samplerate: 44100 Hz
Channels: 2
Bits per sample: 16
Bitrate: 498 kbps
Codec: FLAC
================================================================================
––––––––––––––––––––––––––––––––––––––––
Statistics for: 02-The White Cliffs Of Dover
Number of samples: 8779428
Duration: 3:19
––––––––––––––––––––––––––––––––––––––––

Left Right

Peak Value: -0.82 dB –- -0.72 dB
Avg RMS: -16.33 dB –- -16.23 dB
DR channel: 12.37 dB –- 12.37 dB
––––––––––––––––––––––––––––––––––––––––

Official DR Value: DR12

Samplerate: 44100 Hz
Channels: 2
Bits per sample: 16
Bitrate: 498 kbps
Codec: FLAC
================================================================================

CUETools Log
[CUETools log; Date: 31.07.2017 0:17:01; Version: 2.1.5]
[CTDB TOCID: 1.7odw95WaSC82wCExAs9hH4hV4-] found.
Track | CTDB Status
1 | (2/2) Accurately ripped
2 | (2/2) Accurately ripped
3 | (2/2) Accurately ripped
4 | (2/2) Accurately ripped
5 | (2/2) Accurately ripped
6 | (2/2) Accurately ripped
7 | (2/2) Accurately ripped
8 | (2/2) Accurately ripped
9 | (2/2) Accurately ripped
10 | (2/2) Accurately ripped
11 | (2/2) Accurately ripped
12 | (2/2) Accurately ripped
13 | (2/2) Accurately ripped
14 | (2/2) Accurately ripped
15 | (2/2) Accurately ripped
16 | (2/2) Accurately ripped
17 | (2/2) Accurately ripped
18 | (2/2) Accurately ripped
19 | (2/2) Accurately ripped
20 | (2/2) Accurately ripped
21 | (2/2) Accurately ripped
22 | (2/2) Accurately ripped
23 | (2/2) Accurately ripped
24 | (2/2) Accurately ripped
25 | (2/2) Accurately ripped
[AccurateRip ID: 004451ce-04cb1e74-7d11b119] found.
Track [ CRC | V2 ] Status
01 [669c3fcc|34a4ef1c] (0+1/1) Accurately ripped
02 [c8bb2091|142fe428] (0+1/1) Accurately ripped
03 [c9043d80|68676a68] (0+1/1) Accurately ripped
04 [5f27096c|cb431199] (0+1/1) Accurately ripped
05 [044ab33b|83604315] (0+1/1) Accurately ripped
06 [d2a6af01|c8f5e1be] (0+1/1) Accurately ripped
07 [93d64ecb|4f245d4b] (0+1/1) Accurately ripped
08 [69cf3a31|22768e9b] (0+1/1) Accurately ripped
09 [823d6903|bf9f0e57] (0+1/1) Accurately ripped
10 [2b83e38e|300a58c3] (0+1/1) Accurately ripped
11 [624f69b9|4056726e] (0+1/1) Accurately ripped
12 [fd720677|38e6cce4] (0+1/1) Accurately ripped
13 [19d84827|e0027290] (0+1/1) Accurately ripped
14 [d57a576e|471c1b37] (0+1/1) Accurately ripped
15 [71e1bed3|a73ae172] (0+1/1) Accurately ripped
16 [a05a46a2|05588abe] (0+1/1) Accurately ripped
17 [b951f089|6ecef91d] (0+1/1) Accurately ripped
18 [831e65bb|60b59dbd] (0+1/1) Accurately ripped
19 [f3c54616|463d8bab] (0+1/1) Accurately ripped
20 [c7fd76f5|23cb7ad7] (0+1/1) Accurately ripped
21 [6b56068e|4c825878] (0+1/1) Accurately ripped
22 [ebc54b4f|ec1a4a27] (0+1/1) Accurately ripped
23 [38d7e6c0|63cba4f0] (0+1/1) Accurately ripped
24 [9c16b9bc|f92aaa79] (0+1/1) Accurately ripped
25 [c3f4e3eb|e5425a38] (0+1/1) Accurately ripped

Track Peak [ CRC32 ] [W/O NULL] [ LOG ]
– 100,0 [A183C8C3] [10F50BE9] CRC32
01 86,3 [DB3C7C68] [3526A6C1]
02 92,0 [435EB6D3] [B604273A]
03 92,1 [6472A8C5] [AAE66573]
04 99,9 [436459EA] [0472923B]
05 100,0 [86009BBC] [9C62F30E]
06 99,8 [C0A46604] [64C68D4D]
07 98,1 [6795B359] [EE4F5374]
08 100,0 [1088C82B] [F26A6985]
09 99,9 [D0B94483] [949454A0]
10 100,0 [26B4FE85] [0970D025]
11 98,9 [4FB6BA2F] [0632590C]
12 98,9 [F520E3E4] [2BD31131]
13 38,8 [48D34289] [FB2F3655]
14 100,0 [B03EDB57] [DDA1DC48]
15 100,0 [CF8BE178] [077B7AA8]
16 62,1 [9BE24955] [85DB09B6]
17 99,9 [241E5844] [B3F1683D]
18 78,0 [EC2854C3] [6665CE4B]
19 100,0 [AA4B7EDE] [715A0A5C]
20 99,9 [3E6119E7] [C76A6836]
21 100,0 [FA992974] [3153B104]
22 90,8 [201EFB93] [7943FDD0]
23 81,3 [CBEED515] [87E31AF7]
24 88,8 [14C3AAA9] [7CBDCBF4]
25 72,9 [8052A74C] [515ABFF9]

Track List CD3:

01. Vera Lynn – Farewell To Arms [3:23]
02. George Formby – I Did What I Could With My Gas Mask On [2:40]
03. Arthur Askey – Kiss Me Goodnight [2:59]
04. Ella Fitzgerald – It’s Only A Paper Moon [2:38]
05. Frank Sinatra – Nancy With The Laughing Face [3:13]
06. Glenn Miller – Don’t Sit Under The Apple Tree [3:12]
07. Billie Holiday – Lover Come Back To Me [3:24]
08. Doris Day – A Red Kiss On A Blue Letter [3:09]
09. Mel Torme – You’re A Heavenly Thing [2:31]
10. Frank Sinatra – Without A Song [2:19]
11. Count Basie – Louisiana [2:27]
12. Anita O’Day – Travellin’ Man [2:55]
13. Judy Garland – I Never Knew [2:23]
14. Dixie Ramblers – He’s An Army Man [2:36]
15. Benny Goodman – Jersey Bounce [3:00]
16. Bill Coleman – Linger Awhile [3:08]
17. Sidney Bechet – Ain’t Misbehavin’ [2:53]
18. Peggy Lee – Ain’t Goin’ No Place [3:03]
19. Nat King Cole – Don’t Blame Me [3:24]
20. Lester Young – Jive At Five [2:40]
21. Charlie Parker – Flat Floot Boogie [2:33]
22. Bing Crosby with Bob Hope – Put It There Pal [2:24]
23. Duke Ellington – C Jam Blues [2:41]
24. Billy Cotton – My Heart Belongs To Daddy [3:24]
25. Gracie Fields – Smile When You Say Goodbye [3:04]

EAC Log
Exact Audio Copy V1.3 from 2. September 2016

EAC extraction logfile from 5. July 2017, 9:19

Various Artists / 125 Hits The War Years (CD3)

Used drive : PLEXTOR DVDR PX-716A Adapter: 1 ID: 0

Read mode : Secure
Utilize accurate stream : Yes
Defeat audio cache : Yes
Make use of C2 pointers : No

Read offset correction : 30
Overread into Lead-In and Lead-Out : No
Fill up missing offset samples with silence : Yes
Delete leading and trailing silent blocks : No
Null samples used in CRC calculations : Yes
Used interface : Installed external ASPI interface

Used output format : User Defined Encoder
Selected bitrate : 1024 kBit/s
Quality : High
Add ID3 tag : No
Command line compressor : C:Program Files (x86)Exact Audio CopyFlacflac.exe
Additional command line options : -6 -V -T "ARTIST=%artist%" -T "TITLE=%title%" -T "ALBUM=%albumtitle%" -T "DATE=%year%" -T "TRACKNUMBER=%tracknr%" -T "GENRE=%genre%" -T "COMMENT=%comment%" -T "BAND=%albuminterpret%" -T "ALBUMARTIST=%albuminterpret%" -T "COMPOSER=%composer%" %haslyrics%–tag-from-file=LYRICS="%lyricsfile%"%haslyrics% -T "DISCNUMBER=%cdnumber%" -T "TOTALDISCS=%totalcds%" -T "TOTALTRACKS=%numtracks%" %hascover%–picture="%coverfile%"%hascover% %source% -o %dest%

TOC of the extracted CD

Track | Start | Length | Start sector | End sector
––––––––––––––––––––––––––––-
1 | 0:00.00 | 3:23.28 | 0 | 15252
2 | 3:23.28 | 2:40.25 | 15253 | 27277
3 | 6:03.53 | 2:59.23 | 27278 | 40725
4 | 9:03.01 | 2:37.72 | 40726 | 52572
5 | 11:40.73 | 3:13.15 | 52573 | 67062
6 | 14:54.13 | 3:12.32 | 67063 | 81494
7 | 18:06.45 | 3:24.26 | 81495 | 96820
8 | 21:30.71 | 3:09.34 | 96821 | 111029
9 | 24:40.30 | 2:31.01 | 111030 | 122355
10 | 27:11.31 | 2:19.11 | 122356 | 132791
11 | 29:30.42 | 2:27.10 | 132792 | 143826
12 | 31:57.52 | 2:55.30 | 143827 | 156981
13 | 34:53.07 | 2:22.72 | 156982 | 167703
14 | 37:16.04 | 2:35.55 | 167704 | 179383
15 | 39:51.59 | 2:59.53 | 179384 | 192861
16 | 42:51.37 | 3:07.48 | 192862 | 206934
17 | 45:59.10 | 2:52.66 | 206935 | 219900
18 | 48:52.01 | 3:03.01 | 219901 | 233626
19 | 51:55.02 | 3:23.73 | 233627 | 248924
20 | 55:19.00 | 2:39.67 | 248925 | 260916
21 | 57:58.67 | 2:32.50 | 260917 | 272366
22 | 60:31.42 | 2:24.19 | 272367 | 283185
23 | 62:55.61 | 2:40.54 | 283186 | 295239
24 | 65:36.40 | 3:23.58 | 295240 | 310522
25 | 69:00.23 | 3:03.41 | 310523 | 324288

Range status and errors

Selected range

Filename C:mmVA2009 – 125 Hits The War Years [HIT558]Various Artists – 125 Hits The War Years (CD3).wav

Peak level 100.0 %
Extraction speed 3.8 X
Range quality 100.0 %
Test CRC 8B4874CB
Copy CRC 8B4874CB
Copy OK

No errors occurred

End of status report

–– CUETools DB Plugin V2.1.6

[CTDB TOCID: 0kOJTQ_bxhegpr1tsxk2iKNZglM-] found
Submit result: 0kOJTQ_bxhegpr1tsxk2iKNZglM- has been confirmed
Track | CTDB Status
1 | (2/2) Accurately ripped
2 | (2/2) Accurately ripped
3 | (2/2) Accurately ripped
4 | (2/2) Accurately ripped
5 | (2/2) Accurately ripped
6 | (2/2) Accurately ripped
7 | (2/2) Accurately ripped
8 | (2/2) Accurately ripped
9 | (2/2) Accurately ripped
10 | (2/2) Accurately ripped
11 | (2/2) Accurately ripped
12 | (2/2) Accurately ripped
13 | (2/2) Accurately ripped
14 | (2/2) Accurately ripped
15 | (2/2) Accurately ripped
16 | (2/2) Accurately ripped
17 | (2/2) Accurately ripped
18 | (2/2) Accurately ripped
19 | (2/2) Accurately ripped
20 | (2/2) Accurately ripped
21 | (2/2) Accurately ripped
22 | (2/2) Accurately ripped
23 | (2/2) Accurately ripped
24 | (2/2) Accurately ripped
25 | (2/2) Accurately ripped

DR Log
foobar2000 1.2.6 / Dynamic Range Meter 1.1.1
log date: 2017-07-31 00:18:17

––––––––––––––––––––––––––––––––––––––––
Analyzed: Arthur Askey / 125 Hits The War Years (CD3) (1)
Benny Goodman / 125 Hits The War Years (CD3) (2)
Bill Coleman / 125 Hits The War Years (CD3) (3)
––––––––––––––––––––––––––––––––––––––––

DR Peak RMS Duration Track
––––––––––––––––––––––––––––––––––––––––
DR13 0.00 dB -16.65 dB 2:59 03-Kiss Me Goodnight
DR9 0.00 dB -11.04 dB 3:00 15-Jersey Bounce
DR8 0.00 dB -11.27 dB 3:08 16-Linger Awhile
––––––––––––––––––––––––––––––––––––––––

Number of tracks: 3
Official DR value: DR10

Samplerate: 44100 Hz
Channels: 2
Bits per sample: 16
Bitrate: 561 kbps
Codec: FLAC
================================================================================

––––––––––––––––––––––––––––––––––––––––
Analyzed: Billie Holiday / 125 Hits The War Years (CD3) (1)
Billy Cotton / 125 Hits The War Years (CD3) (2)
––––––––––––––––––––––––––––––––––––––––

DR Peak RMS Duration Track
––––––––––––––––––––––––––––––––––––––––
DR9 0.00 dB -11.09 dB 3:24 07-Lover Come Back To Me
DR12 -1.28 dB -16.91 dB 3:24 24-My Heart Belongs To Daddy
––––––––––––––––––––––––––––––––––––––––

Number of tracks: 2
Official DR value: DR11

Samplerate: 44100 Hz
Channels: 2
Bits per sample: 16
Bitrate: 561 kbps
Codec: FLAC
================================================================================

––––––––––––––––––––––––––––––––––––––––
Statistics for: 22-Put It There Pal
Number of samples: 6361572
Duration: 2:24
––––––––––––––––––––––––––––––––––––––––

Left Right

Peak Value: 0.00 dB –- 0.00 dB
Avg RMS: -11.15 dB –- -11.15 dB
DR channel: 8.19 dB –- 8.19 dB
––––––––––––––––––––––––––––––––––––––––

Official DR Value: DR8

Samplerate: 44100 Hz
Channels: 2
Bits per sample: 16
Bitrate: 561 kbps
Codec: FLAC
================================================================================
––––––––––––––––––––––––––––––––––––––––
Statistics for: 21-Flat Floot Boogie
Number of samples: 6732600
Duration: 2:33
––––––––––––––––––––––––––––––––––––––––

Left Right

Peak Value: 0.00 dB –- 0.00 dB
Avg RMS: -11.33 dB –- -10.89 dB
DR channel: 9.26 dB –- 9.04 dB
––––––––––––––––––––––––––––––––––––––––

Official DR Value: DR9

Samplerate: 44100 Hz
Channels: 2
Bits per sample: 16
Bitrate: 561 kbps
Codec: FLAC
================================================================================
––––––––––––––––––––––––––––––––––––––––
Analyzed: Count Basie / 125 Hits The War Years (CD3) (1)
Dixie Ramblers / 125 Hits The War Years (CD3) (2)
––––––––––––––––––––––––––––––––––––––––

DR Peak RMS Duration Track
––––––––––––––––––––––––––––––––––––––––
DR9 0.00 dB -11.04 dB 2:27 11-Louisiana
DR9 0.00 dB -11.09 dB 2:36 14-He’s An Army Man
––––––––––––––––––––––––––––––––––––––––

Number of tracks: 2
Official DR value: DR9

Samplerate: 44100 Hz
Channels: 2
Bits per sample: 16
Bitrate: 561 kbps
Codec: FLAC
================================================================================

––––––––––––––––––––––––––––––––––––––––
Analyzed: Doris Day / 125 Hits The War Years (CD3) (1)
Duke Ellington / 125 Hits The War Years (CD3) (2)
––––––––––––––––––––––––––––––––––––––––

DR Peak RMS Duration Track
––––––––––––––––––––––––––––––––––––––––
DR8 0.00 dB -11.13 dB 3:09 08-A Red Kiss On A Blue Letter
DR9 0.00 dB -11.07 dB 2:41 23-C Jam Blues
––––––––––––––––––––––––––––––––––––––––

Number of tracks: 2
Official DR value: DR8

Samplerate: 44100 Hz
Channels: 2
Bits per sample: 16
Bitrate: 561 kbps
Codec: FLAC
================================================================================

––––––––––––––––––––––––––––––––––––––––
Analyzed: Ella Fitzgerald / 125 Hits The War Years (CD3) (1)
Frank Sinatra / 125 Hits The War Years (CD3) (2-3)
––––––––––––––––––––––––––––––––––––––––

DR Peak RMS Duration Track
––––––––––––––––––––––––––––––––––––––––
DR10 0.00 dB -11.06 dB 2:38 04-It’s Only A Paper Moon
DR9 0.00 dB -11.06 dB 3:13 05-Nancy With The Laughing Face
DR7 0.00 dB -11.12 dB 2:19 10-Without A Song
––––––––––––––––––––––––––––––––––––––––

Number of tracks: 3
Official DR value: DR9

Samplerate: 44100 Hz
Channels: 2
Bits per sample: 16
Bitrate: 561 kbps
Codec: FLAC
================================================================================

––––––––––––––––––––––––––––––––––––––––
Analyzed: George Formby / 125 Hits The War Years (CD3) (1)
Glenn Miller / 125 Hits The War Years (CD3) (2)
Gracie Fields / 125 Hits The War Years (CD3) (3)
––––––––––––––––––––––––––––––––––––––––

DR Peak RMS Duration Track
––––––––––––––––––––––––––––––––––––––––
DR7 -2.92 dB -13.05 dB 2:40 02-I Did What I Could With My Gas Mask On
DR10 0.00 dB -11.08 dB 3:12 06-Don’t Sit Under The Apple Tree
DR13 0.00 dB -15.92 dB 3:04 25-Smile When You Say Goodbye
––––––––––––––––––––––––––––––––––––––––

Number of tracks: 3
Official DR value: DR10

Samplerate: 44100 Hz
Channels: 2
Bits per sample: 16
Bitrate: 561 kbps
Codec: FLAC
================================================================================

––––––––––––––––––––––––––––––––––––––––
Analyzed: Judy Garland / 125 Hits The War Years (CD3) (1)
Lester Young / 125 Hits The War Years (CD3) (2)
––––––––––––––––––––––––––––––––––––––––

DR Peak RMS Duration Track
––––––––––––––––––––––––––––––––––––––––
DR9 0.00 dB -11.07 dB 2:23 13-I Never Knew
DR9 0.00 dB -11.29 dB 2:40 20-Jive At Five
––––––––––––––––––––––––––––––––––––––––

Number of tracks: 2
Official DR value: DR9

Samplerate: 44100 Hz
Channels: 2
Bits per sample: 16
Bitrate: 561 kbps
Codec: FLAC
================================================================================

––––––––––––––––––––––––––––––––––––––––
Analyzed: Mel Torme / 125 Hits The War Years (CD3) (1)
Nat King Cole / 125 Hits The War Years (CD3) (2)
––––––––––––––––––––––––––––––––––––––––

DR Peak RMS Duration Track
––––––––––––––––––––––––––––––––––––––––
DR9 0.00 dB -11.11 dB 2:31 09-You’re A Heavenly Thing
DR9 0.00 dB -11.06 dB 3:24 19-Don’t Blame Me
––––––––––––––––––––––––––––––––––––––––

Number of tracks: 2
Official DR value: DR9

Samplerate: 44100 Hz
Channels: 2
Bits per sample: 16
Bitrate: 561 kbps
Codec: FLAC
================================================================================

––––––––––––––––––––––––––––––––––––––––
Statistics for: 18-Ain’t Goin’ No Place
Number of samples: 8070888
Duration: 3:03
––––––––––––––––––––––––––––––––––––––––

Left Right

Peak Value: 0.00 dB –- 0.00 dB
Avg RMS: -11.78 dB –- -10.39 dB
DR channel: 9.77 dB –- 8.15 dB
––––––––––––––––––––––––––––––––––––––––

Official DR Value: DR9

Samplerate: 44100 Hz
Channels: 2
Bits per sample: 16
Bitrate: 561 kbps
Codec: FLAC
================================================================================
––––––––––––––––––––––––––––––––––––––––
Statistics for: 17-Ain’t Misbehavin’
Number of samples: 7624008
Duration: 2:53
––––––––––––––––––––––––––––––––––––––––

Left Right

Peak Value: 0.00 dB –- 0.00 dB
Avg RMS: -11.14 dB –- -10.98 dB
DR channel: 9.65 dB –- 9.35 dB
––––––––––––––––––––––––––––––––––––––––

Official DR Value: DR9

Samplerate: 44100 Hz
Channels: 2
Bits per sample: 16
Bitrate: 561 kbps
Codec: FLAC
================================================================================
––––––––––––––––––––––––––––––––––––––––
Statistics for: 01-Farewell To Arms
Number of samples: 8968764
Duration: 3:23
––––––––––––––––––––––––––––––––––––––––

Left Right

Peak Value: -2.52 dB –- -2.64 dB
Avg RMS: -19.26 dB –- -19.38 dB
DR channel: 12.22 dB –- 12.22 dB
––––––––––––––––––––––––––––––––––––––––

Official DR Value: DR12

Samplerate: 44100 Hz
Channels: 2
Bits per sample: 16
Bitrate: 561 kbps
Codec: FLAC
================================================================================

CUETools Log
[CUETools log; Date: 31.07.2017 0:18:28; Version: 2.1.5]
[CTDB TOCID: 0kOJTQ_bxhegpr1tsxk2iKNZglM-] found.
Track | CTDB Status
1 | (3/3) Accurately ripped
2 | (3/3) Accurately ripped
3 | (3/3) Accurately ripped
4 | (3/3) Accurately ripped
5 | (3/3) Accurately ripped
6 | (3/3) Accurately ripped
7 | (3/3) Accurately ripped
8 | (3/3) Accurately ripped
9 | (3/3) Accurately ripped
10 | (3/3) Accurately ripped
11 | (3/3) Accurately ripped
12 | (3/3) Accurately ripped
13 | (3/3) Accurately ripped
14 | (3/3) Accurately ripped
15 | (3/3) Accurately ripped
16 | (3/3) Accurately ripped
17 | (3/3) Accurately ripped
18 | (3/3) Accurately ripped
19 | (3/3) Accurately ripped
20 | (3/3) Accurately ripped
21 | (3/3) Accurately ripped
22 | (3/3) Accurately ripped
23 | (3/3) Accurately ripped
24 | (3/3) Accurately ripped
25 | (3/3) Accurately ripped
[AccurateRip ID: 0040c258-0487f3d5-7610e319] found.
Track [ CRC | V2 ] Status
01 [cad866ab|9fb819ad] (0+1/1) Accurately ripped
02 [b639b522|5cbac6a6] (0+1/1) Accurately ripped
03 [55987742|d14bffe8] (0+1/1) Accurately ripped
04 [74cdb512|139fe7be] (0+1/1) Accurately ripped
05 [c22e1dbb|f338d534] (0+1/1) Accurately ripped
06 [c303af48|3649b6df] (0+1/1) Accurately ripped
07 [71b66a35|d94f74fc] (0+1/1) Accurately ripped
08 [ecaf6cb5|6f9dd6ca] (0+1/1) Accurately ripped
09 [6ea9fb43|7516d2fe] (0+1/1) Accurately ripped
10 [77fdb4b3|9a2a4987] (0+1/1) Accurately ripped
11 [7e470085|2c517f19] (0+1/1) Accurately ripped
12 [aa42abe1|66921502] (0+1/1) Accurately ripped
13 [37a72f6b|9c6e5dac] (0+1/1) Accurately ripped
14 [a72fb0ab|effaf5a7] (0+1/1) Accurately ripped
15 [a58d9776|a7553dbe] (0+1/1) Accurately ripped
16 [925b9ee4|ad5ca12b] (0+1/1) Accurately ripped
17 [f6b86f43|b28d9c7b] (0+1/1) Accurately ripped
18 [6edb5a11|849852e4] (0+1/1) Accurately ripped
19 [687ebb26|9bd3a706] (0+1/1) Accurately ripped
20 [4778d1f4|cf46f3cc] (0+1/1) Accurately ripped
21 [92f99d6e|bb90f159] (0+1/1) Accurately ripped
22 [327e9a04|17423c22] (0+0/1) No match
23 [cf527ba9|e42bcdab] (0+1/1) Accurately ripped
24 [31fbd479|4c5255d1] (0+1/1) Accurately ripped
25 [f25b5c8a|cd97b8ae] (0+1/1) Accurately ripped

Track Peak [ CRC32 ] [W/O NULL] [ LOG ]
– 100,0 [8B4874CB] [BFCFE38F] CRC32
01 74,8 [B7EE7D21] [7D1690F7]
02 71,4 [E5CB936F] [F9B64106]
03 100,0 [8EEE6D9A] [8C838E9C]
04 100,0 [0EB88316] [E66C7C20]
05 100,0 [9D592A73] [BD8AF528]
06 100,0 [067B3008] [F0BB085A]
07 100,0 [C7F7229A] [937C893A]
08 100,0 [75CB0BC2] [9C60A44F]
09 100,0 [AB7E05BA] [D1F38A53]
10 100,0 [C73B4940] [440B36B7]
11 100,0 [19A38568] [57037A1F]
12 100,0 [FA4933CC] [83EC1D5E]
13 100,0 [C6297394] [3E95710B]
14 100,0 [65BA1D0D] [440F406A]
15 100,0 [437E63BD] [91E684CB]
16 100,0 [6C37812D] [198E2689]
17 100,0 [EDF7C8DC] [B529E739]
18 100,0 [F7DD1D98] [45311442]
19 100,0 [52C88B39] [ADD62327]
20 100,0 [36894561] [C4B229F6]
21 100,0 [1E4E5F64] [A4F9F801]
22 100,0 [59B5791C] [AEA0BD57]
23 100,0 [309D4EFF] [B9156B49]
24 86,2 [3E1E524F] [A1F47575]
25 100,0 [863FD946] [A3BB1076]

Track List CD4:

01. Vera Lynn – There’ll Always Be An England [3:02]
02. Gracie Fields – Sally [2:21]
03. Glenn Miller – In The Mood [3:35]
04. The Andrews Sisters – Rum & Coca Cola [3:10]
05. Nat King Cole – The Frim Fram Sauce [3:18]
06. Benny Goodman – Mission To Moscow [2:42]
07. Ella Fitzgerald – Little White Lies [2:59]
08. Bob Wills – New San Antonio Rose [2:35]
09. Billie Holiday – Lover Man [3:17]
10. Sidney Bechet – One O’clock Jump [2:28]
11. Jo Stafford – Bye Bye Blackbird [2:53]
12. Peggy Lee – Baby (Is What He Calls Me) [2:58]
13. Dick Haymes & The Song Spinners – You’ll Never Know [2:48]
14. Cab Colloway – A Smo-o-o-oth One [3:09]
15. Artie Shaw – Deuces Wild [2:11]
16. Big Joe Turner – Cherry Red [2:54]
17. Coleman Hawkins – A Shanty In Old Shanty Town [2:58]
18. Frank Sinatra – I’ll Be Seeing You [3:06]
19. Lester Young – Who? [2:36]
20. Perry Como – Mr Meadowlark [2:53]
21. Django Reinhardt – Les Yeux Noirs [3:01]
22. Duke Ellington – Perdido [2:24]
23. Deanna Durbin – Amapola [2:28]
24. George Formby – The Blue Eyed Blond Next Door [2:43]
25. Flanagan & Allen – Down Forget-me-not Lane [2:41]

EAC Log
Exact Audio Copy V1.3 from 2. September 2016

EAC extraction logfile from 5. July 2017, 20:03

Various Artists / 125 Hits The War Years (CD4)

Used drive : PLEXTOR DVDR PX-716A Adapter: 1 ID: 0

Read mode : Secure
Utilize accurate stream : Yes
Defeat audio cache : Yes
Make use of C2 pointers : No

Read offset correction : 30
Overread into Lead-In and Lead-Out : No
Fill up missing offset samples with silence : Yes
Delete leading and trailing silent blocks : No
Null samples used in CRC calculations : Yes
Used interface : Installed external ASPI interface

Used output format : User Defined Encoder
Selected bitrate : 1024 kBit/s
Quality : High
Add ID3 tag : No
Command line compressor : C:Program Files (x86)Exact Audio CopyFlacflac.exe
Additional command line options : -6 -V -T "ARTIST=%artist%" -T "TITLE=%title%" -T "ALBUM=%albumtitle%" -T "DATE=%year%" -T "TRACKNUMBER=%tracknr%" -T "GENRE=%genre%" -T "COMMENT=%comment%" -T "BAND=%albuminterpret%" -T "ALBUMARTIST=%albuminterpret%" -T "COMPOSER=%composer%" %haslyrics%–tag-from-file=LYRICS="%lyricsfile%"%haslyrics% -T "DISCNUMBER=%cdnumber%" -T "TOTALDISCS=%totalcds%" -T "TOTALTRACKS=%numtracks%" %hascover%–picture="%coverfile%"%hascover% %source% -o %dest%

TOC of the extracted CD

Track | Start | Length | Start sector | End sector
––––––––––––––––––––––––––––-
1 | 0:00.00 | 3:01.74 | 0 | 13648
2 | 3:01.74 | 2:21.13 | 13649 | 24236
3 | 5:23.12 | 3:35.16 | 24237 | 40377
4 | 8:58.28 | 3:09.44 | 40378 | 54596
5 | 12:07.72 | 3:18.02 | 54597 | 69448
6 | 15:25.74 | 2:42.21 | 69449 | 81619
7 | 18:08.20 | 2:58.58 | 81620 | 95027
8 | 21:07.03 | 2:35.23 | 95028 | 106675
9 | 23:42.26 | 3:17.30 | 106676 | 121480
10 | 26:59.56 | 2:28.35 | 121481 | 132615
11 | 29:28.16 | 2:52.71 | 132616 | 145586
12 | 32:21.12 | 2:58.33 | 145587 | 158969
13 | 35:19.45 | 2:48.10 | 158970 | 171579
14 | 38:07.55 | 3:08.51 | 171580 | 185730
15 | 41:16.31 | 2:10.61 | 185731 | 195541
16 | 43:27.17 | 2:54.33 | 195542 | 208624
17 | 46:21.50 | 2:57.72 | 208625 | 221971
18 | 49:19.47 | 3:05.69 | 221972 | 235915
19 | 52:25.41 | 2:35.58 | 235916 | 247598
20 | 55:01.24 | 2:53.01 | 247599 | 260574
21 | 57:54.25 | 3:01.22 | 260575 | 274171
22 | 60:55.47 | 2:23.71 | 274172 | 284967
23 | 63:19.43 | 2:27.57 | 284968 | 296049
24 | 65:47.25 | 2:43.30 | 296050 | 308304
25 | 68:30.55 | 2:41.34 | 308305 | 320413

Range status and errors

Selected range

Filename C:mmVA2009 – 125 Hits The War Years [HIT558]Various Artists – 125 Hits The War Years (CD4).wav

Peak level 100.0 %
Extraction speed 3.7 X
Range quality 99.9 %
Test CRC B6816425
Copy CRC B6816425
Copy OK

No errors occurred

End of status report

–– CUETools DB Plugin V2.1.6

[CTDB TOCID: Z.I5nLi95gRxfsozdEGwbxl2lbU-] found
Submit result: Z.I5nLi95gRxfsozdEGwbxl2lbU- has been confirmed
Track | CTDB Status
1 | (2/2) Accurately ripped
2 | (2/2) Accurately ripped
3 | (2/2) Accurately ripped
4 | (2/2) Accurately ripped
5 | (2/2) Accurately ripped
6 | (2/2) Accurately ripped
7 | (2/2) Accurately ripped
8 | (2/2) Accurately ripped
9 | (2/2) Accurately ripped
10 | (2/2) Accurately ripped
11 | (2/2) Accurately ripped
12 | (2/2) Accurately ripped
13 | (2/2) Accurately ripped
14 | (2/2) Accurately ripped
15 | (2/2) Accurately ripped
16 | (2/2) Accurately ripped
17 | (2/2) Accurately ripped
18 | (2/2) Accurately ripped
19 | (2/2) Accurately ripped
20 | (2/2) Accurately ripped
21 | (2/2) Accurately ripped
22 | (2/2) Accurately ripped
23 | (2/2) Accurately ripped
24 | (2/2) Accurately ripped
25 | (2/2) Accurately ripped

DR Log
foobar2000 1.2.6 / Dynamic Range Meter 1.1.1
log date: 2017-07-31 00:19:02

––––––––––––––––––––––––––––––––––––––––
Analyzed: Benny Goodman / 125 Hits The War Years (CD4) (1)
Big Joe Turner / 125 Hits The War Years (CD4) (2)
––––––––––––––––––––––––––––––––––––––––

DR Peak RMS Duration Track
––––––––––––––––––––––––––––––––––––––––
DR12 -0.06 dB -14.37 dB 2:42 06-Mission To Moscow
DR15 0.00 dB -17.56 dB 2:54 16-Cherry Red
––––––––––––––––––––––––––––––––––––––––

Number of tracks: 2
Official DR value: DR13

Samplerate: 44100 Hz
Channels: 2
Bits per sample: 16
Bitrate: 507 kbps
Codec: FLAC
================================================================================

––––––––––––––––––––––––––––––––––––––––
Statistics for: 09-Lover Man
Number of samples: 8705340
Duration: 3:17
––––––––––––––––––––––––––––––––––––––––

Left Right

Peak Value: -0.60 dB –- 0.00 dB
Avg RMS: -15.72 dB –- -15.64 dB
DR channel: 12.19 dB –- 12.48 dB
––––––––––––––––––––––––––––––––––––––––

Official DR Value: DR12

Samplerate: 44100 Hz
Channels: 2
Bits per sample: 16
Bitrate: 507 kbps
Codec: FLAC
================================================================================
––––––––––––––––––––––––––––––––––––––––
Analyzed: Bob Wills / 125 Hits The War Years (CD4) (1)
Cab Colloway / 125 Hits The War Years (CD4) (2)
Coleman Hawkins / 125 Hits The War Years (CD4) (3)
Deanna Durbin / 125 Hits The War Years (CD4) (4)
––––––––––––––––––––––––––––––––––––––––

DR Peak RMS Duration Track
––––––––––––––––––––––––––––––––––––––––
DR12 -0.06 dB -15.51 dB 2:35 08-New San Antonio Rose
DR13 0.00 dB -15.79 dB 3:09 14-A Smo-o-o-oth One
DR14 -0.28 dB -18.82 dB 2:58 17-A Shanty In Old Shanty Town
DR13 0.00 dB -17.26 dB 2:28 23-Amapola
––––––––––––––––––––––––––––––––––––––––

Number of tracks: 4
Official DR value: DR13

Samplerate: 44100 Hz
Channels: 2
Bits per sample: 16
Bitrate: 507 kbps
Codec: FLAC
================================================================================

––––––––––––––––––––––––––––––––––––––––
Analyzed: Dick Haymes & The Song Spinners / 125 Hits The War Years (CD4) (1)
Django Reinhardt / 125 Hits The War Years (CD4) (2)
Duke Ellington / 125 Hits The War Years (CD4) (3)
––––––––––––––––––––––––––––––––––––––––

DR Peak RMS Duration Track
––––––––––––––––––––––––––––––––––––––––
DR10 -3.81 dB -17.53 dB 2:48 13-You’ll Never Know
DR13 0.00 dB -16.68 dB 3:01 21-Les Yeux Noirs
DR11 -0.59 dB -13.98 dB 2:24 22-Perdido
––––––––––––––––––––––––––––––––––––––––

Number of tracks: 3
Official DR value: DR11

Samplerate: 44100 Hz
Channels: 2
Bits per sample: 16
Bitrate: 507 kbps
Codec: FLAC
================================================================================

––––––––––––––––––––––––––––––––––––––––
Analyzed: Ella Fitzgerald / 125 Hits The War Years (CD4) (1)
Flanagan & Allen / 125 Hits The War Years (CD4) (2)
––––––––––––––––––––––––––––––––––––––––

DR Peak RMS Duration Track
––––––––––––––––––––––––––––––––––––––––
DR13 0.00 dB -15.97 dB 2:59 07-Little White Lies
DR10 -3.28 dB -16.35 dB 2:41 25-Down Forget-me-not Lane
––––––––––––––––––––––––––––––––––––––––

Number of tracks: 2
Official DR value: DR11

Samplerate: 44100 Hz
Channels: 2
Bits per sample: 16
Bitrate: 507 kbps
Codec: FLAC
================================================================================

––––––––––––––––––––––––––––––––––––––––
Analyzed: Frank Sinatra / 125 Hits The War Years (CD4) (1)
George Formby / 125 Hits The War Years (CD4) (2)
––––––––––––––––––––––––––––––––––––––––

DR Peak RMS Duration Track
––––––––––––––––––––––––––––––––––––––––
DR8 0.00 dB -10.04 dB 3:06 18-I’ll Be Seeing You
DR13 -1.15 dB -17.14 dB 2:43 24-The Blue Eyed Blond Next Door
––––––––––––––––––––––––––––––––––––––––

Number of tracks: 2
Official DR value: DR10

Samplerate: 44100 Hz
Channels: 2
Bits per sample: 16
Bitrate: 507 kbps
Codec: FLAC
================================================================================

––––––––––––––––––––––––––––––––––––––––
Statistics for: 03-In The Mood
Number of samples: 9490908
Duration: 3:35
––––––––––––––––––––––––––––––––––––––––

Left Right

Peak Value: -0.05 dB –- 0.00 dB
Avg RMS: -18.61 dB –- -18.16 dB
DR channel: 14.97 dB –- 14.44 dB
––––––––––––––––––––––––––––––––––––––––

Official DR Value: DR15

Samplerate: 44100 Hz
Channels: 2
Bits per sample: 16
Bitrate: 507 kbps
Codec: FLAC
================================================================================
––––––––––––––––––––––––––––––––––––––––
Analyzed: Gracie Fields / 125 Hits The War Years (CD4) (1)
Jo Stafford / 125 Hits The War Years (CD4) (2)
Lester Young / 125 Hits The War Years (CD4) (3)
––––––––––––––––––––––––––––––––––––––––

DR Peak RMS Duration Track
––––––––––––––––––––––––––––––––––––––––
DR10 -0.95 dB -12.80 dB 2:21 02-Sally
DR8 0.00 dB -9.98 dB 2:53 11-Bye Bye Blackbird
DR14 -0.16 dB -19.87 dB 2:36 19-Who?
––––––––––––––––––––––––––––––––––––––––

Number of tracks: 3
Official DR value: DR11

Samplerate: 44100 Hz
Channels: 2
Bits per sample: 16
Bitrate: 507 kbps
Codec: FLAC
================================================================================

––––––––––––––––––––––––––––––––––––––––
Analyzed: Nat King Cole / 125 Hits The War Years (CD4) (1)
Peggy Lee / 125 Hits The War Years (CD4) (2)
Perry Como / 125 Hits The War Years (CD4) (3)
––––––––––––––––––––––––––––––––––––––––

DR Peak RMS Duration Track
––––––––––––––––––––––––––––––––––––––––
DR14 -0.15 dB -17.53 dB 3:18 05-The Frim Fram Sauce
DR13 0.00 dB -18.18 dB 2:58 12-Baby (Is What He Calls Me)
DR15 -0.11 dB -18.31 dB 2:53 20-Mr Meadowlark
––––––––––––––––––––––––––––––––––––––––

Number of tracks: 3
Official DR value: DR14

Samplerate: 44100 Hz
Channels: 2
Bits per sample: 16
Bitrate: 507 kbps
Codec: FLAC
================================================================================

––––––––––––––––––––––––––––––––––––––––
Statistics for: 10-One O’clock Jump
Number of samples: 6547380
Duration: 2:28
––––––––––––––––––––––––––––––––––––––––

Left Right

Peak Value: -1.12 dB –- -0.01 dB
Avg RMS: -16.80 dB –- -15.83 dB
DR channel: 12.23 dB –- 12.05 dB
––––––––––––––––––––––––––––––––––––––––

Official DR Value: DR12

Samplerate: 44100 Hz
Channels: 2
Bits per sample: 16
Bitrate: 507 kbps
Codec: FLAC
================================================================================
––––––––––––––––––––––––––––––––––––––––
Statistics for: 04-Rum & Coca Cola
Number of samples: 8360772
Duration: 3:10
––––––––––––––––––––––––––––––––––––––––

Left Right

Peak Value: -1.33 dB –- 0.00 dB
Avg RMS: -16.75 dB –- -16.31 dB
DR channel: 12.91 dB –- 13.76 dB
––––––––––––––––––––––––––––––––––––––––

Official DR Value: DR13

Samplerate: 44100 Hz
Channels: 2
Bits per sample: 16
Bitrate: 507 kbps
Codec: FLAC
================================================================================
––––––––––––––––––––––––––––––––––––––––
Statistics for: 01-There’ll Always Be An England
Number of samples: 8025612
Duration: 3:02
––––––––––––––––––––––––––––––––––––––––

Left Right

Peak Value: -1.07 dB –- -1.09 dB
Avg RMS: -15.61 dB –- -15.63 dB
DR channel: 11.66 dB –- 11.66 dB
––––––––––––––––––––––––––––––––––––––––

Official DR Value: DR12

Samplerate: 44100 Hz
Channels: 2
Bits per sample: 16
Bitrate: 507 kbps
Codec: FLAC
================================================================================

CUETools Log
[CUETools log; Date: 31.07.2017 0:19:14; Version: 2.1.5]
[CTDB TOCID: Z.I5nLi95gRxfsozdEGwbxl2lbU-] found.
Track | CTDB Status
1 | (3/3) Accurately ripped
2 | (3/3) Accurately ripped
3 | (3/3) Accurately ripped
4 | (3/3) Accurately ripped
5 | (3/3) Accurately ripped
6 | (3/3) Accurately ripped
7 | (3/3) Accurately ripped
8 | (3/3) Accurately ripped
9 | (3/3) Accurately ripped
10 | (3/3) Accurately ripped
11 | (3/3) Accurately ripped
12 | (3/3) Accurately ripped
13 | (3/3) Accurately ripped
14 | (3/3) Accurately ripped
15 | (3/3) Accurately ripped
16 | (3/3) Accurately ripped
17 | (3/3) Accurately ripped
18 | (3/3) Accurately ripped
19 | (3/3) Accurately ripped
20 | (3/3) Accurately ripped
21 | (3/3) Accurately ripped
22 | (3/3) Accurately ripped
23 | (3/3) Accurately ripped
24 | (3/3) Accurately ripped
25 | (3/3) Accurately ripped
[AccurateRip ID: 0040eff9-048b1a27-6c10b019] found.
Track [ CRC | V2 ] Status
01 [4d7e98bc|3a41e35c] (0+1/1) Accurately ripped
02 [dd83076a|83f7e03b] (0+1/1) Accurately ripped
03 [54135ef4|76f60471] (0+1/1) Accurately ripped
04 [03089d27|159475e1] (0+1/1) Accurately ripped
05 [2362a1b7|19588aef] (0+1/1) Accurately ripped
06 [263d5d9e|7cfc72be] (0+1/1) Accurately ripped
07 [bd0ce7ed|7a886e43] (0+1/1) Accurately ripped
08 [2ba1d160|827e11b7] (0+1/1) Accurately ripped
09 [006bf332|23829047] (0+1/1) Accurately ripped
10 [fd405fbd|2a7f898e] (0+1/1) Accurately ripped
11 [a43fa369|29a29233] (0+1/1) Accurately ripped
12 [46da84de|91f12860] (0+1/1) Accurately ripped
13 [555ca57d|52190fd4] (0+1/1) Accurately ripped
14 [b5f0a74e|52abe12c] (0+1/1) Accurately ripped
15 [f6bb23eb|80a9fc96] (0+1/1) Accurately ripped
16 [01242fef|21abfc2c] (0+1/1) Accurately ripped
17 [6229bcbd|f93f1271] (0+1/1) Accurately ripped
18 [869ea0c4|df6480b8] (0+1/1) Accurately ripped
19 [20189978|6c3e71e7] (0+1/1) Accurately ripped
20 [246d379a|5f5b25b9] (0+1/1) Accurately ripped
21 [9b767915|42aaa9ad] (0+1/1) Accurately ripped
22 [f7cff355|96d0c465] (0+1/1) Accurately ripped
23 [a6dea025|09ac871f] (0+1/1) Accurately ripped
24 [5b07d6fd|666e72a9] (0+1/1) Accurately ripped
25 [aeb48cc2|8622a123] (0+1/1) Accurately ripped

Track Peak [ CRC32 ] [W/O NULL] [ LOG ]
– 100,0 [B6816425] [CB1F09E3] CRC32
01 88,4 [8010310F] [01B5BDAA]
02 89,6 [324CD2DA] [B9C81212]
03 100,0 [B1E73226] [94D874F9]
04 99,9 [5344DCAA] [45BECEC4]
05 98,3 [A59BE78C] [F7123B11]
06 99,3 [D3C9BEBB] [93319AFF]
07 100,0 [2310872A] [891FBC89]
08 99,2 [8A84B966] [91EBD0E0]
09 99,9 [3E983473] [BCA20377]
10 99,8 [DB0EAF59] [9ABE4CB2]
11 100,0 [B010E89D] [ABA356FD]
12 100,0 [2038FB27] [7075A6A6]
13 64,4 [2FDCCF44] [229754D7]
14 99,9 [74389444] [78FF0098]
15 99,9 [A8A4255B] [06EFB035]
16 100,0 [6BDD657B] [E1CC07BF]
17 96,8 [1623B55F] [BE46FE6C]
18 99,9 [0A274A49] [FC29CF2B]
19 98,1 [FC393629] [9C13DBC6]
20 98,7 [88B2C4F2] [D67B35A5]
21 99,9 [52EF6F38] [8974729B]
22 93,4 [AD5EAEF0] [A96A7C44]
23 100,0 [1F114D7B] [AD8E9596]
24 87,6 [A77B916A] [0865935D]
25 68,5 [FF40A3A1] [0D4156D0]

Track List CD5:

01. The Mayfair Orchestra – Land Of Hope And Glory [2:49]
02. Glenn Miller – Pennsylvania 6-5000 [3:18]
03. Oscar Peterson – I Got Rhythm [3:02]
04. George Formby – With My Little Ukelele In My Hand [3:09]
05. Bing Crosby & The Andrews Sisters – Ac-cent-tchu-ate The Positive [2:44]
06. Gracie Fields – Scarlet Ribbons [2:46]
07. Vera Lynn – Auf Wiederseh’n, Sweetheart [2:39]
08. Charlie Parker – Billie’s Bounce [3:10]
09. Muggsy Spanier – Sweet Lorraine [4:22]
10. Duke Ellington – Take The ‘A’ Train [3:02]
11. Doris Day – Till The End Of Time [2:58]
12. Judy Garland – You’ll Never Walk Alone [3:20]
13. Artie Shaw – Smoke Gets In Your Eyes [3:08]
14. Bing Crosby – Deep In The Heart Of Texas [2:42]
15. Frank Sinatra – Day By Day [3:10]
16. Glenn Miller – Tuxedo Junction [3:28]
17. Perry Como – I’m Always Chasing Rainbows [3:06]
18. Lester Young – Five O’clock Whistle [3:02]
19. Count Basie – Somebody Stole My Gal [2:54]
20. Doris Day – I Got The Sun In The Morning [2:34]
21. Bing Crosby – Swinging On A Star [2:32]
22. Judy Garland – Over The Rainbow [2:48]
23. Frank Sinatra – She’s Funny That Way [2:12]
24. Jo Stafford – Walkin’ My Baby Back Home [2:44]
25. Dick Haymes & Louanne Hogan & Jeanne Crain – It Might As Well Be Spring [3:09]

EAC Log
Exact Audio Copy V1.3 from 2. September 2016

EAC extraction logfile from 5. July 2017, 21:08

Various Artists / 125 Hits The War Years (CD5)

Used drive : ATAPI iHAS124 D Adapter: 0 ID: 2

Read mode : Secure
Utilize accurate stream : Yes
Defeat audio cache : Yes
Make use of C2 pointers : No

Read offset correction : 6
Overread into Lead-In and Lead-Out : No
Fill up missing offset samples with silence : Yes
Delete leading and trailing silent blocks : No
Null samples used in CRC calculations : Yes
Used interface : Installed external ASPI interface

Used output format : User Defined Encoder
Selected bitrate : 1024 kBit/s
Quality : High
Add ID3 tag : No
Command line compressor : C:Program Files (x86)Exact Audio CopyFlacflac.exe
Additional command line options : -6 -V -T "ARTIST=%artist%" -T "TITLE=%title%" -T "ALBUM=%albumtitle%" -T "DATE=%year%" -T "TRACKNUMBER=%tracknr%" -T "GENRE=%genre%" -T "COMMENT=%comment%" -T "BAND=%albuminterpret%" -T "ALBUMARTIST=%albuminterpret%" -T "COMPOSER=%composer%" %haslyrics%–tag-from-file=LYRICS="%lyricsfile%"%haslyrics% -T "DISCNUMBER=%cdnumber%" -T "TOTALDISCS=%totalcds%" -T "TOTALTRACKS=%numtracks%" %hascover%–picture="%coverfile%"%hascover% %source% -o %dest%

TOC of the extracted CD

Track | Start | Length | Start sector | End sector
––––––––––––––––––––––––––––-
1 | 0:00.00 | 2:49.22 | 0 | 12696
2 | 2:49.22 | 3:17.63 | 12697 | 27534
3 | 6:07.10 | 3:01.64 | 27535 | 41173
4 | 9:08.74 | 3:09.18 | 41174 | 55366
5 | 12:18.17 | 2:44.11 | 55367 | 67677
6 | 15:02.28 | 2:46.12 | 67678 | 80139
7 | 17:48.40 | 2:39.34 | 80140 | 92098
8 | 20:27.74 | 3:09.49 | 92099 | 106322
9 | 23:37.48 | 4:22.28 | 106323 | 126000
10 | 28:00.01 | 3:01.58 | 126001 | 139633
11 | 31:01.59 | 2:57.48 | 139634 | 152956
12 | 33:59.32 | 3:19.48 | 152957 | 167929
13 | 37:19.05 | 3:08.33 | 167930 | 182062
14 | 40:27.38 | 2:42.16 | 182063 | 194228
15 | 43:09.54 | 3:10.20 | 194229 | 208498
16 | 46:19.74 | 3:27.47 | 208499 | 224070
17 | 49:47.46 | 3:05.65 | 224071 | 238010
18 | 52:53.36 | 3:01.73 | 238011 | 251658
19 | 55:55.34 | 2:53.52 | 251659 | 264685
20 | 58:49.11 | 2:34.25 | 264686 | 276260
21 | 61:23.36 | 2:31.63 | 276261 | 287648
22 | 63:55.24 | 2:47.72 | 287649 | 300245
23 | 66:43.21 | 2:12.32 | 300246 | 310177
24 | 68:55.53 | 2:43.61 | 310178 | 322463
25 | 71:39.39 | 3:08.56 | 322464 | 336619

Range status and errors

Selected range

Filename C:mmVA2009 – 125 Hits The War Years [HIT558]Various Artists – 125 Hits The War Years (CD5).wav

Peak level 100.0 %
Extraction speed 3.6 X
Range quality 100.0 %
Test CRC 003E36F2
Copy CRC 003E36F2
Copy OK

No errors occurred

AccurateRip summary

Track 1 not present in database
Track 2 not present in database
Track 3 not present in database
Track 4 not present in database
Track 5 not present in database
Track 6 not present in database
Track 7 not present in database
Track 8 not present in database
Track 9 not present in database
Track 10 not present in database
Track 11 not present in database
Track 12 not present in database
Track 13 not present in database
Track 14 not present in database
Track 15 not present in database
Track 16 not present in database
Track 17 not present in database
Track 18 not present in database
Track 19 not present in database
Track 20 not present in database
Track 21 not present in database
Track 22 not present in database
Track 23 not present in database
Track 24 not present in database
Track 25 not present in database

None of the tracks are present in the AccurateRip database

End of status report

–– CUETools DB Plugin V2.1.6

[CTDB TOCID: HPbYX73TkRfbtgzcwdPXQ8bZ0PI-] found
Submit result: already submitted
Track | CTDB Status
1 | (2/2) Accurately ripped
2 | (2/2) Accurately ripped
3 | (2/2) Accurately ripped
4 | (2/2) Accurately ripped
5 | (2/2) Accurately ripped
6 | (2/2) Accurately ripped
7 | (2/2) Accurately ripped
8 | (2/2) Accurately ripped
9 | (2/2) Accurately ripped
10 | (2/2) Accurately ripped
11 | (2/2) Accurately ripped
12 | (2/2) Accurately ripped
13 | (2/2) Accurately ripped
14 | (2/2) Accurately ripped
15 | (2/2) Accurately ripped
16 | (2/2) Accurately ripped
17 | (2/2) Accurately ripped
18 | (2/2) Accurately ripped
19 | (2/2) Accurately ripped
20 | (2/2) Accurately ripped
21 | (2/2) Accurately ripped
22 | (2/2) Accurately ripped
23 | (2/2) Accurately ripped
24 | (2/2) Accurately ripped
25 | (2/2) Accurately ripped

DR Log
foobar2000 1.2.6 / Dynamic Range Meter 1.1.1
log date: 2017-07-31 00:20:38

––––––––––––––––––––––––––––––––––––––––
Analyzed: Artie Shaw / 125 Hits The War Years (CD5) (1)
Bing Crosby / 125 Hits The War Years (CD5) (2-3)
––––––––––––––––––––––––––––––––––––––––

DR Peak RMS Duration Track
––––––––––––––––––––––––––––––––––––––––
DR9 -0.26 dB -11.09 dB 3:08 13-Smoke Gets In Your Eyes
DR8 0.00 dB -11.11 dB 2:42 14-Deep In The Heart Of Texas
DR12 -0.09 dB -15.23 dB 2:32 21-Swinging On A Star
––––––––––––––––––––––––––––––––––––––––

Number of tracks: 3
Official DR value: DR10

Samplerate: 44100 Hz
Channels: 2
Bits per sample: 16
Bitrate: 568 kbps
Codec: FLAC
================================================================================

––––––––––––––––––––––––––––––––––––––––
Analyzed: Bing Crosby & The Andrews Sisters / 125 Hits The War Years (CD5) (1)
Charlie Parker / 125 Hits The War Years (CD5) (2)
Count Basie / 125 Hits The War Years (CD5) (3)
Dick Haymes & Louanne Hogan & Jeanne Crain / 125 Hits The War Years (CD5) (4)
––––––––––––––––––––––––––––––––––––––––

DR Peak RMS Duration Track
––––––––––––––––––––––––––––––––––––––––
DR14 0.00 dB -17.68 dB 2:44 05-Ac-cent-tchu-ate The Positive
DR11 -5.41 dB -19.07 dB 3:10 08-Billie’s Bounce
DR14 0.00 dB -16.76 dB 2:54 19-Somebody Stole My Gal
DR9 0.00 dB -11.04 dB 3:09 25-It Might As Well Be Spring
––––––––––––––––––––––––––––––––––––––––

Number of tracks: 4
Official DR value: DR12

Samplerate: 44100 Hz
Channels: 2
Bits per sample: 16
Bitrate: 568 kbps
Codec: FLAC
================================================================================

––––––––––––––––––––––––––––––––––––––––
Analyzed: Doris Day / 125 Hits The War Years (CD5)
––––––––––––––––––––––––––––––––––––––––

DR Peak RMS Duration Track
––––––––––––––––––––––––––––––––––––––––
DR12 0.00 dB -16.24 dB 2:58 11-Till The End Of Time
DR13 -0.43 dB -16.29 dB 2:34 20-I Got The Sun In The Morning
––––––––––––––––––––––––––––––––––––––––

Number of tracks: 2
Official DR value: DR13

Samplerate: 44100 Hz
Channels: 2
Bits per sample: 16
Bitrate: 568 kbps
Codec: FLAC
================================================================================

––––––––––––––––––––––––––––––––––––––––
Analyzed: Duke Ellington / 125 Hits The War Years (CD5) (1)
Frank Sinatra / 125 Hits The War Years (CD5) (2-3)
––––––––––––––––––––––––––––––––––––––––

DR Peak RMS Duration Track
––––––––––––––––––––––––––––––––––––––––
DR11 0.00 dB -14.07 dB 3:02 10-Take The ‘A’ Train
DR8 0.00 dB -11.06 dB 3:10 15-Day By Day
DR9 -1.00 dB -13.10 dB 2:12 23-She’s Funny That Way
––––––––––––––––––––––––––––––––––––––––

Number of tracks: 3
Official DR value: DR10

Samplerate: 44100 Hz
Channels: 2
Bits per sample: 16
Bitrate: 568 kbps
Codec: FLAC
================================================================================

––––––––––––––––––––––––––––––––––––––––
Statistics for: 04-With My Little Ukelele In My Hand
Number of samples: 8345484
Duration: 3:09
––––––––––––––––––––––––––––––––––––––––

Left Right

Peak Value: -3.97 dB –- -2.84 dB
Avg RMS: -18.54 dB –- -17.05 dB
DR channel: 12.35 dB –- 12.19 dB
––––––––––––––––––––––––––––––––––––––––

Official DR Value: DR12

Samplerate: 44100 Hz
Channels: 2
Bits per sample: 16
Bitrate: 568 kbps
Codec: FLAC
================================================================================
––––––––––––––––––––––––––––––––––––––––
Analyzed: Glenn Miller / 125 Hits The War Years (CD5)
––––––––––––––––––––––––––––––––––––––––

DR Peak RMS Duration Track
––––––––––––––––––––––––––––––––––––––––
DR14 0.00 dB -18.02 dB 3:18 02-Pennsylvania 6-5000
DR7 0.00 dB -11.32 dB 3:28 16-Tuxedo Junction
––––––––––––––––––––––––––––––––––––––––

Number of tracks: 2
Official DR value: DR11

Samplerate: 44100 Hz
Channels: 2
Bits per sample: 16
Bitrate: 568 kbps
Codec: FLAC
================================================================================

––––––––––––––––––––––––––––––––––––––––
Analyzed: Gracie Fields / 125 Hits The War Years (CD5) (1)
Jo Stafford / 125 Hits The War Years (CD5) (2)
––––––––––––––––––––––––––––––––––––––––

DR Peak RMS Duration Track
––––––––––––––––––––––––––––––––––––––––
DR14 -5.71 dB -24.04 dB 2:46 06-Scarlet Ribbons
DR10 -1.26 dB -15.05 dB 2:44 24-Walkin’ My Baby Back Home
––––––––––––––––––––––––––––––––––––––––

Number of tracks: 2
Official DR value: DR12

Samplerate: 44100 Hz
Channels: 2
Bits per sample: 16
Bitrate: 568 kbps
Codec: FLAC
================================================================================

––––––––––––––––––––––––––––––––––––––––
Analyzed: Judy Garland / 125 Hits The War Years (CD5)
––––––––––––––––––––––––––––––––––––––––

DR Peak RMS Duration Track
––––––––––––––––––––––––––––––––––––––––
DR11 -3.90 dB -18.58 dB 3:20 12-You’ll Never Walk Alone
DR10 -0.30 dB -14.09 dB 2:48 22-Over The Rainbow
––––––––––––––––––––––––––––––––––––––––

Number of tracks: 2
Official DR value: DR10

Samplerate: 44100 Hz
Channels: 2
Bits per sample: 16
Bitrate: 568 kbps
Codec: FLAC
================================================================================

––––––––––––––––––––––––––––––––––––––––
Statistics for: 18-Five O’clock Whistle
Number of samples: 8025024
Duration: 3:02
––––––––––––––––––––––––––––––––––––––––

Left Right

Peak Value: 0.00 dB –- 0.00 dB
Avg RMS: -15.76 dB –- -15.24 dB
DR channel: 13.21 dB –- 13.43 dB
––––––––––––––––––––––––––––––––––––––––

Official DR Value: DR13

Samplerate: 44100 Hz
Channels: 2
Bits per sample: 16
Bitrate: 568 kbps
Codec: FLAC
================================================================================
––––––––––––––––––––––––––––––––––––––––
Statistics for: 09-Sweet Lorraine
Number of samples: 11570664
Duration: 4:22
––––––––––––––––––––––––––––––––––––––––

Left Right

Peak Value: -1.11 dB –- -0.21 dB
Avg RMS: -12.98 dB –- -12.61 dB
DR channel: 10.26 dB –- 10.07 dB
––––––––––––––––––––––––––––––––––––––––

Official DR Value: DR10

Samplerate: 44100 Hz
Channels: 2
Bits per sample: 16
Bitrate: 568 kbps
Codec: FLAC
================================================================================
––––––––––––––––––––––––––––––––––––––––
Analyzed: Oscar Peterson / 125 Hits The War Years (CD5) (1)
Perry Como / 125 Hits The War Years (CD5) (2)
––––––––––––––––––––––––––––––––––––––––

DR Peak RMS Duration Track
––––––––––––––––––––––––––––––––––––––––
DR14 0.00 dB -16.35 dB 3:02 03-I Got Rhythm
DR8 0.00 dB -11.03 dB 3:06 17-I’m Always Chasing Rainbows
––––––––––––––––––––––––––––––––––––––––

Number of tracks: 2
Official DR value: DR11

Samplerate: 44100 Hz
Channels: 2
Bits per sample: 16
Bitrate: 568 kbps
Codec: FLAC
================================================================================

––––––––––––––––––––––––––––––––––––––––
Analyzed: The Mayfair Orchestra / 125 Hits The War Years (CD5) (1)
Vera Lynn / 125 Hits The War Years (CD5) (2)
––––––––––––––––––––––––––––––––––––––––

DR Peak RMS Duration Track
––––––––––––––––––––––––––––––––––––––––
DR11 -0.30 dB -14.55 dB 2:49 01-Land Of Hope And Glory
DR11 -1.38 dB -17.03 dB 2:39 07-Auf Wiederseh’n, Sweetheart
––––––––––––––––––––––––––––––––––––––––

Number of tracks: 2
Official DR value: DR11

Samplerate: 44100 Hz
Channels: 2
Bits per sample: 16
Bitrate: 568 kbps
Codec: FLAC
================================================================================

CUETools Log
[CUETools log; Date: 31.07.2017 0:20:28; Version: 2.1.5]
[CTDB TOCID: HPbYX73TkRfbtgzcwdPXQ8bZ0PI-] found.
Track | CTDB Status
1 | (2/2) Accurately ripped
2 | (2/2) Accurately ripped
3 | (2/2) Accurately ripped
4 | (2/2) Accurately ripped
5 | (2/2) Accurately ripped
6 | (2/2) Accurately ripped
7 | (2/2) Accurately ripped
8 | (2/2) Accurately ripped
9 | (2/2) Accurately ripped
10 | (2/2) Accurately ripped
11 | (2/2) Accurately ripped
12 | (2/2) Accurately ripped
13 | (2/2) Accurately ripped
14 | (2/2) Accurately ripped
15 | (2/2) Accurately ripped
16 | (2/2) Accurately ripped
17 | (2/2) Accurately ripped
18 | (2/2) Accurately ripped
19 | (2/2) Accurately ripped
20 | (2/2) Accurately ripped
21 | (2/2) Accurately ripped
22 | (2/2) Accurately ripped
23 | (2/2) Accurately ripped
24 | (2/2) Accurately ripped
25 | (2/2) Accurately ripped
[AccurateRip ID: 004425fb-04c90e08-61118819] found.
Track [ CRC | V2 ] Status
01 [9cdc390e|4c786288] (0+1/1) Accurately ripped
02 [a734809d|752f2573] (0+1/1) Accurately ripped
03 [f3926ca9|eeaab3d6] (0+1/1) Accurately ripped
04 [a3d3675c|581c0704] (0+1/1) Accurately ripped
05 [f295b56e|4a95b18a] (0+1/1) Accurately ripped
06 [bb30852c|fc6f3485] (0+1/1) Accurately ripped
07 [7677ef91|488176b2] (0+1/1) Accurately ripped
08 [69d6c570|bfb909cb] (0+1/1) Accurately ripped
09 [2460f5d6|4779cb48] (0+1/1) Accurately ripped
10 [a8d10e47|49613ae1] (0+1/1) Accurately ripped
11 [0ae94b41|f1e97950] (0+1/1) Accurately ripped
12 [71f73e1f|7d9de2bc] (0+1/1) Accurately ripped
13 [b1844145|cf51be1d] (0+1/1) Accurately ripped
14 [b09e4f85|74a42186] (0+1/1) Accurately ripped
15 [e21a99c1|4bc00670] (0+1/1) Accurately ripped
16 [fcfc1357|38d4291d] (0+1/1) Accurately ripped
17 [8f4cb34d|8609f496] (0+1/1) Accurately ripped
18 [d0d7fb05|0f78a516] (0+1/1) Accurately ripped
19 [45433e19|d6ffbd3e] (0+1/1) Accurately ripped
20 [b7df89ee|bd73aa08] (0+1/1) Accurately ripped
21 [a6b29b5c|1b58e334] (0+1/1) Accurately ripped
22 [813d89f4|02a33de9] (0+1/1) Accurately ripped
23 [d8521187|49325f11] (0+1/1) Accurately ripped
24 [4c4484cb|d8b6c86f] (0+1/1) Accurately ripped
25 [6d3803be|c6b81b5c] (0+1/1) Accurately ripped

Track Peak [ CRC32 ] [W/O NULL] [ LOG ]
– 100,0 [003E36F2] [8D1E147B] CRC32
01 96,6 [B44E063B] [B08B965B]
02 100,0 [DDE5D790] [E47DD552]
03 100,0 [A923EA0D] [F5D3BA0B]
04 72,0 [942970C7] [87D749EC]
05 100,0 [97A6F01E] [AB1E811A]
06 51,8 [417E93E1] [EEA0895A]
07 85,3 [50F96499] [1D956A6D]
08 53,6 [1CC830E1] [0F186395]
09 97,5 [49F68107] [B67BB793]
10 100,0 [DEDE1B7A] [D35EA749]
11 99,9 [F971B56E] [1F74A8F5]
12 63,8 [A4B9277A] [9B488D6E]
13 97,0 [CC681D9B] [82AE7200]
14 100,0 [1A4BE871] [2FECE3A4]
15 100,0 [923298EA] [29763C02]
16 100,0 [EEBC87F3] [F1CD6FA9]
17 100,0 [424A6336] [F59C398C]
18 100,0 [D142C833] [67A27455]
19 100,0 [25FE275E] [5C4E742B]
20 95,1 [09AD7FAD] [E262AF44]
21 98,9 [A3239A86] [3C3BB698]
22 96,5 [E318E874] [11B47AEE]
23 89,1 [A04D2E34] [27C284EC]
24 86,5 [2E9685D4] [CC6A3531]
25 100,0 [399AFB41] [7AAD4EA6]

VA - 125 Hits The War Years (2009) {5CD Box Set}

VA - 125 Hits The War Years (2009) {5CD Box Set}

All thanks go to sergych

>>> My Blog <<<

Download from icerbox.com:

VA – 125 Hits The War Years (2009) {5CD Box Set} Download, Warez, DDL, Free, Full Album, Torrent, Legal.

Download