V.A. – Ambient Meditations 4: God Bless The Chilled (2002)

Download
V.A. - Ambient Meditations 4: God Bless The Chilled (2002)

V.A. – Ambient Meditations 4: God Bless The Chilled (2002)
EAC Rip | FLAC (image+.cue+log) – 439 MB | MP3 CBR 320 kbps (LAME 3.93) – 183 MB | Covers – 44 MB
Genre: Downtempo, Ambient | RAR 3% Rec. | Label: Return To The Source (rttscd17)

"God Bless the Chilled" is an amazing compilation, and it’s beautifully mixed from start to finish. This Album pays homage to almost the entire history of electronic music, from Harry Hosano and Conrad Schnizler to contemporary artists such as Rei Harakami and Simon Posford’s Shpongle.

Tracklist:
01. Calm – Light Years
02. Leggo Beast – The New Deal
03. Boozoo Bajou – Yma
04. The Irresistible Force – Lie-In King
05. Shpongle – Once Upon A Time
06. Felix Laband – Step Two
07. Something Wonderful – Eddyin’ Current
08. I.S. Diezel – Skunk
09. Haruomi ‘Harry’ Hosono – Moving Triangle
10. Electrical Lovers – Double Helix (Rei Harakami Remix)
11. Modaji – Starburst Over Orion
12. Ian O’Brien – Vagaluma
13. Detroit Escalator Company – The Inverted Man
14. Rei Harakami – Remain
15. Conrad Schnitzler – Electric Garden
16. Streamer – Sleepwalks

Total time: 01:17:46

EAC log
Exact Audio Copy V0.99 prebeta 5 from 4. May 2009

EAC extraction logfile from 7. April 2010, 21:44

Various / Ambient Meditations 4 – God Bless The Chilled – By Mixmaster Morris

Used drive : ASUS CRW-4816A Adapter: 2 ID: 1

Read mode : Secure
Utilize accurate stream : Yes
Defeat audio cache : Yes
Make use of C2 pointers : No

Read offset correction : 12
Overread into Lead-In and Lead-Out : No
Fill up missing offset samples with silence : Yes
Delete leading and trailing silent blocks : No
Null samples used in CRC calculations : Yes
Used interface : Installed external ASPI interface

Used output format : User Defined Encoder
Selected bitrate : 1024 kBit/s
Quality : High
Add ID3 tag : No
Command line compressor : C:Program FilesExact Audio CopyFLACFLAC.EXE
Additional command line options : -8 -V -T "ARTIST=%a" -T "ALBUM=%g" -T "DATE=%y" -T "GENRE=%m" %s -o %d

TOC of the extracted CD

Track | Start | Length | Start sector | End sector
––––––––––––––––––––––––––––-
1 | 0:00.00 | 5:13.10 | 0 | 23484
2 | 5:13.10 | 4:56.52 | 23485 | 45736
3 | 10:09.62 | 6:19.51 | 45737 | 74212
4 | 16:29.38 | 6:39.37 | 74213 | 104174
5 | 23:09.00 | 4:29.55 | 104175 | 124404
6 | 27:38.55 | 4:59.39 | 124405 | 146868
7 | 32:38.19 | 2:48.57 | 146869 | 159525
8 | 35:27.01 | 5:14.59 | 159526 | 183134
9 | 40:41.60 | 3:41.20 | 183135 | 199729
10 | 44:23.05 | 7:30.70 | 199730 | 233549
11 | 51:54.00 | 3:39.50 | 233550 | 250024
12 | 55:33.50 | 2:26.49 | 250025 | 261023
13 | 58:00.24 | 3:33.37 | 261024 | 277035
14 | 61:33.61 | 5:09.41 | 277036 | 300251
15 | 66:43.27 | 5:34.16 | 300252 | 325317
16 | 72:17.43 | 5:28.65 | 325318 | 349982

Range status and errors

Selected range

Filename J:tempnnmVarious – Ambient Meditations 4.wav

Peak level 100.0 %
Range quality 100.0 %
Test CRC F3090D39
Copy CRC F3090D39
Copy OK

No errors occurred

AccurateRip summary

Track 1 not present in database
Track 2 not present in database
Track 3 not present in database
Track 4 not present in database
Track 5 not present in database
Track 6 not present in database
Track 7 not present in database
Track 8 not present in database
Track 9 not present in database
Track 10 not present in database
Track 11 not present in database
Track 12 not present in database
Track 13 not present in database
Track 14 not present in database
Track 15 not present in database
Track 16 not present in database

None of the tracks are present in the AccurateRip database

End of status report

CUETools log
[CUETools log; Date: 12.08.2017 13:14:50; Version: 2.1.4]
HDCD: peak extend: none, transient filter: none, gain: none
[CTDB TOCID: dacUkgN7AKaYftvNYmgvCeJbF9c-] found.
Track | CTDB Status
1 | (4/4) Accurately ripped
2 | (4/4) Accurately ripped
3 | (4/4) Accurately ripped
4 | (4/4) Accurately ripped
5 | (4/4) Accurately ripped
6 | (4/4) Accurately ripped
7 | (4/4) Accurately ripped
8 | (4/4) Accurately ripped
9 | (4/4) Accurately ripped
10 | (4/4) Accurately ripped
11 | (4/4) Accurately ripped
12 | (4/4) Accurately ripped
13 | (4/4) Accurately ripped
14 | (4/4) Accurately ripped
15 | (4/4) Accurately ripped
16 | (4/4) Accurately ripped
[AccurateRip ID: 002eab1f-02285602-dc123a10] found.
Track [ CRC | V2 ] Status
01 [444d805b|f2b005cf] (1+1/3) Accurately ripped
02 [097b7e93|01300bb1] (1+1/3) Accurately ripped
03 [1cc7e2f3|ac49cf9e] (1+1/3) Accurately ripped
04 [928bf821|c84de58f] (2+0/2) Accurately ripped
05 [2a8f2cfe|cb2a2bc1] (1+1/3) Accurately ripped
06 [16dccbf5|6f8eed5c] (2+0/2) Accurately ripped
07 [cf72b639|e6571d28] (2+0/2) Accurately ripped
08 [67bb768d|9cc893eb] (1+1/3) Accurately ripped
09 [9b3f1414|65c2a972] (1+1/3) Accurately ripped
10 [cb2d373e|48cd6d81] (1+1/3) Accurately ripped
11 [122fb366|712ab560] (1+1/3) Accurately ripped
12 [fef6e5ff|6077321d] (2+0/2) Accurately ripped
13 [b24ce34d|53a242e2] (2+0/2) Accurately ripped
14 [c2920908|0607e0dd] (1+1/3) Accurately ripped
15 [730cd2ba|c4476f71] (2+0/2) Accurately ripped
16 [2e9d275c|5f63ff31] (2+0/2) Accurately ripped

Track Peak [ CRC32 ] [W/O NULL] [ LOG ]
– 100,0 [F3090D39] [D02F1F18] CRC32
01 98,8 [5A9F795A] [9254C406]
02 98,8 [7E7C4A63] [2176E0EF]
03 100,0 [717F90F9] [F81E2205]
04 100,0 [5F0924C9] [6FD966D3]
05 100,0 [3D978D45] [24823CB0]
06 100,0 [EE758D01] [DEB5940B]
07 100,0 [03CE37E3] [AA5D76BF]
08 100,0 [70EEF3BD] [1B55FFEC]
09 100,0 [6D58E05B] [863BC2EF]
10 97,8 [E2F2F6DA] [1D49C39C]
11 99,9 [38D24CE2] [75A9C347]
12 99,6 [02BC94F4] [64CECA9B]
13 100,0 [A47559B7] [9FC0727F]
14 100,0 [72261A5D] [B304C456]
15 65,5 [4FBDBF72] [B073F67D]
16 98,8 [0022195D] [B4688F3F]

Thanks to _ok

Welcome to My Blog!

V.A. – Ambient Meditations 4: God Bless The Chilled (2002) Download, Warez, DDL, Free, Full Album, Torrent, Legal.

Download