V.A. – A Bumper Box of Beats, Breaks & Bass [4CD Box Set] (1999)

Download
V.A. - A Bumper Box of Beats, Breaks & Bass [4CD Box Set] (1999)

V.A. – A Bumper Box of Beats, Breaks & Bass [4CD Box Set] (1999)
EAC Rip | FLAC (tracks+.cue+log) – 1,41 GB | MP3 CBR 320 kbps (LAME 3.93) – 584 MB | Covers – 63 MB
Genre: Trip Hop, Breakbeat, Drum ‘n’ Bass | RAR 3% Rec. | Label: Jumpin’ & Pumpin’ (CDB TOT 14)

40 Break Beat, Drum’n’Bass & Trip Hop Burners. Compiled by Jake Stephenson.

CD 1 Tracklist:
01. Elementz of Noize – Cyberflange
02. Audio State – Lifeforms
03. Mission Control – March Ahead
04. Mind Science – Logic
05. Total Science – Step Back
06. Cybernet – Code 101
07. Funky Technicians – Synthisis
08. Control – Basis
09. Q Project – Surface
10. Click n Cycle – The Chamber

Total time: 01:08:18

CD 2 Tracklist:
01. Eugenix – Three Days
02. Kid Cool – Easy Side Up
03. Zed – Fresh
04. Fracture Ward – The Story
05. Psychosomatica – The Lost Cord
06. Bliss n Tumble – Hijack
07. Justin Time – Lose Control 2000
08. Upshot – Magic Spirits
09. Someone Else – The Mood
10. Total Science – Radius

Total time: 01:04:35

CD 3 Tracklist:
01. Fire & Theft – Further Philosophy
02. Cool Blu – Isms & Schisms
03. The Scammers – 2 Week Ordeal
04. Q Project & Spinback – Static
05. Orange Krush – Trigger Happy
06. Tonic & NG – San Siro
07. Careful Grey – Still Is the Land
08. Careful Grey – Justice (Just-Us)
09. Careful Grey – Subliminal Message
10. Fletcher – Too Late

Total time: 59:34

CD 4 Tracklist:
01. Citadel of Kaos – Acid Love & Porn
02. Triple J – Follow the Sun (Theft Mix)
03. The Scammers – Getting High
04. Hacker – I’m Ready
05. Hacker – Smoothie
06. Funky Technicians – Force Funk
07. Total Science – Groundzero
08. Control – Basement
09. Funky Technicians – King Kurt
10. Fire & Theft – Re-Stalk

Total time: 55:54

CD 1 EAC log
Exact Audio Copy V1.0 beta 4 from 7. December 2014

EAC extraction logfile from 23. February 2015, 20:52

Various Artists / A Bumper Box of Beats, Breaks & Bass (Disc 1of4)

Used drive : ATAPI iHAS120 X Adapter: 1 ID: 0

Read mode : Secure
Utilize accurate stream : Yes
Defeat audio cache : Yes
Make use of C2 pointers : No

Read offset correction : 48
Overread into Lead-In and Lead-Out : No
Fill up missing offset samples with silence : Yes
Delete leading and trailing silent blocks : No
Null samples used in CRC calculations : Yes
Used interface : Native Win32 interface for Win NT & 2000
Gap handling : Appended to previous track

Used output format : User Defined Encoder
Selected bitrate : 128 kBit/s
Quality : High
Add ID3 tag : No
Command line compressor : C:Program Files (x86)Exact Audio CopyFlacflac.exe
Additional command line options : -8 -V -T "ARTIST=%artist%" -T "TITLE=%title%" -T "ALBUM=%albumtitle%" -T "DATE=%year%" -T "TRACKNUMBER=%tracknr%" -T "TOTALTRACKS=%numtracks%" -T "GENRE=%genre%" -T "ALBUMARTIST=%albumartist%" -T "ALBUM ARTIST=%albumartist%" -T "COMMENT=EAC Secure Mode, Test & Copy, AccurateRip, FLAC -8" %source%

TOC of the extracted CD

Track | Start | Length | Start sector | End sector
––––––––––––––––––––––––––––-
1 | 0:00.00 | 6:03.72 | 0 | 27296
2 | 6:03.72 | 6:00.20 | 27297 | 54316
3 | 12:04.17 | 7:07.40 | 54317 | 86381
4 | 19:11.57 | 7:38.70 | 86382 | 120801
5 | 26:50.52 | 6:24.50 | 120802 | 149651
6 | 33:15.27 | 8:25.35 | 149652 | 187561
7 | 41:40.62 | 7:00.68 | 187562 | 219129
8 | 48:41.55 | 6:57.62 | 219130 | 250466
9 | 55:39.42 | 6:30.20 | 250467 | 279736
10 | 62:09.62 | 6:08.50 | 279737 | 307386

Track 1

Filename D:A Bumper Box of Beats, Breaks & Bass (Disc 1of4)1 – Elementz of Noize – Cyberflange.wav

Pre-gap length 0:00:02.00

Peak level 100.0 %
Extraction speed 2.7 X
Track quality 100.0 %
Test CRC C25BDEE4
Copy CRC C25BDEE4
Accurately ripped (confidence 1) [81CFB4FA] (AR v1)
Copy OK

Track 2

Filename D:A Bumper Box of Beats, Breaks & Bass (Disc 1of4)2 – Audio State – Lifeforms.wav

Pre-gap length 0:00:02.57

Peak level 99.6 %
Extraction speed 3.1 X
Track quality 100.0 %
Test CRC 17A11118
Copy CRC 17A11118
Accurately ripped (confidence 1) [A6B91035] (AR v1)
Copy OK

Track 3

Filename D:A Bumper Box of Beats, Breaks & Bass (Disc 1of4)3 – Mission Control – March Ahead.wav

Pre-gap length 0:00:02.57

Peak level 99.8 %
Extraction speed 3.5 X
Track quality 100.0 %
Test CRC 9B1A1A67
Copy CRC 9B1A1A67
Accurately ripped (confidence 1) [FE60DEB4] (AR v1)
Copy OK

Track 4

Filename D:A Bumper Box of Beats, Breaks & Bass (Disc 1of4)4 – Mind Science – Logic.wav

Pre-gap length 0:00:02.57

Peak level 96.4 %
Extraction speed 3.9 X
Track quality 100.0 %
Test CRC 98B4687C
Copy CRC 98B4687C
Accurately ripped (confidence 1) [55D8381A] (AR v1)
Copy OK

Track 5

Filename D:A Bumper Box of Beats, Breaks & Bass (Disc 1of4)5 – Total Science – Step Back.wav

Pre-gap length 0:00:02.57

Peak level 92.9 %
Extraction speed 4.2 X
Track quality 100.0 %
Test CRC A363DE87
Copy CRC A363DE87
Accurately ripped (confidence 1) [428E40EE] (AR v1)
Copy OK

Track 6

Filename D:A Bumper Box of Beats, Breaks & Bass (Disc 1of4)6 – Cybernet – Code 101.wav

Pre-gap length 0:00:02.57

Peak level 100.0 %
Extraction speed 4.5 X
Track quality 100.0 %
Test CRC B4038E1E
Copy CRC B4038E1E
Accurately ripped (confidence 1) [10EE838F] (AR v1)
Copy OK

Track 7

Filename D:A Bumper Box of Beats, Breaks & Bass (Disc 1of4)7 – Funky Technicians – Synthisis.wav

Pre-gap length 0:00:02.57

Peak level 96.6 %
Extraction speed 4.8 X
Track quality 100.0 %
Test CRC 19A00EA3
Copy CRC 19A00EA3
Accurately ripped (confidence 1) [A2A1DBFF] (AR v1)
Copy OK

Track 8

Filename D:A Bumper Box of Beats, Breaks & Bass (Disc 1of4)8 – Control – Basis.wav

Pre-gap length 0:00:02.58

Peak level 93.9 %
Extraction speed 5.0 X
Track quality 100.0 %
Test CRC 01C2CAAF
Copy CRC 01C2CAAF
Accurately ripped (confidence 1) [FB087EAC] (AR v1)
Copy OK

Track 9

Filename D:A Bumper Box of Beats, Breaks & Bass (Disc 1of4)9 – Q Project – Surface.wav

Pre-gap length 0:00:02.57

Peak level 98.4 %
Extraction speed 5.3 X
Track quality 100.0 %
Test CRC C0EA60F7
Copy CRC C0EA60F7
Accurately ripped (confidence 1) [0B3D9B10] (AR v1)
Copy OK

Track 10

Filename D:A Bumper Box of Beats, Breaks & Bass (Disc 1of4)10 – Click n Cycle – The Chamber.wav

Pre-gap length 0:00:02.57

Peak level 93.0 %
Extraction speed 5.5 X
Track quality 100.0 %
Test CRC 31875B23
Copy CRC 31875B23
Accurately ripped (confidence 1) [93D04768] (AR v1)
Copy OK

All tracks accurately ripped

No errors occurred

End of status report

–– CUETools DB Plugin V2.1.4

[CTDB TOCID: TVaL2Ns3USIxYhlxHV4TLIrggEc-] disk not present in database
Submit result: TVaL2Ns3USIxYhlxHV4TLIrggEc- has been uploaded

==== Log checksum B76610C80B4D434587F3D571B7F64C21913EF0C973B04A9686C274010D213413 ====

CD 1 CUETools log
[CUETools log; Date: 20.12.2016 17:01:42; Version: 2.1.4]
[CTDB TOCID: TVaL2Ns3USIxYhlxHV4TLIrggEc-] found.
Track | CTDB Status
1 | (2/2) Accurately ripped
2 | (2/2) Accurately ripped
3 | (2/2) Accurately ripped
4 | (2/2) Accurately ripped
5 | (2/2) Accurately ripped
6 | (2/2) Accurately ripped
7 | (2/2) Accurately ripped
8 | (2/2) Accurately ripped
9 | (2/2) Accurately ripped
10 | (2/2) Accurately ripped
[AccurateRip ID: 0019ad2d-00cef798-7f10020a] found.
Track [ CRC | V2 ] Status
01 [81cfb4fa|8d730d1a] (1+0/1) Accurately ripped
02 [a6b91035|5b5affe8] (1+0/1) Accurately ripped
03 [fe60deb4|89dee12d] (1+0/1) Accurately ripped
04 [55d8381a|d06e8efa] (1+0/1) Accurately ripped
05 [428e40ee|2f0950ea] (1+0/1) Accurately ripped
06 [10ee838f|2f3dd789] (1+0/1) Accurately ripped
07 [a2a1dbff|930a6d51] (1+0/1) Accurately ripped
08 [fb087eac|2cfbbb63] (1+0/1) Accurately ripped
09 [0b3d9b10|79cb5c8d] (1+0/1) Accurately ripped
10 [93d04768|8ca3aba8] (1+0/1) Accurately ripped

Track Peak [ CRC32 ] [W/O NULL] [ LOG ]
– 100,0 [B649941A] [6022B965]
01 100,0 [C25BDEE4] [AAB6BB21] CRC32
02 99,6 [17A11118] [6C092F55] CRC32
03 99,8 [9B1A1A67] [8596D0D6] CRC32
04 96,4 [98B4687C] [D6C21A02] CRC32
05 92,9 [A363DE87] [CBC53BB5] CRC32
06 100,0 [B4038E1E] [ACBBEC72] CRC32
07 96,6 [19A00EA3] [95AD575C] CRC32
08 93,9 [01C2CAAF] [F0DF46B7] CRC32
09 98,4 [C0EA60F7] [7FAF97A7] CRC32
10 93,0 [31875B23] [86507516] CRC32

CD 2 EAC log
Exact Audio Copy V1.0 beta 4 from 7. December 2014

EAC extraction logfile from 23. February 2015, 21:46

Various Artists / A Bumper Box of Beats, Breaks & Bass (Disc 2of4)

Used drive : ATAPI iHAS120 X Adapter: 1 ID: 0

Read mode : Secure
Utilize accurate stream : Yes
Defeat audio cache : Yes
Make use of C2 pointers : No

Read offset correction : 48
Overread into Lead-In and Lead-Out : No
Fill up missing offset samples with silence : Yes
Delete leading and trailing silent blocks : No
Null samples used in CRC calculations : Yes
Used interface : Native Win32 interface for Win NT & 2000
Gap handling : Appended to previous track

Used output format : User Defined Encoder
Selected bitrate : 128 kBit/s
Quality : High
Add ID3 tag : No
Command line compressor : C:Program Files (x86)Exact Audio CopyFlacflac.exe
Additional command line options : -8 -V -T "ARTIST=%artist%" -T "TITLE=%title%" -T "ALBUM=%albumtitle%" -T "DATE=%year%" -T "TRACKNUMBER=%tracknr%" -T "TOTALTRACKS=%numtracks%" -T "GENRE=%genre%" -T "ALBUMARTIST=%albumartist%" -T "ALBUM ARTIST=%albumartist%" -T "COMMENT=EAC Secure Mode, Test & Copy, AccurateRip, FLAC -8" %source%

TOC of the extracted CD

Track | Start | Length | Start sector | End sector
––––––––––––––––––––––––––––-
1 | 0:00.00 | 7:33.35 | 0 | 34009
2 | 7:33.35 | 6:31.65 | 34010 | 63399
3 | 14:05.25 | 6:33.50 | 63400 | 92924
4 | 20:39.00 | 5:12.20 | 92925 | 116344
5 | 25:51.20 | 7:21.47 | 116345 | 149466
6 | 33:12.67 | 5:28.55 | 149467 | 174121
7 | 38:41.47 | 6:34.35 | 174122 | 203706
8 | 45:16.07 | 6:38.40 | 203707 | 233596
9 | 51:54.47 | 6:17.55 | 233597 | 261926
10 | 58:12.27 | 6:23.38 | 261927 | 290689

Track 1

Filename D:A Bumper Box of Beats, Breaks & Bass (Disc 2of4)1 – Eugenix – Three Days.wav

Pre-gap length 0:00:02.00

Peak level 93.8 %
Extraction speed 2.7 X
Track quality 99.9 %
Test CRC 749FEB0A
Copy CRC 749FEB0A
Accurately ripped (confidence 1) [67998A27] (AR v1)
Copy OK

Track 2

Filename D:A Bumper Box of Beats, Breaks & Bass (Disc 2of4)2 – Kid Cool – Easy Side Up.wav

Pre-gap length 0:00:02.58

Peak level 100.0 %
Extraction speed 3.3 X
Track quality 100.0 %
Test CRC 4E8259BF
Copy CRC 4E8259BF
Accurately ripped (confidence 1) [AA2B41E6] (AR v1)
Copy OK

Track 3

Filename D:A Bumper Box of Beats, Breaks & Bass (Disc 2of4)3 – Zed – Fresh.wav

Pre-gap length 0:00:02.60

Peak level 99.7 %
Extraction speed 3.6 X
Track quality 100.0 %
Test CRC D0B99338
Copy CRC D0B99338
Accurately ripped (confidence 1) [0B1B69F0] (AR v1)
Copy OK

Track 4

Filename D:A Bumper Box of Beats, Breaks & Bass (Disc 2of4)4 – Fracture Ward – The Story.wav

Pre-gap length 0:00:02.58

Peak level 91.8 %
Extraction speed 3.8 X
Track quality 100.0 %
Test CRC B152BF7E
Copy CRC B152BF7E
Accurately ripped (confidence 1) [3D06997A] (AR v1)
Copy OK

Track 5

Filename D:A Bumper Box of Beats, Breaks & Bass (Disc 2of4)5 – Psychosomatica – The Lost Cord.wav

Pre-gap length 0:00:02.58

Peak level 93.7 %
Extraction speed 4.3 X
Track quality 100.0 %
Test CRC 8468827C
Copy CRC 8468827C
Accurately ripped (confidence 1) [5E93D99F] (AR v1)
Copy OK

Track 6

Filename D:A Bumper Box of Beats, Breaks & Bass (Disc 2of4)6 – Bliss n Tumble – Hijack.wav

Pre-gap length 0:00:02.60

Peak level 98.6 %
Extraction speed 4.4 X
Track quality 100.0 %
Test CRC 215343BE
Copy CRC 215343BE
Accurately ripped (confidence 1) [03F12383] (AR v1)
Copy OK

Track 7

Filename D:A Bumper Box of Beats, Breaks & Bass (Disc 2of4)7 – Justin Time – Lose Control 2000.wav

Pre-gap length 0:00:02.57

Peak level 93.4 %
Extraction speed 4.8 X
Track quality 100.0 %
Test CRC 64F5F6D3
Copy CRC 64F5F6D3
Accurately ripped (confidence 1) [428F5D56] (AR v1)
Copy OK

Track 8

Filename D:A Bumper Box of Beats, Breaks & Bass (Disc 2of4)8 – Upshot – Magic Spirits.wav

Pre-gap length 0:00:02.60

Peak level 96.7 %
Extraction speed 5.0 X
Track quality 100.0 %
Test CRC 38B0BBA3
Copy CRC 38B0BBA3
Accurately ripped (confidence 1) [D311B9CF] (AR v1)
Copy OK

Track 9

Filename D:A Bumper Box of Beats, Breaks & Bass (Disc 2of4)9 – Someone Else – The Mood.wav

Pre-gap length 0:00:02.57

Peak level 91.1 %
Extraction speed 5.2 X
Track quality 100.0 %
Test CRC 1EA1B6DF
Copy CRC 1EA1B6DF
Accurately ripped (confidence 1) [0699CD6B] (AR v1)
Copy OK

Track 10

Filename D:A Bumper Box of Beats, Breaks & Bass (Disc 2of4)10 – Total Science – Radius.wav

Pre-gap length 0:00:02.57

Peak level 100.0 %
Extraction speed 5.4 X
Track quality 100.0 %
Test CRC 6C647FB3
Copy CRC 6C647FB3
Accurately ripped (confidence 1) [3B0B42ED] (AR v1)
Copy OK

All tracks accurately ripped

No errors occurred

End of status report

–– CUETools DB Plugin V2.1.4

[CTDB TOCID: EaqUGyc3m7pr1cgLK8DwKg9VJGU-] disk not present in database
Submit result: EaqUGyc3m7pr1cgLK8DwKg9VJGU- has been uploaded

==== Log checksum F7859329DCA3D61778A8D3E11AFB233C988618F35A723CD0575A8F10D72C7FD5 ====

CD 2 CUETools log
[CUETools log; Date: 20.12.2016 17:02:17; Version: 2.1.4]
[CTDB TOCID: EaqUGyc3m7pr1cgLK8DwKg9VJGU-] found.
Track | CTDB Status
1 | (2/2) Accurately ripped
2 | (2/2) Accurately ripped
3 | (2/2) Accurately ripped
4 | (2/2) Accurately ripped
5 | (2/2) Accurately ripped
6 | (2/2) Accurately ripped
7 | (2/2) Accurately ripped
8 | (2/2) Accurately ripped
9 | (2/2) Accurately ripped
10 | (2/2) Accurately ripped
[AccurateRip ID: 0018b8de-00c4799f-8b0f230a] found.
Track [ CRC | V2 ] Status
01 [67998a27|0fd9e27f] (1+0/1) Accurately ripped
02 [aa2b41e6|e29e8652] (1+0/1) Accurately ripped
03 [0b1b69f0|05151be2] (1+0/1) Accurately ripped
04 [3d06997a|292039d2] (1+0/1) Accurately ripped
05 [5e93d99f|9db7db94] (1+0/1) Accurately ripped
06 [03f12383|c51cca75] (1+0/1) Accurately ripped
07 [428f5d56|1083cc12] (1+0/1) Accurately ripped
08 [d311b9cf|344a3a93] (1+0/1) Accurately ripped
09 [0699cd6b|33cc9d50] (1+0/1) Accurately ripped
10 [3b0b42ed|f03b0b36] (1+0/1) Accurately ripped

Track Peak [ CRC32 ] [W/O NULL] [ LOG ]
– 100,0 [18845D53] [87456282]
01 93,8 [749FEB0A] [828019D1] CRC32
02 100,0 [4E8259BF] [E3C6DF9D] CRC32
03 99,7 [D0B99338] [A32C72D9] CRC32
04 91,8 [B152BF7E] [AB7835E4] CRC32
05 93,7 [8468827C] [F0451753] CRC32
06 98,6 [215343BE] [169C2ED1] CRC32
07 93,4 [64F5F6D3] [915E29F3] CRC32
08 96,7 [38B0BBA3] [5F09F252] CRC32
09 91,1 [1EA1B6DF] [BBCFDFE5] CRC32
10 100,0 [6C647FB3] [81289FA2] CRC32

CD 3 EAC log
Exact Audio Copy V1.0 beta 4 from 7. December 2014

EAC extraction logfile from 23. February 2015, 23:24

Various Artists / A Bumper Box of Beats, Breaks & Bass (Disc 3of4)

Used drive : ATAPI iHAS120 X Adapter: 1 ID: 0

Read mode : Secure
Utilize accurate stream : Yes
Defeat audio cache : Yes
Make use of C2 pointers : No

Read offset correction : 48
Overread into Lead-In and Lead-Out : No
Fill up missing offset samples with silence : Yes
Delete leading and trailing silent blocks : No
Null samples used in CRC calculations : Yes
Used interface : Native Win32 interface for Win NT & 2000
Gap handling : Appended to previous track

Used output format : User Defined Encoder
Selected bitrate : 128 kBit/s
Quality : High
Add ID3 tag : No
Command line compressor : C:Program Files (x86)Exact Audio CopyFlacflac.exe
Additional command line options : -8 -V -T "ARTIST=%artist%" -T "TITLE=%title%" -T "ALBUM=%albumtitle%" -T "DATE=%year%" -T "TRACKNUMBER=%tracknr%" -T "TOTALTRACKS=%numtracks%" -T "GENRE=%genre%" -T "ALBUMARTIST=%albumartist%" -T "ALBUM ARTIST=%albumartist%" -T "COMMENT=EAC Secure Mode, Test & Copy, AccurateRip, FLAC -8" %source%

TOC of the extracted CD

Track | Start | Length | Start sector | End sector
––––––––––––––––––––––––––––-
1 | 0:00.00 | 5:31.07 | 0 | 24831
2 | 5:31.07 | 6:58.58 | 24832 | 56239
3 | 12:29.65 | 6:16.05 | 56240 | 84444
4 | 18:45.70 | 6:11.67 | 84445 | 112336
5 | 24:57.62 | 5:19.28 | 112337 | 136289
6 | 30:17.15 | 6:43.47 | 136290 | 166561
7 | 37:00.62 | 6:20.55 | 166562 | 195116
8 | 43:21.42 | 5:29.53 | 195117 | 219844
9 | 48:51.20 | 7:13.30 | 219845 | 252349
10 | 56:04.50 | 3:30.05 | 252350 | 268104

Track 1

Filename D:A Bumper Box of Beats, Breaks & Bass (Disc 3of4)1 – Fire & Theft – Further Philosophy.wav

Pre-gap length 0:00:02.00

Peak level 91.6 %
Extraction speed 5.0 X
Track quality 100.0 %
Test CRC 17C49799
Copy CRC 17C49799
Accurately ripped (confidence 1) [1DB5E032] (AR v1)
Copy OK

Track 2

Filename D:A Bumper Box of Beats, Breaks & Bass (Disc 3of4)2 – Cool Blu – Isms & Schisms.wav

Pre-gap length 0:00:02.60

Peak level 100.0 %
Extraction speed 5.9 X
Track quality 100.0 %
Test CRC A635C82E
Copy CRC A635C82E
Accurately ripped (confidence 1) [57BA25D7] (AR v1)
Copy OK

Track 3

Filename D:A Bumper Box of Beats, Breaks & Bass (Disc 3of4)3 – The Scammers – 2 Week Ordeal.wav

Pre-gap length 0:00:02.58

Peak level 98.7 %
Extraction speed 6.6 X
Track quality 100.0 %
Test CRC 1CCCD217
Copy CRC 1CCCD217
Accurately ripped (confidence 1) [8108DD0F] (AR v1)
Copy OK

Track 4

Filename D:A Bumper Box of Beats, Breaks & Bass (Disc 3of4)4 – Q Project & Spinback – Static.wav

Pre-gap length 0:00:02.58

Peak level 74.4 %
Extraction speed 7.1 X
Track quality 100.0 %
Test CRC 3D7BE7A7
Copy CRC 3D7BE7A7
Accurately ripped (confidence 1) [4A611017] (AR v1)
Copy OK

Track 5

Filename D:A Bumper Box of Beats, Breaks & Bass (Disc 3of4)5 – Orange Krush – Trigger Happy.wav

Pre-gap length 0:00:02.57

Peak level 93.0 %
Extraction speed 5.7 X
Track quality 99.9 %
Test CRC EB3C27CC
Copy CRC EB3C27CC
Accurately ripped (confidence 1) [A4E5704A] (AR v1)
Copy OK

Track 6

Filename D:A Bumper Box of Beats, Breaks & Bass (Disc 3of4)6 – Tonic & NG – San Siro.wav

Pre-gap length 0:00:02.58

Peak level 100.0 %
Extraction speed 8.1 X
Track quality 100.0 %
Test CRC 4645A6C4
Copy CRC 4645A6C4
Accurately ripped (confidence 1) [0941836A] (AR v1)
Copy OK

Track 7

Filename D:A Bumper Box of Beats, Breaks & Bass (Disc 3of4)7 – Careful Grey – Still Is the Land.wav

Pre-gap length 0:00:02.57

Peak level 99.7 %
Extraction speed 8.6 X
Track quality 100.0 %
Test CRC 9ED06A6C
Copy CRC 9ED06A6C
Accurately ripped (confidence 1) [EB838758] (AR v1)
Copy OK

Track 8

Filename D:A Bumper Box of Beats, Breaks & Bass (Disc 3of4)8 – Careful Grey – Justice (Just-Us).wav

Pre-gap length 0:00:02.57

Peak level 100.0 %
Extraction speed 8.8 X
Track quality 100.0 %
Test CRC F502937B
Copy CRC F502937B
Accurately ripped (confidence 1) [6B062059] (AR v1)
Copy OK

Track 9

Filename D:A Bumper Box of Beats, Breaks & Bass (Disc 3of4)9 – Careful Grey – Subliminal Message.wav

Pre-gap length 0:00:02.58

Peak level 96.6 %
Extraction speed 9.5 X
Track quality 100.0 %
Test CRC F311C1DA
Copy CRC F311C1DA
Accurately ripped (confidence 1) [386E0004] (AR v1)
Copy OK

Track 10

Filename D:A Bumper Box of Beats, Breaks & Bass (Disc 3of4)10 – Fletcher – Too Late.wav

Pre-gap length 0:00:02.58

Peak level 99.1 %
Extraction speed 9.1 X
Track quality 100.0 %
Test CRC 60B7AED0
Copy CRC 60B7AED0
Accurately ripped (confidence 1) [BE3A37D7] (AR v1)
Copy OK

All tracks accurately ripped

No errors occurred

End of status report

–– CUETools DB Plugin V2.1.4

[CTDB TOCID: X5wJboHBST0DrWnpQsR7uf6OBwQ-] disk not present in database
Submit result: X5wJboHBST0DrWnpQsR7uf6OBwQ- has been uploaded

==== Log checksum 4631FC38D1A9862447AEF4803BF1B03DA653D72806A0C5BA00065B13094253DF ====

CD 3 CUETools log
[CUETools log; Date: 20.12.2016 17:06:51; Version: 2.1.4]
[CTDB TOCID: X5wJboHBST0DrWnpQsR7uf6OBwQ-] found.
Track | CTDB Status
1 | (2/2) Accurately ripped
2 | (2/2) Accurately ripped
3 | (2/2) Accurately ripped
4 | (2/2) Accurately ripped
5 | (2/2) Accurately ripped
6 | (2/2) Accurately ripped
7 | (2/2) Accurately ripped
8 | (2/2) Accurately ripped
9 | (2/2) Accurately ripped
10 | (2/2) Accurately ripped
[AccurateRip ID: 0017225b-00b8d738-830df60a] found.
Track [ CRC | V2 ] Status
01 [1db5e032|414362da] (1+0/1) Accurately ripped
02 [57ba25d7|3842f792] (1+0/1) Accurately ripped
03 [8108dd0f|34962a9c] (1+0/1) Accurately ripped
04 [4a611017|c365d9b9] (1+0/1) Accurately ripped
05 [a4e5704a|ec9d08ed] (1+0/1) Accurately ripped
06 [0941836a|6fa6e8f9] (1+0/1) Accurately ripped
07 [eb838758|5ca69488] (1+0/1) Accurately ripped
08 [6b062059|a6cde6bf] (1+0/1) Accurately ripped
09 [386e0004|5932ed91] (1+0/1) Accurately ripped
10 [be3a37d7|7e782b79] (1+0/1) Accurately ripped

Track Peak [ CRC32 ] [W/O NULL] [ LOG ]
– 100,0 [5CC2D67F] [013641B2]
01 91,6 [17C49799] [54529C16] CRC32
02 100,0 [A635C82E] [6E063826] CRC32
03 98,7 [1CCCD217] [383FD923] CRC32
04 74,4 [3D7BE7A7] [61658986] CRC32
05 93,0 [EB3C27CC] [25EA3D96] CRC32
06 100,0 [4645A6C4] [96EF0D30] CRC32
07 99,7 [9ED06A6C] [1F2EFE82] CRC32
08 100,0 [F502937B] [9C2E1BE2] CRC32
09 96,6 [F311C1DA] [4C0550F9] CRC32
10 99,1 [60B7AED0] [C758C802] CRC32

CD 4 EAC log
Exact Audio Copy V1.0 beta 4 from 7. December 2014

EAC extraction logfile from 24. February 2015, 0:32

Various Artists / A Bumper Box of Beats, Breaks & Bass (Disc 4of4)

Used drive : ATAPI iHAS120 X Adapter: 1 ID: 0

Read mode : Secure
Utilize accurate stream : Yes
Defeat audio cache : Yes
Make use of C2 pointers : No

Read offset correction : 48
Overread into Lead-In and Lead-Out : No
Fill up missing offset samples with silence : Yes
Delete leading and trailing silent blocks : No
Null samples used in CRC calculations : Yes
Used interface : Native Win32 interface for Win NT & 2000
Gap handling : Appended to previous track

Used output format : User Defined Encoder
Selected bitrate : 128 kBit/s
Quality : High
Add ID3 tag : No
Command line compressor : C:Program Files (x86)Exact Audio CopyFlacflac.exe
Additional command line options : -8 -V -T "ARTIST=%artist%" -T "TITLE=%title%" -T "ALBUM=%albumtitle%" -T "DATE=%year%" -T "TRACKNUMBER=%tracknr%" -T "TOTALTRACKS=%numtracks%" -T "GENRE=%genre%" -T "ALBUMARTIST=%albumartist%" -T "ALBUM ARTIST=%albumartist%" -T "COMMENT=EAC Secure Mode, Test & Copy, AccurateRip, FLAC -8" %source%

TOC of the extracted CD

Track | Start | Length | Start sector | End sector
––––––––––––––––––––––––––––-
1 | 0:00.00 | 8:19.42 | 0 | 37466
2 | 8:19.42 | 5:00.25 | 37467 | 59991
3 | 13:19.67 | 5:54.73 | 59992 | 86614
4 | 19:14.65 | 5:41.72 | 86615 | 112261
5 | 24:56.62 | 6:07.45 | 112262 | 139831
6 | 31:04.32 | 6:02.68 | 139832 | 167049
7 | 37:07.25 | 3:46.55 | 167050 | 184054
8 | 40:54.05 | 5:29.02 | 184055 | 208731
9 | 46:23.07 | 3:00.48 | 208732 | 222279
10 | 49:23.55 | 6:30.37 | 222280 | 251566

Track 1

Filename D:A Bumper Box of Beats, Breaks & Bass (Disc 4of4)1 – Citadel of Kaos – Acid Love & Porn.wav

Pre-gap length 0:00:02.00

Peak level 99.6 %
Extraction speed 5.2 X
Track quality 100.0 %
Test CRC 9B922DFA
Copy CRC 9B922DFA
Accurately ripped (confidence 1) [5DDB4C04] (AR v1)
Copy OK

Track 2

Filename D:A Bumper Box of Beats, Breaks & Bass (Disc 4of4)2 – Triple J – Follow the Sun (Theft Mix).wav

Pre-gap length 0:00:02.57

Peak level 100.0 %
Extraction speed 5.7 X
Track quality 100.0 %
Test CRC 92DE1511
Copy CRC 92DE1511
Accurately ripped (confidence 1) [7BF6718F] (AR v1)
Copy OK

Track 3

Filename D:A Bumper Box of Beats, Breaks & Bass (Disc 4of4)3 – The Scammers – Getting High.wav

Pre-gap length 0:00:02.57

Peak level 93.9 %
Extraction speed 6.4 X
Track quality 100.0 %
Test CRC 316FF0A4
Copy CRC 316FF0A4
Accurately ripped (confidence 1) [06A89320] (AR v1)
Copy OK

Track 4

Filename D:A Bumper Box of Beats, Breaks & Bass (Disc 4of4)4 – Hacker – I’m Ready.wav

Pre-gap length 0:00:02.58

Peak level 100.0 %
Extraction speed 5.2 X
Track quality 99.9 %
Test CRC 10A9F913
Copy CRC 10A9F913
Accurately ripped (confidence 1) [293EE3B2] (AR v1)
Copy OK

Track 5

Filename D:A Bumper Box of Beats, Breaks & Bass (Disc 4of4)5 – Hacker – Smoothie.wav

Pre-gap length 0:00:02.57

Peak level 100.0 %
Extraction speed 7.4 X
Track quality 100.0 %
Test CRC 87CC530D
Copy CRC 87CC530D
Accurately ripped (confidence 1) [8A0D1F07] (AR v1)
Copy OK

Track 6

Filename D:A Bumper Box of Beats, Breaks & Bass (Disc 4of4)6 – Funky Technicians – Force Funk.wav

Pre-gap length 0:00:02.57

Peak level 73.8 %
Extraction speed 7.8 X
Track quality 100.0 %
Test CRC 5BCCCCAC
Copy CRC 5BCCCCAC
Accurately ripped (confidence 1) [0230621E] (AR v1)
Copy OK

Track 7

Filename D:A Bumper Box of Beats, Breaks & Bass (Disc 4of4)7 – Total Science – Groundzero.wav

Pre-gap length 0:00:02.58

Peak level 100.0 %
Extraction speed 5.3 X
Track quality 99.9 %
Test CRC AC72C6B9
Copy CRC AC72C6B9
Accurately ripped (confidence 1) [F79392D8] (AR v1)
Copy OK

Track 8

Filename D:A Bumper Box of Beats, Breaks & Bass (Disc 4of4)8 – Control – Basement.wav

Pre-gap length 0:00:02.58

Peak level 96.2 %
Extraction speed 6.3 X
Track quality 99.9 %
Test CRC 731182AB
Copy CRC 731182AB
Accurately ripped (confidence 1) [77473799] (AR v1)
Copy OK

Track 9

Filename D:A Bumper Box of Beats, Breaks & Bass (Disc 4of4)9 – Funky Technicians – King Kurt.wav

Pre-gap length 0:00:02.60

Peak level 98.9 %
Extraction speed 8.0 X
Track quality 100.0 %
Test CRC 37808E72
Copy CRC 37808E72
Accurately ripped (confidence 1) [C3F4F280] (AR v1)
Copy OK

Track 10

Filename D:A Bumper Box of Beats, Breaks & Bass (Disc 4of4)10 – Fire & Theft – Re-Stalk.wav

Pre-gap length 0:00:02.58

Peak level 99.9 %
Extraction speed 9.1 X
Track quality 100.0 %
Test CRC 54FBE76C
Copy CRC 54FBE76C
Accurately ripped (confidence 1) [A4DF07CE] (AR v1)
Copy OK

All tracks accurately ripped

No errors occurred

End of status report

–– CUETools DB Plugin V2.1.4

[CTDB TOCID: ZNdqKrZ2627wfzMCL9V6F_y1o3I-] disk not present in database
Submit result: ZNdqKrZ2627wfzMCL9V6F_y1o3I- has been uploaded

==== Log checksum 02643A00CCA9818CEFF0BEE92ED722A41FCEDAC93C708C588840F5846D539AAC ====

CD 4 CUETools log
[CUETools log; Date: 20.12.2016 17:07:54; Version: 2.1.4]
[CTDB TOCID: ZNdqKrZ2627wfzMCL9V6F_y1o3I-] found.
Track | CTDB Status
1 | (2/2) Accurately ripped
2 | (2/2) Accurately ripped
3 | (2/2) Accurately ripped
4 | (2/2) Accurately ripped
5 | (2/2) Accurately ripped
6 | (2/2) Accurately ripped
7 | (2/2) Accurately ripped
8 | (2/2) Accurately ripped
9 | (2/2) Accurately ripped
10 | (2/2) Accurately ripped
[AccurateRip ID: 00166d9c-00afa918-950d1a0a] found.
Track [ CRC | V2 ] Status
01 [5ddb4c04|5245d72a] (1+0/1) Accurately ripped
02 [7bf6718f|efeccf39] (1+0/1) Accurately ripped
03 [06a89320|064e3fa2] (1+0/1) Accurately ripped
04 [293ee3b2|d2cd1c11] (1+0/1) Accurately ripped
05 [8a0d1f07|11a05a0e] (1+0/1) Accurately ripped
06 [0230621e|989b948d] (1+0/1) Accurately ripped
07 [f79392d8|d042b083] (1+0/1) Accurately ripped
08 [77473799|73d7c10e] (1+0/1) Accurately ripped
09 [c3f4f280|f4f5fc8c] (1+0/1) Accurately ripped
10 [a4df07ce|c551f6c1] (1+0/1) Accurately ripped

Track Peak [ CRC32 ] [W/O NULL] [ LOG ]
– 100,0 [8FE447B2] [20574627]
01 99,6 [9B922DFA] [C4E1DDD7] CRC32
02 100,0 [92DE1511] [83FDDF1B] CRC32
03 93,9 [316FF0A4] [1529C5D8] CRC32
04 100,0 [10A9F913] [61C85443] CRC32
05 100,0 [87CC530D] [5C5D8E94] CRC32
06 73,8 [5BCCCCAC] [A443CBA5] CRC32
07 100,0 [AC72C6B9] [9B368797] CRC32
08 96,2 [731182AB] [C765C06D] CRC32
09 98,8 [37808E72] [03C46E30] CRC32
10 99,9 [54FBE76C] [54D70118] CRC32

Thanks to kirjakach

See also:
V.A. – London Beats – The Very Best Of Jumpin’ & Pumpin’ [4CD Box Set] (1997)
V.A. – The Dawn of a New Age [4CD Box Set] (1999)
V.A. – Chill Out Trance [4CD Box Set] (1999)
V.A. – Chill Out Trance Vol. 2 [4CD Box Set] (1999)

Welcome to My Blog!

V.A. – A Bumper Box of Beats, Breaks & Bass [4CD Box Set] (1999) Download, Warez, DDL, Free, Full Album, Torrent, Legal.

Download