Ustad Vilayat Khan – Different Strokes (2002) **[RE-UP]**

Download
Ustad Vilayat Khan - Different Strokes (2002) **[RE-UP]**

Ustad Vilayat Khan – Different Strokes (2002)
DVD Rip | AVI: OpenDML | 720 x 480 (2493 kbps) | Audio: MP3 @ 320kbps | Language: Bengali | Size: 1.33 gb | Length: 68 min
Size: 1.33 gb | Length: 68 min
Genre: Indian classical, concert, live performance | Label: Navras

Different Strokes is a 2002 DVD of a live perofmance by Indian sitarist Ustad Vilayat Khan. It was recorded at Royal Festival Hall in London, United Kingdom on November 1993 and released two years before he died. It consists of one song/raga, "Raga Hameer". Joining him in this performance are Sabir Khan on tabla and Hidayat Khan on tanpura. Shujaat Khan, another of his sons, sits on stage with him but does not perform during "Raga Hameer".

Ustad Vilayat Khan - Different Strokes (2002) **[RE-UP]**
MediaInfo
General
Complete name : E:FLACAAA 2017VidsUstad Vilayat Khan – Different StrokesUstad Vilayat Khan – Different Strokes.avi
Format : AVI
Format/Info : Audio Video Interleave
Format profile : OpenDML
File size : 1.35 GiB
Duration : 1h 8mn
Overall bit rate : 2 829 Kbps
Writing library : MPlayer

Video
ID : 0
Format : MPEG-4 Visual
Format profile : Simple@L1
Format settings, BVOP : No
Format settings, QPel : No
Format settings, GMC : No warppoints
Format settings, Matrix : Default (H.263)
Codec ID : DX50
Codec ID/Hint : DivX 5
Duration : 1h 8mn
Bit rate : 2 493 Kbps
Width : 720 pixels
Height : 480 pixels
Display aspect ratio : 3:2
Frame rate : 29.970 fps
Standard : NTSC
Color space : YUV
Chroma subsampling : 4:2:0
Bit depth : 8 bits
Scan type : Progressive
Compression mode : Lossy
Bits/(Pixel*Frame) : 0.241
Stream size : 1.19 GiB (88%)
Writing library : Lavc51.40.4

Audio
ID : 1
Format : MPEG Audio
Format version : Version 1
Format profile : Layer 3
Mode : Joint stereo
Mode extension : MS Stereo
Codec ID : 55
Codec ID/Hint : MP3
Duration : 1h 8mn
Bit rate mode : Constant
Bit rate : 320 Kbps
Channel(s) : 2 channels
Sampling rate : 48.0 KHz
Compression mode : Lossy
Stream size : 156 MiB (11%)
Alignment : Aligned on interleaves
Interleave, duration : 24 ms (0.72 video frame)
Interleave, preload duration : 504 ms

Ustad Vilayat Khan - Different Strokes (2002) **[RE-UP]**

Ustad Vilayat Khan – Different Strokes (2002) **[RE-UP]** Download, Warez, DDL, Free, Full Album, Torrent, Legal.

Download