Uri Caine – The Goldberg Variations (2000) {2CD Winter & Winter 910 054-2 rec 1999-2000}

Download
Uri Caine - The Goldberg Variations (2000) {2CD Winter & Winter 910 054-2 rec 1999-2000}

Uri Caine – The Goldberg Variations (2000) {2CD Winter & Winter 910 054-2 rec 1999-2000}
EAC rip (secure mode) | FLAC (tracks)+CUE+LOG -> 768 Mb | MP3 @320 -> 362 Mb
Full Artwork @ 300 dpi (jpg) -> 48 Mb | 5% repair rar
© 2000 Winter & Winter | 910 054-2
Jazz / Classical / Modern Creative / Avant-Garde Jazz / Baroque / Post Modern / Turntables / Electronic

In the 21st century, it’s easy to take technology for granted and forget that in the time of Johann Sebastian Bach (b. 1685, d. 1750), there were no cars, busses, airplanes, TVs, radios, movies, tape recorders, electric lights, or computers. People used candles to light their homes, and horses were the fastest way to get around. There were excellent plays and opinionated theater critics to review them, but no cameras to film the actors and actresses. Recording technology had yet to be invented, so the only way to hear classical musicians was to hear them performing live. Although the classical artists of Bach’s time could not be recorded, they left behind their compositions, and today’s classical musicians continue to keep them alive.

Uri Caine - The Goldberg Variations (2000) {2CD Winter & Winter 910 054-2 rec 1999-2000}

There is most certainly a need for classical traditionalists, who give us the opportunity to hear exactly what Bach wrote. But there is also a place for risk-takers who interpret Bach’s pieces instead of playing them note for note. Uri Caine is such a risk-taker, and this two-CD set finds the Philadelphia-born pianist taking more than his share of liberties with Bach’s "Goldberg Variations." Hardly a classical purist, Caine combines Bach’s music with a variety of jazz styles (everything from hard bop to Dixieland to bossa nova) as well as gospel, ragtime, salsa, tango, and traditional Jewish music. Occasionally, this double-CD comes across as iconoclasm for the sake of iconoclasm; things become forced and unnatural when Caine employs DJs and unsuccessfully tries to convince us that hip-hop, electronica, and rave music can be relevant to Bach. But most of the time, his experimentation pays off handsomely. Goldberg Variations isn’t for everyone; classical purists, in fact, will want to avoid it. But those who have very eclectic tastes in music will find that this 1999/2000 project, although not perfect, is highly imaginative and even fascinating.

Uri Caine - The Goldberg Variations (2000) {2CD Winter & Winter 910 054-2 rec 1999-2000}

AAJ INFO

Personnel:

Uri Caine – piano, harpsichord, organ, Silbermann fortepiano
Vittorio Ghielmi, Arno Jochem – viola da gamba
Paul Plunkett – baroque trumpet
Annegret Siedel, Gregor Hübner, Todd Reynolds – violin
David Moss, Dean Bowman, Barbara Walker, Marco Bermudez, Vinicius Cantuária – vocals
DJ Logic, DJ Olive – turntables, electronics
Ralph Alessi – trumpet
Don Byron – clarinet
Ralph Peterson, Jr. – drums
Josh Roseman – trombone
Bob Stewart – tuba
Michael Freimuth – lute
Greg Osby – alto saxophone
Reggie Washington – electric bass
James Genus, Reid Anderson, Drew Gress – bass
Cordula Breuer – alto recorder
Milton Cardona – percussion
Sadiq Bey, Tracie Morris – poetry
Paulo Braga – drums
Jörg Reiter – accordion
Liz Alessi – bassoon
Ernst Reijseger – cello
Danny Blume, Chris Kelly, Zach Danziger, Tim Lefebvre – electronics

Quartetto Italiano di Viole da Gamba:

Vittorio Ghielmi – viola basso
Rodney Prada – viola tenore
Paolo Biordi – viola soprano
Cristiano Contadin – viola basso

Köln String Quartet:

Annegret Siedel, Mary Utiger – violin
Jane Oldham – viola
Arno Jochem – cello

Kettwiger Bach Ensemble conducted by Wolfgang Kläsener

Beate Gebauer, Franziska Jahr, Hildegard Singer, Petra Schnabel – soprano
Anne-Katherine Schlegel, Patricia Just, Ulli Neumann – alto
Hans-Joachim Kuhs, Kim Nguyen, Richard Martin-Markowski – tenor
Guido Diesing, Lothar Düsterhus, Oliver Kopetzki – bass

tracklist:
Disc 1

01 Aria 01:48
02 Variation 1 01:03
03 Variation 2 00:52
04 The Introitus Variation 03:41
05 The Dig It Variation 02:21
06 Logic’s Invention 00:38
07 The Stuttering Variation 02:30
08 Variation 3, Canon At The Unison 01:12
09 The Hot Six Variation 02:43
10 Variation 5 [+ 8] 01:26
11 Rachmaninoff 01:52
12 The Dr. Jekyll & Mr. Hyde Variation 03:58
13 Vivaldi 00:51
14 Variation For Saxophone & Piano 02:48
15 Variation 4 01:07
16 The Waltz Variation 01:02
17 The Carol Variation 02:35
18 Variation 6, Canon At The 2nd 00:42
19 The Stomp Variation 02:26
20 The Nobody Knows Variation 03:51
21 Canon At The 3rd In 3/4 02:38
22 Variation 7, Gigue 01:20
23 Variation 9, Canon At The 3rd 01:42
24 Variation 10, Fughetta 01:35
25 Variation 11 01:57
26 Variation For Violin & Piano 02:12
27 Variation 12, Canon At The 4th 01:20
28 Variation 13 02:25
29 The Hallelujah Variation 01:46
30 The Verdi Piano Duet Variation 01:29
31 Luther’s Nightmare Variation 02:18
32 Canon At The 6th In 6/4 01:44
33 The Jaybird Lounge Variation 02:33
34 Variation 14 00:44
35 Variation 15, Canon At The 5th 02:06
36 The Contrapunto Variation 04:26
37 Variation For Piano Solo No 1 00:56
38 Canon At The 5th In 5/4 02:35
39 The Chorale Variation 01:13

Uri Caine - The Goldberg Variations (2000) {2CD Winter & Winter 910 054-2 rec 1999-2000}

Disc 2
01 Variation 16 [Overture] 01:47
02 Don’s Variation 02:32
03 Variation For Vinicius 04:57
04 Olive’s Remix 00:40
05 The "I Poem" Variation 02:43
06 Variation 17 00:59
07 Variation 18, Canon At The 6th 01:48
08 Mozart 01:28
09 Canon At The 7th In 7/4 01:40
10 The Minimal Variation 03:28
11 The Tango Variation 01:50
12 The Boxy Variation 05:05
13 Variation 19 02:11
14 Variation 21, Canon At The 7th 01:22
15 The Wedding March Variation 01:52
16 Variation 22 01:41
17 Variation For Gamba Quartet 01:59
18 Canon At The 4th In 4/4 03:12
19 Variation For Piano Solo No. 2 03:26
20 Variation On B-A-C-H 02:30
21 Variation For Cello Solo 02:34
22 Hдndel 00:34
23 Variation 23 01:00
24 Variation 25 05:22
25 Variation 26 01:01
26 Variation 29 01:37
27 Variation 30 Quodlibet 00:50
28 The Drinking Party 01:42
29 Logic’s Organ Prelude 00:48
30 Uri’s Organ Prelude 05:15
31 The Blessings Variation 04:41
32 Aria 01:54
33 The Eternal Variation 02:44

Uri Caine - The Goldberg Variations (2000) {2CD Winter & Winter 910 054-2 rec 1999-2000}
EAC log CD1
Exact Audio Copy V1.1 from 23. June 2015

EAC extraction logfile from 7. April 2017, 8:10

Uri Caine / The Goldberg Variations

Used drive : MATSHITADVD+-RW SW830 Adapter: 1 ID: 0

Read mode : Secure
Utilize accurate stream : Yes
Defeat audio cache : Yes
Make use of C2 pointers : No

Read offset correction : 6
Overread into Lead-In and Lead-Out : No
Fill up missing offset samples with silence : Yes
Delete leading and trailing silent blocks : No
Null samples used in CRC calculations : Yes
Used interface : Native Win32 interface for Win NT & 2000
Gap handling : Appended to previous track

Used output format : User Defined Encoder
Selected bitrate : 128 kBit/s
Quality : High
Add ID3 tag : No
Command line compressor : C:Program Files (x86)Exact Audio CopyFlacflac.exe
Additional command line options : -8 -V -T "ARTIST=%artist%" -T "TITLE=%title%" -T "ALBUM=%albumtitle%" -T "DATE=%year%" -T "TRACKNUMBER=%tracknr%" -T "TOTALTRACKS=%numtracks%" -T "GENRE=%genre%" -T "ALBUMARTIST=%albumartist%" -T "ALBUM ARTIST=%albumartist%" -T "COMMENT=EAC Secure Mode, Test & Copy, AccurateRip, FLAC -8" %source%

TOC of the extracted CD

Track | Start | Length | Start sector | End sector
––––––––––––––––––––––––––––-
1 | 0:00.00 | 1:48.17 | 0 | 8116
2 | 1:48.17 | 1:03.03 | 8117 | 12844
3 | 2:51.20 | 0:51.65 | 12845 | 16734
4 | 3:43.10 | 3:40.57 | 16735 | 33291
5 | 7:23.67 | 2:20.50 | 33292 | 43841
6 | 9:44.42 | 0:38.35 | 43842 | 46726
7 | 10:23.02 | 2:29.68 | 46727 | 57969
8 | 12:52.70 | 1:12.05 | 57970 | 63374
9 | 14:05.00 | 2:43.27 | 63375 | 75626
10 | 16:48.27 | 1:26.20 | 75627 | 82096
11 | 18:14.47 | 1:52.13 | 82097 | 90509
12 | 20:06.60 | 3:57.67 | 90510 | 108351
13 | 24:04.52 | 0:50.63 | 108352 | 112164
14 | 24:55.40 | 2:47.70 | 112165 | 124759
15 | 27:43.35 | 1:07.27 | 124760 | 129811
16 | 28:50.62 | 1:01.38 | 129812 | 134424
17 | 29:52.25 | 2:35.02 | 134425 | 146051
18 | 32:27.27 | 0:42.18 | 146052 | 149219
19 | 33:09.45 | 2:26.27 | 149220 | 160196
20 | 35:35.72 | 3:50.60 | 160197 | 177506
21 | 39:26.57 | 2:38.03 | 177507 | 189359
22 | 42:04.60 | 1:20.35 | 189360 | 195394
23 | 43:25.20 | 1:41.40 | 195395 | 203009
24 | 45:06.60 | 1:35.27 | 203010 | 210161
25 | 46:42.12 | 1:57.10 | 210162 | 218946
26 | 48:39.22 | 2:11.50 | 218947 | 228821
27 | 50:50.72 | 1:19.50 | 228822 | 234796
28 | 52:10.47 | 2:24.62 | 234797 | 245658
29 | 54:35.34 | 1:46.28 | 245659 | 253636
30 | 56:21.62 | 1:28.73 | 253637 | 260309
31 | 57:50.60 | 2:17.52 | 260310 | 270636
32 | 60:08.37 | 1:43.55 | 270637 | 278416
33 | 61:52.17 | 2:33.25 | 278417 | 289916
34 | 64:25.42 | 0:43.48 | 289917 | 293189
35 | 65:09.15 | 2:05.45 | 293190 | 302609
36 | 67:14.60 | 4:25.42 | 302610 | 322526
37 | 71:40.27 | 0:56.20 | 322527 | 326746
38 | 72:36.47 | 2:34.55 | 326747 | 338351
39 | 75:11.27 | 1:12.55 | 338352 | 343806

Track 1

Filename G:New RipsUri Caine – The Goldberg Variations (2000) [FLAC]disc 1of21 – Aria.wav

Pre-gap length 0:00:02.00

Peak level 30.7 %
Extraction speed 2.8 X
Track quality 99.9 %
Test CRC 2AB1B416
Copy CRC 2AB1B416
Accurately ripped (confidence 33) [5734A5E8] (AR v2)
Copy OK

Track 2

Filename G:New RipsUri Caine – The Goldberg Variations (2000) [FLAC]disc 1of22 – Variation 1.wav

Peak level 65.4 %
Extraction speed 2.2 X
Track quality 99.8 %
Test CRC E5FF3147
Copy CRC E5FF3147
Accurately ripped (confidence 33) [0BE7C3A4] (AR v2)
Copy OK

Track 3

Filename G:New RipsUri Caine – The Goldberg Variations (2000) [FLAC]disc 1of23 – Variation 2.wav

Peak level 62.5 %
Extraction speed 3.3 X
Track quality 100.0 %
Test CRC 53DC8301
Copy CRC 53DC8301
Accurately ripped (confidence 33) [D5DC8089] (AR v2)
Copy OK

Track 4

Filename G:New RipsUri Caine – The Goldberg Variations (2000) [FLAC]disc 1of24 – The Introitus Variation.wav

Peak level 60.6 %
Extraction speed 4.1 X
Track quality 99.9 %
Test CRC 79CD67EC
Copy CRC 79CD67EC
Accurately ripped (confidence 33) [C9AAB964] (AR v2)
Copy OK

Track 5

Filename G:New RipsUri Caine – The Goldberg Variations (2000) [FLAC]disc 1of25 – The Dig It Variation.wav

Peak level 82.9 %
Extraction speed 4.9 X
Track quality 100.0 %
Test CRC 310EDD70
Copy CRC 310EDD70
Accurately ripped (confidence 33) [F4AAADD5] (AR v2)
Copy OK

Track 6

Filename G:New RipsUri Caine – The Goldberg Variations (2000) [FLAC]disc 1of26 – Logic’s Invention.wav

Peak level 62.3 %
Extraction speed 3.1 X
Track quality 100.0 %
Test CRC 91C0F569
Copy CRC 91C0F569
Accurately ripped (confidence 33) [BFDA5D91] (AR v2)
Copy OK

Track 7

Filename G:New RipsUri Caine – The Goldberg Variations (2000) [FLAC]disc 1of27 – The Stuttering Variation.wav

Peak level 78.8 %
Extraction speed 5.2 X
Track quality 100.0 %
Test CRC 37E75A59
Copy CRC 37E75A59
Accurately ripped (confidence 33) [F608F636] (AR v2)
Copy OK

Track 8

Filename G:New RipsUri Caine – The Goldberg Variations (2000) [FLAC]disc 1of28 – Variation 3–Canon At The Unison.wav

Peak level 75.0 %
Extraction speed 2.9 X
Track quality 99.8 %
Test CRC 78A76298
Copy CRC 78A76298
Accurately ripped (confidence 33) [49AAF771] (AR v2)
Copy OK

Track 9

Filename G:New RipsUri Caine – The Goldberg Variations (2000) [FLAC]disc 1of29 – The Hot Six Variation.wav

Peak level 92.2 %
Extraction speed 4.3 X
Track quality 99.9 %
Test CRC C2168A6C
Copy CRC C2168A6C
Accurately ripped (confidence 33) [E5B300F6] (AR v2)
Copy OK

Track 10

Filename G:New RipsUri Caine – The Goldberg Variations (2000) [FLAC]disc 1of210 – Variation 5 Plus 8.wav

Peak level 99.3 %
Extraction speed 5.0 X
Track quality 100.0 %
Test CRC 102369C8
Copy CRC 102369C8
Accurately ripped (confidence 33) [347FA699] (AR v2)
Copy OK

Track 11

Filename G:New RipsUri Caine – The Goldberg Variations (2000) [FLAC]disc 1of211 – Rachmaninoff.wav

Peak level 80.2 %
Extraction speed 5.5 X
Track quality 100.0 %
Test CRC B13F7BB0
Copy CRC B13F7BB0
Accurately ripped (confidence 33) [96117D02] (AR v2)
Copy OK

Track 12

Filename G:New RipsUri Caine – The Goldberg Variations (2000) [FLAC]disc 1of212 – The Dr Jekyll And Mr Hyde Variation.wav

Peak level 74.9 %
Extraction speed 6.6 X
Track quality 100.0 %
Test CRC 8267DBBA
Copy CRC 8267DBBA
Accurately ripped (confidence 32) [0F02F5EE] (AR v2)
Copy OK

Track 13

Filename G:New RipsUri Caine – The Goldberg Variations (2000) [FLAC]disc 1of213 – Vivaldi.wav

Peak level 84.9 %
Extraction speed 4.5 X
Track quality 100.0 %
Test CRC C9C79A25
Copy CRC C9C79A25
Accurately ripped (confidence 33) [C0A2D5FD] (AR v2)
Copy OK

Track 14

Filename G:New RipsUri Caine – The Goldberg Variations (2000) [FLAC]disc 1of214 – Variation For Saxophone And Piano.wav

Peak level 75.8 %
Extraction speed 6.5 X
Track quality 100.0 %
Test CRC BFCD9E44
Copy CRC BFCD9E44
Accurately ripped (confidence 33) [B5758A17] (AR v2)
Copy OK

Track 15

Filename G:New RipsUri Caine – The Goldberg Variations (2000) [FLAC]disc 1of215 – Variation 4.wav

Peak level 56.5 %
Extraction speed 3.3 X
Track quality 99.8 %
Test CRC ED8E1998
Copy CRC ED8E1998
Accurately ripped (confidence 33) [10340585] (AR v2)
Copy OK

Track 16

Filename G:New RipsUri Caine – The Goldberg Variations (2000) [FLAC]disc 1of216 – The Waltz Variation.wav

Peak level 91.9 %
Extraction speed 5.1 X
Track quality 100.0 %
Test CRC F4A7C113
Copy CRC F4A7C113
Accurately ripped (confidence 33) [0E1B1A58] (AR v2)
Copy OK

Track 17

Filename G:New RipsUri Caine – The Goldberg Variations (2000) [FLAC]disc 1of217 – The Carol Variation.wav

Peak level 73.9 %
Extraction speed 5.0 X
Track quality 99.9 %
Test CRC F642459F
Copy CRC F642459F
Accurately ripped (confidence 33) [E8FB8206] (AR v2)
Copy OK

Track 18

Filename G:New RipsUri Caine – The Goldberg Variations (2000) [FLAC]disc 1of218 – Variation 6–Canon At The 2nd.wav

Peak level 53.1 %
Extraction speed 4.5 X
Track quality 100.0 %
Test CRC 42E1AB78
Copy CRC 42E1AB78
Accurately ripped (confidence 33) [00BAD9EC] (AR v2)
Copy OK

Track 19

Filename G:New RipsUri Caine – The Goldberg Variations (2000) [FLAC]disc 1of219 – The Stomp Variation.wav

Peak level 95.1 %
Extraction speed 6.8 X
Track quality 100.0 %
Test CRC 0C6D0EEC
Copy CRC 0C6D0EEC
Accurately ripped (confidence 32) [7E8B3299] (AR v2)
Copy OK

Track 20

Filename G:New RipsUri Caine – The Goldberg Variations (2000) [FLAC]disc 1of220 – The Nobody Knows Variation.wav

Peak level 99.9 %
Extraction speed 7.7 X
Track quality 100.0 %
Test CRC 557760C3
Copy CRC 557760C3
Accurately ripped (confidence 32) [BC8631C9] (AR v2)
Copy OK

Track 21

Filename G:New RipsUri Caine – The Goldberg Variations (2000) [FLAC]disc 1of221 – Canon At The 3rd In 3-4.wav

Peak level 76.5 %
Extraction speed 5.5 X
Track quality 99.9 %
Test CRC FDA7B69B
Copy CRC FDA7B69B
Accurately ripped (confidence 32) [15DB6D13] (AR v2)
Copy OK

Track 22

Filename G:New RipsUri Caine – The Goldberg Variations (2000) [FLAC]disc 1of222 – Variation 7–Gigue.wav

Peak level 31.2 %
Extraction speed 6.4 X
Track quality 100.0 %
Test CRC 9C9215DC
Copy CRC 9C9215DC
Accurately ripped (confidence 33) [0A5C55AD] (AR v2)
Copy OK

Track 23

Filename G:New RipsUri Caine – The Goldberg Variations (2000) [FLAC]disc 1of223 – Variation 9–Canon At The 3rd.wav

Peak level 70.6 %
Extraction speed 6.6 X
Track quality 100.0 %
Test CRC 489D68A6
Copy CRC 489D68A6
Accurately ripped (confidence 33) [BAA554FC] (AR v2)
Copy OK

Track 24

Filename G:New RipsUri Caine – The Goldberg Variations (2000) [FLAC]disc 1of224 – Variation 10–Fughetta.wav

Peak level 52.2 %
Extraction speed 6.8 X
Track quality 100.0 %
Test CRC 9E777714
Copy CRC 9E777714
Accurately ripped (confidence 33) [291FADDD] (AR v2)
Copy OK

Track 25

Filename G:New RipsUri Caine – The Goldberg Variations (2000) [FLAC]disc 1of225 – Variation 11.wav

Peak level 86.7 %
Extraction speed 7.2 X
Track quality 100.0 %
Test CRC 1F89E758
Copy CRC 1F89E758
Accurately ripped (confidence 33) [52F23276] (AR v2)
Copy OK

Track 26

Filename G:New RipsUri Caine – The Goldberg Variations (2000) [FLAC]disc 1of226 – Variation For Violin And Piano.wav

Peak level 60.4 %
Extraction speed 7.6 X
Track quality 100.0 %
Test CRC BF6AC2AD
Copy CRC BF6AC2AD
Accurately ripped (confidence 33) [FEC15D50] (AR v2)
Copy OK

Track 27

Filename G:New RipsUri Caine – The Goldberg Variations (2000) [FLAC]disc 1of227 – Variation 12–Canon At The 4th.wav

Peak level 56.5 %
Extraction speed 4.3 X
Track quality 99.8 %
Test CRC 1C50BD13
Copy CRC 1C50BD13
Accurately ripped (confidence 33) [50AFF4FD] (AR v2)
Copy OK

Track 28

Filename G:New RipsUri Caine – The Goldberg Variations (2000) [FLAC]disc 1of228 – Variation 13.wav

Peak level 56.1 %
Extraction speed 8.0 X
Track quality 100.0 %
Test CRC BE462EFD
Copy CRC BE462EFD
Accurately ripped (confidence 33) [D79A7393] (AR v2)
Copy OK

Track 29

Filename G:New RipsUri Caine – The Goldberg Variations (2000) [FLAC]disc 1of229 – The Hallelujah Variation.wav

Peak level 67.2 %
Extraction speed 7.5 X
Track quality 100.0 %
Test CRC 37C7EC6A
Copy CRC 37C7EC6A
Accurately ripped (confidence 33) [DEA3D700] (AR v2)
Copy OK

Track 30

Filename G:New RipsUri Caine – The Goldberg Variations (2000) [FLAC]disc 1of230 – The Verdi Piano Duet Variation.wav

Peak level 97.9 %
Extraction speed 4.8 X
Track quality 99.8 %
Test CRC DD6469AF
Copy CRC DD6469AF
Accurately ripped (confidence 33) [09C537E6] (AR v2)
Copy OK

Track 31

Filename G:New RipsUri Caine – The Goldberg Variations (2000) [FLAC]disc 1of231 – Luther’s Nightmare Variation.wav

Peak level 97.7 %
Extraction speed 7.9 X
Track quality 100.0 %
Test CRC 0AE6F79F
Copy CRC 0AE6F79F
Accurately ripped (confidence 33) [E2ACE8B2] (AR v2)
Copy OK

Track 32

Filename G:New RipsUri Caine – The Goldberg Variations (2000) [FLAC]disc 1of232 – Canon At The 6th In 6-4.wav

Peak level 56.6 %
Extraction speed 7.7 X
Track quality 100.0 %
Test CRC 486834EC
Copy CRC 486834EC
Accurately ripped (confidence 33) [6423B73F] (AR v2)
Copy OK

Track 33

Filename G:New RipsUri Caine – The Goldberg Variations (2000) [FLAC]disc 1of233 – The Jaybird Lounge Variation.wav

Peak level 69.4 %
Extraction speed 6.3 X
Track quality 99.9 %
Test CRC 9100A3BF
Copy CRC 9100A3BF
Accurately ripped (confidence 33) [8215A537] (AR v2)
Copy OK

Track 34

Filename G:New RipsUri Caine – The Goldberg Variations (2000) [FLAC]disc 1of234 – Variation 14.wav

Peak level 37.0 %
Extraction speed 5.7 X
Track quality 100.0 %
Test CRC 4BB0FEDF
Copy CRC 4BB0FEDF
Accurately ripped (confidence 32) [0384F2C3] (AR v2)
Copy OK

Track 35

Filename G:New RipsUri Caine – The Goldberg Variations (2000) [FLAC]disc 1of235 – Variation 15–Canon At The 5th.wav

Peak level 38.5 %
Extraction speed 8.3 X
Track quality 100.0 %
Test CRC A9131A69
Copy CRC A9131A69
Accurately ripped (confidence 32) [E5E3438F] (AR v2)
Copy OK

Track 36

Filename G:New RipsUri Caine – The Goldberg Variations (2000) [FLAC]disc 1of236 – The Contrapunto Variation.wav

Peak level 85.1 %
Extraction speed 9.5 X
Track quality 100.0 %
Test CRC 3B7C8B5A
Copy CRC 3B7C8B5A
Accurately ripped (confidence 32) [DCB5FAC4] (AR v2)
Copy OK

Track 37

Filename G:New RipsUri Caine – The Goldberg Variations (2000) [FLAC]disc 1of237 – Variation For Piano Solo.wav

Peak level 89.5 %
Extraction speed 6.6 X
Track quality 100.0 %
Test CRC EFDCEFD1
Copy CRC EFDCEFD1
Accurately ripped (confidence 32) [8B2A45B7] (AR v2)
Copy OK

Track 38

Filename G:New RipsUri Caine – The Goldberg Variations (2000) [FLAC]disc 1of238 – Canon At The 5th In 5-4.wav

Peak level 66.9 %
Extraction speed 8.8 X
Track quality 100.0 %
Test CRC 312F193F
Copy CRC 312F193F
Accurately ripped (confidence 32) [72F186B5] (AR v2)
Copy OK

Track 39

Filename G:New RipsUri Caine – The Goldberg Variations (2000) [FLAC]disc 1of239 – The Chorale Variation.wav

Peak level 42.6 %
Extraction speed 4.8 X
Track quality 99.8 %
Test CRC 6CFB628B
Copy CRC 6CFB628B
Accurately ripped (confidence 32) [5AA3476E] (AR v2)
Copy OK

All tracks accurately ripped

No errors occurred

End of status report

–– CUETools DB Plugin V2.1.6

[CTDB TOCID: iKCMpp2QQzTkaLatF0lV9ZYJFRs-] found
Submit result: iKCMpp2QQzTkaLatF0lV9ZYJFRs- has been confirmed
Track | CTDB Status
1 | (49/50) Accurately ripped
2 | (49/50) Accurately ripped
3 | (49/50) Accurately ripped
4 | (49/50) Accurately ripped
5 | (49/50) Accurately ripped
6 | (49/50) Accurately ripped
7 | (49/50) Accurately ripped
8 | (49/50) Accurately ripped
9 | (49/50) Accurately ripped
10 | (49/50) Accurately ripped
11 | (50/50) Accurately ripped
12 | (49/50) Accurately ripped
13 | (49/50) Accurately ripped
14 | (49/50) Accurately ripped
15 | (49/50) Accurately ripped
16 | (49/50) Accurately ripped
17 | (49/50) Accurately ripped
18 | (49/50) Accurately ripped
19 | (48/50) Accurately ripped
20 | (49/50) Accurately ripped
21 | (48/50) Accurately ripped
22 | (49/50) Accurately ripped
23 | (48/50) Accurately ripped
24 | (49/50) Accurately ripped
25 | (49/50) Accurately ripped
26 | (48/50) Accurately ripped
27 | (48/50) Accurately ripped
28 | (49/50) Accurately ripped
29 | (49/50) Accurately ripped
30 | (48/50) Accurately ripped
31 | (48/50) Accurately ripped
32 | (49/50) Accurately ripped
33 | (48/50) Accurately ripped
34 | (49/50) Accurately ripped
35 | (48/50) Accurately ripped
36 | (48/50) Accurately ripped
37 | (49/50) Accurately ripped
38 | (49/50) Accurately ripped
39 | (48/50) Accurately ripped

==== Log checksum 9C28C9E7554ADD6E4ED68830936D3C73EDEBA853A79B622ACCC01A5FD7B8B9C2 ====

EAC log CD2
Exact Audio Copy V1.1 from 23. June 2015

EAC extraction logfile from 7. April 2017, 9:41

Uri Caine / The Goldberg Variations

Used drive : MATSHITADVD+-RW SW830 Adapter: 1 ID: 0

Read mode : Secure
Utilize accurate stream : Yes
Defeat audio cache : Yes
Make use of C2 pointers : No

Read offset correction : 6
Overread into Lead-In and Lead-Out : No
Fill up missing offset samples with silence : Yes
Delete leading and trailing silent blocks : No
Null samples used in CRC calculations : Yes
Used interface : Native Win32 interface for Win NT & 2000
Gap handling : Appended to previous track

Used output format : User Defined Encoder
Selected bitrate : 128 kBit/s
Quality : High
Add ID3 tag : No
Command line compressor : C:Program Files (x86)Exact Audio CopyFlacflac.exe
Additional command line options : -8 -V -T "ARTIST=%artist%" -T "TITLE=%title%" -T "ALBUM=%albumtitle%" -T "DATE=%year%" -T "TRACKNUMBER=%tracknr%" -T "TOTALTRACKS=%numtracks%" -T "GENRE=%genre%" -T "ALBUMARTIST=%albumartist%" -T "ALBUM ARTIST=%albumartist%" -T "COMMENT=EAC Secure Mode, Test & Copy, AccurateRip, FLAC -8" %source%

TOC of the extracted CD

Track | Start | Length | Start sector | End sector
––––––––––––––––––––––––––––-
1 | 0:00.00 | 1:47.52 | 0 | 8076
2 | 1:47.52 | 2:32.03 | 8077 | 19479
3 | 4:19.55 | 4:57.00 | 19480 | 41754
4 | 9:16.55 | 0:40.02 | 41755 | 44756
5 | 9:56.57 | 2:43.33 | 44757 | 57014
6 | 12:40.15 | 0:59.62 | 57015 | 61501
7 | 13:40.02 | 1:48.58 | 61502 | 69659
8 | 15:28.60 | 1:28.10 | 69660 | 76269
9 | 16:56.70 | 1:40.17 | 76270 | 83786
10 | 18:37.12 | 3:28.38 | 83787 | 99424
11 | 22:05.50 | 1:50.47 | 99425 | 107721
12 | 23:56.22 | 5:05.38 | 107722 | 130634
13 | 29:01.60 | 2:11.62 | 130635 | 140521
14 | 31:13.47 | 1:22.08 | 140522 | 146679
15 | 32:35.55 | 1:52.17 | 146680 | 155096
16 | 34:27.72 | 1:41.58 | 155097 | 162729
17 | 36:09.55 | 1:59.05 | 162730 | 171659
18 | 38:08.60 | 3:12.62 | 171660 | 186121
19 | 41:21.47 | 3:26.70 | 186122 | 201641
20 | 44:48.42 | 2:30.00 | 201642 | 212891
21 | 47:18.42 | 2:34.63 | 212892 | 224504
22 | 49:53.30 | 0:34.62 | 224505 | 227116
23 | 50:28.17 | 1:00.63 | 227117 | 231679
24 | 51:29.05 | 5:22.07 | 231680 | 255836
25 | 56:51.12 | 1:01.50 | 255837 | 260461
26 | 57:52.62 | 1:37.43 | 260462 | 267779
27 | 59:30.30 | 0:50.65 | 267780 | 271594
28 | 60:21.20 | 1:42.55 | 271595 | 279299
29 | 62:04.00 | 0:48.10 | 279300 | 282909
30 | 62:52.10 | 5:15.45 | 282910 | 306579
31 | 68:07.55 | 4:41.70 | 306580 | 327724
32 | 72:49.50 | 1:54.42 | 327725 | 336316
33 | 74:44.17 | 2:43.03 | 336317 | 348544

Track 1

Filename G:New RipsUri Caine – The Goldberg Variations (2000) [FLAC]disc 2of21 – Variation 16–Overture.wav

Pre-gap length 0:00:02.00

Peak level 96.8 %
Extraction speed 3.3 X
Track quality 100.0 %
Test CRC 4F30417D
Copy CRC 4F30417D
Accurately ripped (confidence 30) [6EB982FB] (AR v2)
Copy OK

Track 2

Filename G:New RipsUri Caine – The Goldberg Variations (2000) [FLAC]disc 2of22 – Don’s Variation.wav

Peak level 63.1 %
Extraction speed 2.8 X
Track quality 99.9 %
Test CRC 57D8D859
Copy CRC 57D8D859
Accurately ripped (confidence 30) [FCD1F117] (AR v2)
Copy OK

Track 3

Filename G:New RipsUri Caine – The Goldberg Variations (2000) [FLAC]disc 2of23 – Variation For Vinicius.wav

Peak level 77.6 %
Extraction speed 4.5 X
Track quality 100.0 %
Test CRC 4B4A7D77
Copy CRC 4B4A7D77
Accurately ripped (confidence 30) [160923C3] (AR v2)
Copy OK

Track 4

Filename G:New RipsUri Caine – The Goldberg Variations (2000) [FLAC]disc 2of24 – Olive’s Remix.wav

Peak level 67.2 %
Extraction speed 2.6 X
Track quality 100.0 %
Test CRC 925AB02F
Copy CRC 925AB02F
Accurately ripped (confidence 30) [F8B1FE54] (AR v2)
Copy OK

Track 5

Filename G:New RipsUri Caine – The Goldberg Variations (2000) [FLAC]disc 2of25 – The I Poem Variation.wav

Peak level 58.4 %
Extraction speed 4.5 X
Track quality 100.0 %
Test CRC 13277024
Copy CRC 13277024
Accurately ripped (confidence 30) [AACAA4C5] (AR v2)
Copy OK

Track 6

Filename G:New RipsUri Caine – The Goldberg Variations (2000) [FLAC]disc 2of26 – Variation 17.wav

Peak level 77.1 %
Extraction speed 3.5 X
Track quality 100.0 %
Test CRC 2BBFF568
Copy CRC 2BBFF568
Accurately ripped (confidence 30) [8379BB5B] (AR v2)
Copy OK

Track 7

Filename G:New RipsUri Caine – The Goldberg Variations (2000) [FLAC]disc 2of27 – Variation 18–Canon At The 6th.wav

Peak level 50.7 %
Extraction speed 4.2 X
Track quality 100.0 %
Test CRC 24971528
Copy CRC 24971528
Accurately ripped (confidence 30) [7A4DCC2F] (AR v2)
Copy OK

Track 8

Filename G:New RipsUri Caine – The Goldberg Variations (2000) [FLAC]disc 2of28 – Mozart.wav

Peak level 74.9 %
Extraction speed 4.1 X
Track quality 100.0 %
Test CRC 2A98E710
Copy CRC 2A98E710
Accurately ripped (confidence 30) [8584DABD] (AR v2)
Copy OK

Track 9

Filename G:New RipsUri Caine – The Goldberg Variations (2000) [FLAC]disc 2of29 – Canon At The 7th In 7-4.wav

Peak level 98.8 %
Extraction speed 2.9 X
Track quality 99.8 %
Test CRC 5E45A876
Copy CRC 5E45A876
Accurately ripped (confidence 30) [75CC2764] (AR v2)
Copy OK

Track 10

Filename G:New RipsUri Caine – The Goldberg Variations (2000) [FLAC]disc 2of210 – The Minimal Variation.wav

Peak level 85.2 %
Extraction speed 4.1 X
Track quality 99.9 %
Test CRC 8252BD7E
Copy CRC 8252BD7E
Accurately ripped (confidence 30) [4418F787] (AR v2)
Copy OK

Track 11

Filename G:New RipsUri Caine – The Goldberg Variations (2000) [FLAC]disc 2of211 – The Tango Variation.wav

Peak level 78.5 %
Extraction speed 4.8 X
Track quality 100.0 %
Test CRC 18F02A16
Copy CRC 18F02A16
Accurately ripped (confidence 30) [C39B8476] (AR v2)
Copy OK

Track 12

Filename G:New RipsUri Caine – The Goldberg Variations (2000) [FLAC]disc 2of212 – The Boxy Variation.wav

Peak level 98.8 %
Extraction speed 5.9 X
Track quality 100.0 %
Test CRC A247E51B
Copy CRC A247E51B
Accurately ripped (confidence 30) [D28390FE] (AR v2)
Copy OK

Track 13

Filename G:New RipsUri Caine – The Goldberg Variations (2000) [FLAC]disc 2of213 – Variation 19.wav

Peak level 38.9 %
Extraction speed 3.8 X
Track quality 99.9 %
Test CRC 81426F0E
Copy CRC 81426F0E
Accurately ripped (confidence 30) [0BE50E20] (AR v2)
Copy OK

Track 14

Filename G:New RipsUri Caine – The Goldberg Variations (2000) [FLAC]disc 2of214 – Variation 21–Canon At The 7th.wav

Peak level 78.9 %
Extraction speed 4.8 X
Track quality 100.0 %
Test CRC CB215AFC
Copy CRC CB215AFC
Accurately ripped (confidence 30) [82B9AE03] (AR v2)
Copy OK

Track 15

Filename G:New RipsUri Caine – The Goldberg Variations (2000) [FLAC]disc 2of215 – The Wedding March Variation.wav

Peak level 53.3 %
Extraction speed 3.6 X
Track quality 99.9 %
Test CRC E47102A0
Copy CRC E47102A0
Accurately ripped (confidence 30) [623F483F] (AR v2)
Copy OK

Track 16

Filename G:New RipsUri Caine – The Goldberg Variations (2000) [FLAC]disc 2of216 – Variation 22.wav

Peak level 74.9 %
Extraction speed 5.2 X
Track quality 100.0 %
Test CRC 16B96600
Copy CRC 16B96600
Accurately ripped (confidence 30) [3CBBB8DD] (AR v2)
Copy OK

Track 17

Filename G:New RipsUri Caine – The Goldberg Variations (2000) [FLAC]disc 2of217 – Variation For Gamba Quartet.wav

Peak level 61.5 %
Extraction speed 5.5 X
Track quality 100.0 %
Test CRC 31FAF81B
Copy CRC 31FAF81B
Accurately ripped (confidence 30) [5F15DC11] (AR v2)
Copy OK

Track 18

Filename G:New RipsUri Caine – The Goldberg Variations (2000) [FLAC]disc 2of218 – Canon At The 4th In 4-4.wav

Peak level 89.1 %
Extraction speed 6.3 X
Track quality 100.0 %
Test CRC 03741D3A
Copy CRC 03741D3A
Accurately ripped (confidence 30) [A9CFB12F] (AR v2)
Copy OK

Track 19

Filename G:New RipsUri Caine – The Goldberg Variations (2000) [FLAC]disc 2of219 – Variation For Piano Solo No 2.wav

Peak level 98.8 %
Extraction speed 6.5 X
Track quality 100.0 %
Test CRC F222C3CD
Copy CRC F222C3CD
Accurately ripped (confidence 30) [BE8324AE] (AR v2)
Copy OK

Track 20

Filename G:New RipsUri Caine – The Goldberg Variations (2000) [FLAC]disc 2of220 – Variation On B-A-C-H.wav

Peak level 83.2 %
Extraction speed 6.2 X
Track quality 100.0 %
Test CRC 24D53A39
Copy CRC 24D53A39
Accurately ripped (confidence 30) [FF933E22] (AR v2)
Copy OK

Track 21

Filename G:New RipsUri Caine – The Goldberg Variations (2000) [FLAC]disc 2of221 – Variation For Cello Solo.wav

Peak level 61.3 %
Extraction speed 6.5 X
Track quality 100.0 %
Test CRC DA5AB98C
Copy CRC DA5AB98C
Accurately ripped (confidence 30) [2DE638AF] (AR v2)
Copy OK

Track 22

Filename G:New RipsUri Caine – The Goldberg Variations (2000) [FLAC]disc 2of222 – Handel.wav

Peak level 48.7 %
Extraction speed 1.9 X
Track quality 99.6 %
Test CRC 67FD82D0
Copy CRC 67FD82D0
Accurately ripped (confidence 30) [B1D9078F] (AR v2)
Copy OK

Track 23

Filename G:New RipsUri Caine – The Goldberg Variations (2000) [FLAC]disc 2of223 – Variation 23.wav

Peak level 57.0 %
Extraction speed 5.0 X
Track quality 100.0 %
Test CRC C08B45B5
Copy CRC C08B45B5
Accurately ripped (confidence 30) [504AFBCE] (AR v2)
Copy OK

Track 24

Filename G:New RipsUri Caine – The Goldberg Variations (2000) [FLAC]disc 2of224 – Variation 25.wav

Peak level 88.7 %
Extraction speed 7.5 X
Track quality 100.0 %
Test CRC 779F5908
Copy CRC 779F5908
Accurately ripped (confidence 30) [C9078D67] (AR v2)
Copy OK

Track 25

Filename G:New RipsUri Caine – The Goldberg Variations (2000) [FLAC]disc 2of225 – Variation 26.wav

Peak level 64.8 %
Extraction speed 5.0 X
Track quality 100.0 %
Test CRC 3B63AF70
Copy CRC 3B63AF70
Accurately ripped (confidence 30) [5529EC07] (AR v2)
Copy OK

Track 26

Filename G:New RipsUri Caine – The Goldberg Variations (2000) [FLAC]disc 2of226 – Variation 29.wav

Peak level 99.6 %
Extraction speed 4.0 X
Track quality 99.8 %
Test CRC 976758AD
Copy CRC 976758AD
Accurately ripped (confidence 30) [A730D2B6] (AR v2)
Copy OK

Track 27

Filename G:New RipsUri Caine – The Goldberg Variations (2000) [FLAC]disc 2of227 – Variation 30 Quodlibet.wav

Peak level 67.8 %
Extraction speed 4.9 X
Track quality 100.0 %
Test CRC 187FEF55
Copy CRC 187FEF55
Accurately ripped (confidence 30) [ACFA85FF] (AR v2)
Copy OK

Track 28

Filename G:New RipsUri Caine – The Goldberg Variations (2000) [FLAC]disc 2of228 – Variation 30 Quodlibet–The Drinking Party.wav

Peak level 95.7 %
Extraction speed 6.4 X
Track quality 100.0 %
Test CRC 75B532FB
Copy CRC 75B532FB
Accurately ripped (confidence 30) [A2CE993E] (AR v2)
Copy OK

Track 29

Filename G:New RipsUri Caine – The Goldberg Variations (2000) [FLAC]disc 2of229 – Logic’s Organ Prelude.wav

Peak level 98.8 %
Extraction speed 2.6 X
Track quality 99.7 %
Test CRC FCBD1B1E
Copy CRC FCBD1B1E
Accurately ripped (confidence 30) [6FDFA896] (AR v2)
Copy OK

Track 30

Filename G:New RipsUri Caine – The Goldberg Variations (2000) [FLAC]disc 2of230 – Uri’s Organ Prelude.wav

Peak level 98.8 %
Extraction speed 8.0 X
Track quality 100.0 %
Test CRC F4519999
Copy CRC F4519999
Accurately ripped (confidence 30) [3CB3D290] (AR v2)
Copy OK

Track 31

Filename G:New RipsUri Caine – The Goldberg Variations (2000) [FLAC]disc 2of231 – The Blessings Variation.wav

Peak level 98.8 %
Extraction speed 8.1 X
Track quality 100.0 %
Test CRC 57963142
Copy CRC 57963142
Accurately ripped (confidence 30) [18AE72E8] (AR v2)
Copy OK

Track 32

Filename G:New RipsUri Caine – The Goldberg Variations (2000) [FLAC]disc 2of232 – Aria.wav

Peak level 49.8 %
Extraction speed 6.9 X
Track quality 100.0 %
Test CRC 0701CC3B
Copy CRC 0701CC3B
Accurately ripped (confidence 30) [53942BA7] (AR v2)
Copy OK

Track 33

Filename G:New RipsUri Caine – The Goldberg Variations (2000) [FLAC]disc 2of233 – The Eternal Variation.wav

Peak level 4.8 %
Extraction speed 5.6 X
Track quality 99.9 %
Test CRC 00D9B471
Copy CRC 00D9B471
Accurately ripped (confidence 30) [25F5932B] (AR v2)
Copy OK

All tracks accurately ripped

No errors occurred

End of status report

–– CUETools DB Plugin V2.1.6

[CTDB TOCID: JVP3mDDtSpp6r0rDvl414Dbhenw-] found
Submit result: JVP3mDDtSpp6r0rDvl414Dbhenw- has been confirmed
Track | CTDB Status
1 | (47/48) Accurately ripped
2 | (47/48) Accurately ripped
3 | (47/48) Accurately ripped
4 | (47/48) Accurately ripped
5 | (47/48) Accurately ripped
6 | (47/48) Accurately ripped
7 | (47/48) Accurately ripped
8 | (47/48) Accurately ripped
9 | (47/48) Accurately ripped
10 | (47/48) Accurately ripped
11 | (47/48) Accurately ripped
12 | (47/48) Accurately ripped
13 | (47/48) Accurately ripped
14 | (47/48) Accurately ripped
15 | (47/48) Accurately ripped
16 | (47/48) Accurately ripped
17 | (47/48) Accurately ripped
18 | (46/48) Accurately ripped
19 | (47/48) Accurately ripped
20 | (47/48) Accurately ripped
21 | (46/48) Accurately ripped
22 | (46/48) Accurately ripped
23 | (46/48) Accurately ripped
24 | (47/48) Accurately ripped
25 | (47/48) Accurately ripped
26 | (46/48) Accurately ripped
27 | (46/48) Accurately ripped
28 | (46/48) Accurately ripped
29 | (47/48) Accurately ripped
30 | (46/48) Accurately ripped
31 | (45/48) Accurately ripped
32 | (45/48) Accurately ripped
33 | (45/48) Accurately ripped

==== Log checksum AA381F4756140D085ECF4B1F55315890133D799A7F6449D81616BD311357200A ====

Uri Caine - The Goldberg Variations (2000) {2CD Winter & Winter 910 054-2 rec 1999-2000}

===

Uri Caine – The Goldberg Variations (2000) {2CD Winter & Winter 910 054-2 rec 1999-2000} Download, Warez, DDL, Free, Full Album, Torrent, Legal.

Download