Unisonic – Live In Wacken (Japanese Edition) (2017)

Download
Unisonic - Live In Wacken (Japanese Edition) (2017)

Unisonic – Live In Wacken (Japanese Edition) (2017)
EAC Rip | FLAC (image) +cue, log, scans – 510 MB | MP3 CBR 320 kbps – 147 MB | 01:04:10
Melodic Power Metal, Hard Rock, Heavy Metal | Label: Avalon

It’s a busy summer for Kai Hansen his “Thank you Wacken” live solo album comes out in late June, and then a month later one of his bands, Unisonic, release their live album, also recorded at Wacken, and of course he’ll be busy preparing for the Helloween Pumkins united tour. If you haven’t listened to Unisonic before but are a fan of Helloween then I’d urge you to check out Unisonic as it reunites two Helloween legends, Kai Hansen and Michael Kiske. The studio albums are excellent and they’re now releasing this live album.

TRACKLIST

01. Venite 2.0
02. For The Kingdom
03. Exceptional
04. My Sanctuary
05. King For A Day
06. A Little Time (Helloween cover)
07. Your Time Has Come
08. When the Deed Is Done
09. Star Rider
10. Throne Of The Dawn
11. March Of Time (Helloween cover)
12. Unisonic
13. We Rise (Bonus Japan Track)

EAC
Exact Audio Copy V1.3 from 2. September 2016

EAC extraction logfile from 26. July 2017, 17:44

Unisonic / Live In Wacken (Japan)

Used drive : ATAPI iHAS122 W Adapter: 2 ID: 0

Read mode : Secure
Utilize accurate stream : Yes
Defeat audio cache : Yes
Make use of C2 pointers : No

Read offset correction : 48
Overread into Lead-In and Lead-Out : No
Fill up missing offset samples with silence : Yes
Delete leading and trailing silent blocks : No
Null samples used in CRC calculations : Yes
Used interface : Installed external ASPI interface

Used output format : User Defined Encoder
Selected bitrate : 1024 kBit/s
Quality : High
Add ID3 tag : No
Command line compressor : C:Program FilesFLACflac.exe
Additional command line options : -V -8 -T "Date=%year%" -T "Genre=%genre%" -T"COMMENT=Ripped by Ilijan – ilko" -8 -V %source%

TOC of the extracted CD

Track | Start | Length | Start sector | End sector
––––––––––––––––––––––––––––-
1 | 0:00.00 | 1:40.59 | 0 | 7558
2 | 1:40.59 | 4:51.00 | 7559 | 29383
3 | 6:31.59 | 4:52.04 | 29384 | 51287
4 | 11:23.63 | 4:46.64 | 51288 | 72801
5 | 16:10.52 | 4:14.14 | 72802 | 91865
6 | 20:24.66 | 5:59.71 | 91866 | 118861
7 | 26:24.62 | 5:09.22 | 118862 | 142058
8 | 31:34.09 | 5:31.22 | 142059 | 166905
9 | 37:05.31 | 6:02.12 | 166906 | 194067
10 | 43:07.43 | 5:54.04 | 194068 | 220621
11 | 49:01.47 | 5:17.66 | 220622 | 244462
12 | 54:19.38 | 4:45.63 | 244463 | 265900
13 | 59:05.26 | 5:04.73 | 265901 | 288773

Range status and errors

Selected range

Filename D:ilkoUnisonic – Live In Wacken (Japan).wav

Peak level 98.8 %
Extraction speed 4.4 X
Range quality 100.0 %
Test CRC E6DF006C
Copy CRC E6DF006C
Copy OK

No errors occurred

AccurateRip summary

Track 1 not present in database
Track 2 not present in database
Track 3 not present in database
Track 4 not present in database
Track 5 not present in database
Track 6 not present in database
Track 7 not present in database
Track 8 not present in database
Track 9 not present in database
Track 10 not present in database
Track 11 not present in database
Track 12 not present in database
Track 13 not present in database

None of the tracks are present in the AccurateRip database

End of status report

–– CUETools DB Plugin V2.1.6

[CTDB TOCID: cLZVcixtpjsJ26OOQbshPONE4z0-] found
Submit result: cLZVcixtpjsJ26OOQbshPONE4z0- has been confirmed
Track | CTDB Status
1 | (3/3) Accurately ripped
2 | (3/3) Accurately ripped
3 | (3/3) Accurately ripped
4 | (3/3) Accurately ripped
5 | (3/3) Accurately ripped
6 | (3/3) Accurately ripped
7 | (3/3) Accurately ripped
8 | (3/3) Accurately ripped
9 | (3/3) Accurately ripped
10 | (3/3) Accurately ripped
11 | (3/3) Accurately ripped
12 | (3/3) Accurately ripped
13 | (3/3) Accurately ripped

==== Log checksum E5A4DA09A81852C327B39DAB0263A36B614D1983A515A9E199A10B5257DA1A77 ====

All thanks go to the original releaser

Unisonic – Live In Wacken (Japanese Edition) (2017) Download, Warez, DDL, Free, Full Album, Torrent, Legal.

Download