Under The Sun – Under The Sun (2000)

Download
Under The Sun - Under The Sun (2000)

Under The Sun – Under The Sun (2000)
EAC Rip | FLAC: Image+Cue+Log | 495 Mb | MP3 CBR 320 kbps | 172 Mb | Scans | 90 Mb | Time: 01:07:34
Magna Carta | MA-9041-2
Progressive Rock

Under The Sun exploded onto the scene in 2000 with their debut release from Magna Carta that was produced by the band and mixed by Terry Brown of Rush fame. The recording has garnered strong reviews overall and was hailed as Record Of The Year in Holland and has received a 4.5 out of 5 rating.

So many prog bands seem to either choose to follow the path of older groups like Yes and Genesis or go with the trend of harder-edged prog along the lines of Dream Theater. It is refreshing to find an outfit that combines the two elements into a sound that both pays homage to those genres and forges its own path. Under the Sun is one such band, and their debut disc is truly one of the finest of the year 2000. Much of the album has the hard-edged, almost prog-metal elements that encompass the Dream Theater side of the genre. However, many of the pieces, or at least sections of them, are firmly rooted in the older, less crunchy prog modes. This Canadian band (composed of Chris Shryack, Kurt Barabas, Matt Evidon, and Paul Shkut) touches on the sounds of such artists as Yes, Dream Theater, Pink Floyd, Rush, Queensryche, and Kansas. All of these leanings are blended into a mixture that is exciting and original. This combination really creates a very listenable approach that calls to mind those various groups while still following Under the Sun’s own unique musical path. ~ AllMusic Review by Gary Hill

Under The Sun - Under The Sun (2000)
Under The Sun
Progarchives | Magna Carta

Track Listing

01. This Golden Voyage (07:16)
02. Tracer (05:42)
03. Seeing Eye God (03:39)
04. Gardens Of Autumn (05:03)
05. Perfect World (05:22)
06. Reflections (05:46)
07. Breakwater (07:35)
08. The Time Being (09:58)
09. Dream Catcher (07:56)
10. From Henceforth Now And Forever (PS 124) (09:17)

Produced by Under The Sun

The Band

• Chris Shryack – lead & harmony vocals, acoustic & electric guitars,
sound effects, ebow, chimes, shakers & rattles
• Matt Evidon – keyboards, harmony vocals,
• Kurt Barabas – bass & bass pedals, harmony vocals, tambourine, additional distorto-acoustic guitar
• Paul Shkut – drums, percussion

*****
• John Massey – bagpipes (7)
• Terry Brown – drum loops (3), mixing
• David Townson – drum loops (3)
• Chief Running Bear – Cherokee narration (9)

EAC Log
Exact Audio Copy V1.1 from 23. June 2015

EAC extraction logfile from 13. July 2017, 9:32

Under The Sun / Under The Sun

Used drive : HL-DT-STBD-RE WH16NS40 Adapter: 6 ID: 0

Read mode : Secure
Utilize accurate stream : Yes
Defeat audio cache : Yes
Make use of C2 pointers : No

Read offset correction : 6
Overread into Lead-In and Lead-Out : No
Fill up missing offset samples with silence : Yes
Delete leading and trailing silent blocks : No
Null samples used in CRC calculations : Yes
Used interface : Installed external ASPI interface

Used output format : Internal WAV Routines
Sample format : 44.100 Hz; 16 Bit; Stereo

TOC of the extracted CD

Track | Start | Length | Start sector | End sector
––––––––––––––––––––––––––––-
1 | 0:00.00 | 7:15.50 | 0 | 32674
2 | 7:15.50 | 5:42.00 | 32675 | 58324
3 | 12:57.50 | 3:39.00 | 58325 | 74749
4 | 16:36.50 | 5:03.02 | 74750 | 97476
5 | 21:39.52 | 5:22.00 | 97477 | 121626
6 | 27:01.52 | 5:45.43 | 121627 | 147544
7 | 32:47.20 | 7:35.27 | 147545 | 181696
8 | 40:22.47 | 9:58.05 | 181697 | 226551
9 | 50:20.52 | 7:56.25 | 226552 | 262276
10 | 58:17.02 | 9:16.43 | 262277 | 304019

Range status and errors

Selected range

Filename Z:datahexonutSeedingUnder The Sun2000-Under The SunUnder The Sun.wav

Peak level 100.0 %
Extraction speed 7.7 X
Range quality 100.0 %
Test CRC 32994CA9
Copy CRC 32994CA9
Copy OK

No errors occurred

AccurateRip summary

Track 1 accurately ripped (confidence 5) [1F1009BE] (AR v2)
Track 2 accurately ripped (confidence 5) [6327A0F4] (AR v2)
Track 3 accurately ripped (confidence 5) [EDA40A62] (AR v2)
Track 4 accurately ripped (confidence 5) [D25F7AD1] (AR v2)
Track 5 accurately ripped (confidence 5) [A05D6E04] (AR v2)
Track 6 accurately ripped (confidence 5) [4B5F02F7] (AR v2)
Track 7 accurately ripped (confidence 5) [01A46400] (AR v2)
Track 8 accurately ripped (confidence 5) [AFF4A954] (AR v2)
Track 9 accurately ripped (confidence 5) [76657274] (AR v2)
Track 10 accurately ripped (confidence 5) [33C1D6AE] (AR v2)

All tracks accurately ripped

End of status report

==== Log checksum B4F257B72FACFB57B04C76EB37E8CDE64A88AAA45BB469869629132CA8BD6038 ====

Many thanks to the original uploader: hexonut

SEE also:
Under The Sun 2005 Schematism: On Stage With Under The Sun

……
Welcome to My Blog for more wonderful music!
……

Under The Sun – Under The Sun (2000) Download, Warez, DDL, Free, Full Album, Torrent, Legal.

Download