Under The Sun – Schematism: On Stage With Under The Sun (2005)

Download
Under The Sun - Schematism: On Stage With Under The Sun (2005)

Under The Sun – Schematism: On Stage With Under The Sun (2005)
EAC Rip | FLAC: Image+Cue+Log | 498 Mb | MP3 CBR 320 kbps | 182 Mb | Scans | 91 Mb | Time: 01:11:17
Progrock Records | PRR230
Progressive Rock

After releasing a stunning self-titled debut in 2000 on Magna Carta — one that actually lived up to all the hype heaped on this California quartet at the time — Under the Sun quietly soldiered on through personnel changes, record-label woes and an evolving modern progressive-rock landscape.

Schematism — the word is defined as a noun in three different ways in the disc’s booklet — was recorded with Under the Sun’s original lineup at NEARfest on June 23, 2001, at 1 p.m., while Under the Sun’s debut was still garnering accolades from critics and fans alike. This gig includes all of the songs on Under the Sun, save two ("Gardens of Autumn" and "Seeing Eye God"), and one previously unreleased song (the 14-minute, four-part "Souljourner").

Under The Sun - Schematism: On Stage With Under The Sun (2005)
Under The Sun
Progarchives | TheRecordLabel

Track Listing

01. Tracker (06:13)
02. Perfect World (05:49)
03. Dream Catcher (08:13)
04. The Time Being (08:48)
05. Reflections (05:34)
06. This Golden Voyage (07:27)
07. Souljourner (I Am Forever) (13:17)
08. Breakwater (08:06)
09. From Henceforth Now And Forever (P.S. 124) (07:50)

Produced by Brad Aaron, Kurt Barabas and Chris Shryack

The Band

• Chris Shryack – guitar, vocals
• Matt Evidon – keyboards
• Kurt Barabas – bass
• Paul Shkut – drums

EAC Log
Exact Audio Copy V1.1 from 23. June 2015

EAC extraction logfile from 25. July 2017, 19:33

Under The Sun / Schematism

Used drive : PLEXTOR CD-R PX-240A Adapter: 0 ID: 0

Read mode : Secure
Utilize accurate stream : Yes
Defeat audio cache : Yes
Make use of C2 pointers : No

Read offset correction : 6
Overread into Lead-In and Lead-Out : No
Fill up missing offset samples with silence : Yes
Delete leading and trailing silent blocks : No
Null samples used in CRC calculations : Yes
Used interface : Installed external ASPI interface

Used output format : Internal WAV Routines
Sample format : 44.100 Hz; 16 Bit; Stereo

TOC of the extracted CD

Track | Start | Length | Start sector | End sector
––––––––––––––––––––––––––––-
1 | 0:00.00 | 6:12.58 | 0 | 27957
2 | 6:12.58 | 5:49.26 | 27958 | 54158
3 | 12:02.09 | 8:12.40 | 54159 | 91098
4 | 20:14.49 | 8:47.62 | 91099 | 130685
5 | 29:02.36 | 5:33.65 | 130686 | 155725
6 | 34:36.26 | 7:26.66 | 155726 | 189241
7 | 42:03.17 | 13:16.59 | 189242 | 249000
8 | 55:20.01 | 8:06.00 | 249001 | 285450
9 | 63:26.01 | 7:50.11 | 285451 | 320711

Range status and errors

Selected range

Filename Z:datahexonutSeedingUnder The Sun2005-SchematismSchematism.wav

Peak level 99.2 %
Extraction speed 8.9 X
Range quality 99.9 %
Test CRC D19B7E68
Copy CRC D19B7E68
Copy OK

No errors occurred

AccurateRip summary

Track 1 accurately ripped (confidence 3) [8C4DD756] (AR v1)
Track 2 accurately ripped (confidence 3) [CA6C9B55] (AR v1)
Track 3 accurately ripped (confidence 3) [828DF986] (AR v1)
Track 4 accurately ripped (confidence 3) [F08986A3] (AR v1)
Track 5 accurately ripped (confidence 3) [9C6F4AFA] (AR v1)
Track 6 accurately ripped (confidence 3) [DBB2735E] (AR v1)
Track 7 accurately ripped (confidence 3) [9EBA1841] (AR v1)
Track 8 accurately ripped (confidence 3) [6776337E] (AR v1)
Track 9 accurately ripped (confidence 3) [4A15B69E] (AR v1)

All tracks accurately ripped

End of status report

==== Log checksum 448783BC92A8FEEF24519BAD33D5842FC50CE14E5ABDDC2F970046F50870C8CF ====

Many thanks to the original uploader: hexonut

SEE also:
Under The Sun 2000 Under The Sun

……
Welcome to My Blog for more wonderful music!
……

Under The Sun – Schematism: On Stage With Under The Sun (2005) Download, Warez, DDL, Free, Full Album, Torrent, Legal.

Tags:

  • Under the Sun - Schematism 2005 in blogspot
Download