Um – Stray Dog (2001) {rope-a-dope} **[RE-UP]**

Download
Um - Stray Dog (2001) {rope-a-dope} **[RE-UP]**

Um – Stray Dog (2001) {rope-a-dope}
EAC Rip | FLAC with CUE and log | scans | 405 mb
MP3 CBR 320kbps | RAR | 147 mb
Genre: jazz, jazz fusion

Um were a one off group consisting of Hal Crook, Bob Gullotti, Rick Peckham, and Dave Zinno with special guest John Medeski on the Hammond B-3. They released Stray Dog in 2001 on outrageous/rope-a-dope. This album was recorded live at Club AS220 in Providence, Rhode Island on 11 & 12 May, 1999.

Um - Stray Dog (2001) {rope-a-dope} **[RE-UP]**

1. Bushwacker (5:47)
2. Gizmosis (2:15)
3. Walter’s World (7:51)
4. Stray Dog (Part 1) (9:28)
5. Repulse Impulse (4:41)
6. Teen Mind (4:32)
7. Pervert (9:33)
8. Stray Dog (Part 2) (5:53)
9. Um (12:38)

Hal Crook-Trom-O-Tizer
Bob Gullotti-drums
Rick Peckham-guitar
Dave Zinno-bass

with special guest
John Medeski-organ

Co-produced by John Medeski, Dave Zinno and the rest of Um
Recorded by Fernando Ruiz at Club AS220, Providence, RI on 11 & 12 May, 1999
Assisted by Antonia Oliart with Robin Moore and John Voci
Mixed and edited at Greene Street, New York City
Engineered and edited by Scott Harding. assisted by Julian
Mastered by Mike Fossenkemper

EAC Log
EAC extraction logfile from 26. October 2006, 17:27 for CD
Um / Stray Dog

Used drive : LITE-ON DVDRW SOHW-1633S Adapter: 0 ID: 0
Read mode : Secure with NO C2, accurate stream, disable cache
Read offset correction : 12
Overread into Lead-In and Lead-Out : No

Used output format : Internal WAV Routines
44.100 Hz; 16 Bit; Stereo

Other options :
Fill up missing offset samples with silence : Yes
Delete leading and trailing silent blocks : No
Installed external ASPI interface

Track 1
Filename D:FLACUm – Stray Dog (2001) [FLAC] {rope-a-dope}1 – Bushwacker.wav

Pre-gap length 0:00:02.00

Peak level 98.8 %
Track quality 100.0 %
Test CRC 303D05E9
Copy CRC 303D05E9
Copy OK

Track 2
Filename D:FLACUm – Stray Dog (2001) [FLAC] {rope-a-dope}2 – Gizmosis.wav

Peak level 95.4 %
Track quality 100.0 %
Test CRC 92AAC019
Copy CRC 92AAC019
Copy OK

Track 3
Filename D:FLACUm – Stray Dog (2001) [FLAC] {rope-a-dope}3 – Walter’s World.wav

Pre-gap length 0:00:00.90

Peak level 98.8 %
Track quality 100.0 %
Test CRC 9DE6A71A
Copy CRC 9DE6A71A
Copy OK

Track 4
Filename D:FLACUm – Stray Dog (2001) [FLAC] {rope-a-dope}4 – Stray Dog (Part 1).wav

Pre-gap length 0:00:02.90

Peak level 98.8 %
Track quality 100.0 %
Test CRC CD474D46
Copy CRC CD474D46
Copy OK

Track 5
Filename D:FLACUm – Stray Dog (2001) [FLAC] {rope-a-dope}5 – Repulse Impulse.wav

Pre-gap length 0:00:00.90

Peak level 98.8 %
Track quality 100.0 %
Test CRC 2DCAC2E5
Copy CRC 2DCAC2E5
Copy OK

Track 6
Filename D:FLACUm – Stray Dog (2001) [FLAC] {rope-a-dope}6 – Teen Mind.wav

Peak level 98.8 %
Track quality 100.0 %
Test CRC 6535273B
Copy CRC 6535273B
Copy OK

Track 7
Filename D:FLACUm – Stray Dog (2001) [FLAC] {rope-a-dope}7 – Pervert.wav

Peak level 98.8 %
Track quality 100.0 %
Test CRC 4BAEA50B
Copy CRC 4BAEA50B
Copy OK

Track 8
Filename D:FLACUm – Stray Dog (2001) [FLAC] {rope-a-dope}8 – Stray Dog (Part 2).wav

Pre-gap length 0:00:04.21

Peak level 98.8 %
Track quality 100.0 %
Test CRC F65D6DD5
Copy CRC F65D6DD5
Copy OK

Track 9
Filename D:FLACUm – Stray Dog (2001) [FLAC] {rope-a-dope}9 – Um.wav

Pre-gap length 0:00:00.90

Peak level 98.8 %
Track quality 100.0 %
Test CRC CE6B2DE1
Copy CRC CE6B2DE1
Copy OK

No errors occured

End of status report

Um - Stray Dog (2001) {rope-a-dope} **[RE-UP]**

Check out other titles in my Avaxhome blog

Um – Stray Dog (2001) {rope-a-dope} **[RE-UP]** Download, Warez, DDL, Free, Full Album, Torrent, Legal.

Download