UB40 – Classic Album Selection: 1980-1984 (2013) [5CD Box Set] | ViralVideoPk

Daily Dose of Free Downloads

UB40 – Classic Album Selection: 1980-1984 (2013) [5CD Box Set]

Download

UB40 - Classic Album Selection: 1980-1984 (2013) [5CD Box Set]

UB40 – Classic Album Selection: 1980-1984 (2013) [5CD Box Set]
Reggae, Dub, Electronic | EAC Rip | FLAC, Img+CUE+LOG+Scans-300dpi (PNG) | 03:54:24 h. | 1,71 Gb
Label: Virgin Records Limited / DEP International (EU) | Released: 2013-11-25 (1980-1984)
UB40 - Classic Album Selection: 1980-1984 (2013) [5CD Box Set]

UB40 are an English reggae and pop band, formed in December 1978 in Birmingham. The band has had more than 50 singles in the UK Singles Chart, and has also achieved considerable international success. They have been nominated for the Grammy Award for Best Reggae Album four times, and in 1984 were nominated for the Brit Award for Best British Group. One of the world’s best-selling music artists, UB40 have sold over 70 million records. The ethnic make-up of the band’s original line-up was diverse, with musicians of English, Irish, Jamaican, Scottish and Yemeni parentage. Their hit singles include their debut “Food for Thought” and two Billboard Hot 100 number ones with “Red Red Wine” and “Can’t Help Falling in Love”. Both of these also topped the UK Singles Chart, as did the band’s version of “I Got You Babe”. Their two most successful albums, Labour of Love (1983) and Promises and Lies (1993), reached number one on the UK Albums Chart. The band’s line-up was stable for nearly 29 years, from March 1979 until January 2008, when frontman Ali Campbell left the band; followed shortly thereafter by keyboardist Mickey Virtue. Another member, Astro, remained with the band until November 2013; when he departed the original band to team up with Campbell and Virtue in a new version of UB40. In 2014, legal advice was sought by the original band (now consisting of remaining co-founding members drummer Jimmy Brown, guitarist Robin Campbell, bassist Earl Falconer, percussionist Norman Hassan, and saxophonist Brian Travers, along with new vocalist Duncan Campbell) against the group containing Campbell, Virtue, and Astro over usage of the band name, due to it being used by both parties.

~Wikipedia
UB40 - Classic Album Selection: 1980-1984 (2013) [5CD Box Set]

Release of this 5CD Set: 2013, November, 25 [CD Virgin Records Limited / DEP International (EU), Cat.# 0600753460214 / UPC: 0600753460214]
℗ 2013 Virgin Records Limited © 2013 DEP International.
The copyright in this sound recording is owned by Universal Island Records.
Made in the E.U.

Original Album Selection: UB40 (2013):
UB40 - Classic Album Selection: 1980-1984 (2013) [5CD Box Set]

Disc 1: "Signing Off" (1980)
Reggae, Dub, Electronic | EAC Rip | FLAC, Img+CUE+LOG+Scans-300dpi (PNG) | 66:28 Min. | 415,16 Mb
Label: Virgin Records Limited / DEP International (EU) | Released: 2013-11-25 (1980)

So ubiquitous was UB40’s grip on the pop-reggae market that it may have been difficult for younger fans to comprehend just how their arrival shook up the British musical scene. They appeared just as 2 Tone had peaked and was beginning its slide towards oblivion. Not that it mattered, as few would try to shoehorn the band into that suit. However, the group was no more comfortable within the U.K. reggae axis of Steel Pulse, Aswad, and Matumbi. Their rhythms may have been reggae-based, their music Jamaican-inspired, but UB40 had such an original take on the genre that all comparisons were moot. Even their attack on the singles chart was unusual, as they smacked three double-A-sided singles into the Top Ten in swift succession. By rights, the second 45 should have acted as a taster for their album (it didn’t, coming several months too soon), while the third should have been a spinoff (it wasn’t, boasting two new songs entirely). Regardless, both sides of their debut single — the roots-rocking indictment of politicians’ refusal to relieve famine on “Food for Thought” and the dreamy tribute to Martin Luther “King” — were included, as well as their phenomenal cover of Randy Newman’s “I Think It’s Going to Rain Today” off their second single. The new material was equally strong. The moody roots-fired “Tyler,” which kicks off the set, is a potent condemnation of the U.S. judicial system, while its stellar dub, “25%,” appears later in the set. The smoky Far Eastern-flavored “Burden” explores the dual tugs of national pride and shame over Britain’s oppressive past (and present). If that was a thoughtful number, “Little by Little” was a blatant call for class warfare. Of course, Ali Campbell never raised his voice — he didn’t need to. His words were his sword, and the creamier and sweeter his delivery, the deeper they cut. Their music was just as revolutionary, their sound unlike anything else on either island, from deep dubs shot through with jazzy sax to the bright and breezy instrumental “12 Bar,” with its splendid loose groove transmuted later in the set to the jazzier and smokier “Adella.” Meanwhile, “Food” slams into the dance clubs, and “King” floats to the heavens. It’s hard to believe this is the same UB40 that later topped the U.K. charts with the likes of “Red Red Wine” and “I’ve Got You Babe.” Their fire was dampened quickly, but on Signing Off it blazed high, still accessible to the pop market, but so edgy that even those who are sure there’s nothing about the group to admire will change their tune instantly. ~Review by Jo-Ann Greene~

Tracklist:

01. Tyler (05:51)
02. King (04:32)
03. 12 bar (04:21)
04. Burden of shame (06:27)
05. Adella (03:23)
06. I think it’s going to rain today (03:40)
07. 25% (03:31)
08. Food for thought (04:08)
09. Little by little (03:40)
10. Signing off (04:24)
11. Madame Medusa (012:50)
12. Strange fruit (04:03)
13. Reefer madness (05:08)

EAC log CD1
Exact Audio Copy V1.3 from 2. September 2016

EAC extraction logfile from 23. December 2016, 11:40

Ub40 / Signing Off

Used drive : ATAPI iHAS122 C Adapter: 1 ID: 0

Read mode : Secure
Utilize accurate stream : Yes
Defeat audio cache : Yes
Make use of C2 pointers : No

Read offset correction : 6
Overread into Lead-In and Lead-Out : No
Fill up missing offset samples with silence : Yes
Delete leading and trailing silent blocks : No
Null samples used in CRC calculations : Yes
Used interface : Native Win32 interface for Win NT & 2000

Used output format : Internal WAV Routines
Sample format : 44.100 Hz; 16 Bit; Stereo

TOC of the extracted CD

Track | Start | Length | Start sector | End sector
––––––––––––––––––––––––––––-
1 | 0:00.00 | 5:51.40 | 0 | 26364
2 | 5:51.40 | 4:35.02 | 26365 | 46991
3 | 10:26.42 | 4:24.45 | 46992 | 66836
4 | 14:51.12 | 6:29.10 | 66837 | 96021
5 | 21:20.22 | 3:28.38 | 96022 | 111659
6 | 24:48.60 | 3:41.30 | 111660 | 128264
7 | 28:30.15 | 3:31.07 | 128265 | 144096
8 | 32:01.22 | 4:10.08 | 144097 | 162854
9 | 36:11.30 | 3:44.50 | 162855 | 179704
10 | 39:56.05 | 4:24.72 | 179705 | 199576
11 | 44:21.02 | 12:52.73 | 199577 | 257549
12 | 57:14.00 | 4:05.65 | 257550 | 275989
13 | 61:19.65 | 5:08.62 | 275990 | 299151

Range status and errors

Selected range

Filename C:UsersArturDesktopUb40 – Signing Off.wav

Peak level 99.9 %
Extraction speed 9.3 X
Range quality 100.0 %
Test CRC C947FC8D
Copy CRC C947FC8D
Copy OK

No errors occurred

End of status report

–– CUETools DB Plugin V2.1.6

[CTDB TOCID: JTelrc0aLOBQ9H2DibqJyzqYt7E-] found
Submit result: JTelrc0aLOBQ9H2DibqJyzqYt7E- has been confirmed
Track | CTDB Status
1 | (130/134) Accurately ripped
2 | (131/134) Accurately ripped
3 | (131/134) Accurately ripped
4 | (132/134) Accurately ripped
5 | (133/134) Accurately ripped
6 | (132/134) Accurately ripped
7 | (130/134) Accurately ripped
8 | (133/134) Accurately ripped
9 | (132/134) Accurately ripped
10 | (131/134) Accurately ripped
11 | (129/134) Accurately ripped
12 | (130/134) Accurately ripped
13 | (129/134) Accurately ripped

==== Log checksum B193EB9A76C42FE2C13C0217D3EBCABBCB0BA816F98DCF79F295F56526CCC6A2 ====

Dynamic Range Meter log CD1
––––––––––––––––––––––––––––––––––––––––
Analyzed: Ub40 / Signing Off
––––––––––––––––––––––––––––––––––––––––

DR Peak RMS Duration Track
––––––––––––––––––––––––––––––––––––––––
DR13 -0.39 dB -15.97 dB 5:52 01-Tyler
DR12 -0.72 dB -16.13 dB 4:35 02-King
DR15 0.00 dB -17.49 dB 4:25 03-12 Bar
DR14 -0.93 dB -17.58 dB 6:29 04-Burden Of Shame
DR15 -2.44 dB -20.67 dB 3:29 05-Adella
DR15 -2.34 dB -19.14 dB 3:41 06-I Think It’s Going To Rain Again
DR16 -1.34 dB -20.55 dB 3:31 07-25%
DR13 -2.45 dB -17.52 dB 4:10 08-Food For Thought
DR14 -1.52 dB -17.75 dB 3:45 09-Little By Little
DR14 -1.24 dB -17.83 dB 4:25 10-Signing Off
DR12 -0.98 dB -16.33 dB 12:53 11-Madame Medusa
DR15 -0.33 dB -17.63 dB 4:06 12-Strange Fruit
DR13 -0.05 dB -14.99 dB 5:09 13-Reefer Madness
––––––––––––––––––––––––––––––––––––––––

Number of tracks: 13
Official DR value: DR14

Samplerate: 44100 Hz
Channels: 2
Bits per sample: 16
Bitrate: 829 kbps
Codec: FLAC
================================================================================

UB40 - Classic Album Selection: 1980-1984 (2013) [5CD Box Set]

Disc 2: "Present Arms" (1981)
Reggae, Dub, Electronic | EAC Rip | FLAC, Img+CUE+LOG+Scans-300dpi (PNG) | 48:00 Min. | 304,50 Mb
Label: Virgin Records Limited / DEP International (EU) | Released: 2013-11-25 (1981)

The popular perception of UB40 as a band who cling to the coattails of true reggae artists is partially merited, given their ’90s karaoke-quality interpretations of popular standards in a Jamaican rub-a-dub style. But with albums such as their debut and this, admittedly a more uneven effort, their affection for the music was self-evidently genuine and generally well observed. Their conscience-driven lyrics (“One in Ten” especially) are heartfelt and convincing, though Ali Campbell’s Rastabrummyfarian voice takes some getting used to. ~Review by Alex Ogg~

Tracklist:

01. Present arms (04:08)
02. Sardonicus (04:29)
03. Don’t let it pass you by (07:44)
04. Wild cat (03:03)
05. One in ten (04:32)
06. Don’t slow down (04:28)
07. Silent witness (04:15)
08. Lamb’s bread (04:48)
09. Don’t walk on the grass (05:07)
10. Dr. X (05:20)

EAC log CD2
Exact Audio Copy V1.3 from 2. September 2016

EAC extraction logfile from 23. December 2016, 11:59

UB40 / Present Arms

Used drive : ATAPI iHAS122 C Adapter: 1 ID: 0

Read mode : Secure
Utilize accurate stream : Yes
Defeat audio cache : Yes
Make use of C2 pointers : No

Read offset correction : 6
Overread into Lead-In and Lead-Out : No
Fill up missing offset samples with silence : Yes
Delete leading and trailing silent blocks : No
Null samples used in CRC calculations : Yes
Used interface : Native Win32 interface for Win NT & 2000

Used output format : Internal WAV Routines
Sample format : 44.100 Hz; 16 Bit; Stereo

TOC of the extracted CD

Track | Start | Length | Start sector | End sector
––––––––––––––––––––––––––––-
1 | 0:00.00 | 4:08.32 | 0 | 18631
2 | 4:08.32 | 4:29.15 | 18632 | 38821
3 | 8:37.47 | 7:45.00 | 38822 | 73696
4 | 16:22.47 | 3:04.00 | 73697 | 87496
5 | 19:26.47 | 4:32.68 | 87497 | 107964
6 | 23:59.40 | 4:28.50 | 107965 | 128114
7 | 28:28.15 | 4:15.07 | 128115 | 147246
8 | 32:43.22 | 4:48.45 | 147247 | 168891
9 | 37:31.67 | 5:07.35 | 168892 | 191951
10 | 42:39.27 | 5:20.55 | 191952 | 216006

Range status and errors

Selected range

Filename C:UsersArturDesktopUB40UB40 – Present Arms.wav

Peak level 100.0 %
Extraction speed 8.0 X
Range quality 99.9 %
Test CRC 188B2E32
Copy CRC 188B2E32
Copy OK

No errors occurred

End of status report

–– CUETools DB Plugin V2.1.6

[CTDB TOCID: 8WyQZezy6dGVB4vdjjB8EC1K9gI-] found
Submit result: 8WyQZezy6dGVB4vdjjB8EC1K9gI- has been confirmed
Track | CTDB Status
1 | (68/70) Accurately ripped
2 | (69/70) Accurately ripped
3 | (67/70) Accurately ripped
4 | (67/70) Accurately ripped
5 | (69/70) Accurately ripped
6 | (69/70) Accurately ripped
7 | (68/70) Accurately ripped
8 | (69/70) Accurately ripped
9 | (66/70) Accurately ripped
10 | (64/70) Accurately ripped

==== Log checksum 7034F39EC28C9A81B3E0169A54166A81F8EEB56C294835306665C3C04BB061EF ====

Dynamic Range Meter log CD2
––––––––––––––––––––––––––––––––––––––––
Analyzed: UB40 / Present Arms
––––––––––––––––––––––––––––––––––––––––

DR Peak RMS Duration Track
––––––––––––––––––––––––––––––––––––––––
DR14 -0.25 dB -16.06 dB 4:08 01-Present Arms
DR13 -1.59 dB -16.91 dB 4:29 02-Sardonicus
DR13 -1.89 dB -16.85 dB 7:45 03-Don’t Let It Pass You By
DR14 -2.12 dB -17.02 dB 3:04 04-Wild Cat
DR14 -1.12 dB -16.79 dB 4:33 05-One In Ten
DR15 0.00 dB -17.45 dB 4:29 06-Don’t Slow Down
DR14 -0.89 dB -17.99 dB 4:15 07-Silent Witness
DR13 -1.47 dB -17.01 dB 4:49 08-Lamb’s Bread
DR13 -1.44 dB -16.46 dB 5:07 09-Don’t Walk On The Grass
DR14 -2.08 dB -18.04 dB 5:21 10-Dr X
––––––––––––––––––––––––––––––––––––––––

Number of tracks: 10
Official DR value: DR14

Samplerate: 44100 Hz
Channels: 2
Bits per sample: 16
Bitrate: 842 kbps
Codec: FLAC
================================================================================

UB40 - Classic Album Selection: 1980-1984 (2013) [5CD Box Set]

Disc 3: "UB44" (1982)
Reggae, Dub, Electronic | EAC Rip | FLAC, Img+CUE+LOG+Scans-300dpi (PNG) | 40:17 Min. | 255,15 Mb
Label: Virgin Records Limited / DEP International (EU) | Released: 2013-11-25 (1982)

UB40s third album, not counting The Singles Album, which summed up their short career to date, or the Present Arms in Dub remixed dub version of the second album, was a step away from the brooding soulful reggae that one had come to expect from experiencing Signing Off and Present Arms. Despite the fact that by 1982 the 2 Tone sound of the Specials had vanished and other successful ska bands had moved on, notably Madness, UB40 released a mixture of horn-driven pop/ska and reggae songs that, in the main, had two major faults, a lack of melody, which never helps any style of music, and a loss of the sense of political injustice that had dominated the first two albums. It couldn’t have been easy; all their vitriol had been directed against the government of Margaret Thatcher and how, in their opinion, the fabric of the country was systematically being destroyed, but late in 1982, the government was riding a wave of popularity, having won the war in the Falklands, and it was suddenly out of step to disagree with them. Although UB44 hit number four, the singles released were at a low point, all three of them — “So Here I Am,” “I Won’t Close My Eyes,” and “Love Is Here Is Alright” — all failing to hit the higher regions of the singles chart, and without melody, UB40 songs tended to have little to offer. As “The Key” merged into “Don’t Do the Crime” into “Folitician,” it was difficult to appreciate that one song had ended and a new song had begun. A change of direction was called for, and after a live album released early in 1983, UB40 Live, the band found their way again big time with their next project, Labour of Love. ~Review by Sharon Mawer~

Tracklist:

01. So here I am (03:54)
02. I won’t close my eyes (03:45)
03. Forget the cost (04:22)
04. Love is all is alright (04:57)
05. The piper calls the tune (03:50)
06. The key (05:05)
07. Don’t do the crime (04:12)
08. Folitician (04:10)
09. The prisoner (05:57)

EAC log CD3
Exact Audio Copy V1.3 from 2. September 2016

EAC extraction logfile from 23. December 2016, 13:04

UB40 / UB44

Used drive : ATAPI iHAS122 C Adapter: 1 ID: 0

Read mode : Secure
Utilize accurate stream : Yes
Defeat audio cache : Yes
Make use of C2 pointers : No

Read offset correction : 6
Overread into Lead-In and Lead-Out : No
Fill up missing offset samples with silence : Yes
Delete leading and trailing silent blocks : No
Null samples used in CRC calculations : Yes
Used interface : Native Win32 interface for Win NT & 2000

Used output format : Internal WAV Routines
Sample format : 44.100 Hz; 16 Bit; Stereo

TOC of the extracted CD

Track | Start | Length | Start sector | End sector
––––––––––––––––––––––––––––-
1 | 0:00.00 | 3:54.37 | 0 | 17586
2 | 3:54.37 | 3:46.50 | 17587 | 34586
3 | 7:41.12 | 4:22.45 | 34587 | 54281
4 | 12:03.57 | 4:57.03 | 54282 | 76559
5 | 17:00.60 | 3:50.17 | 76560 | 93826
6 | 20:51.02 | 5:05.35 | 93827 | 116736
7 | 25:56.37 | 4:12.58 | 116737 | 135694
8 | 30:09.20 | 4:10.12 | 135695 | 154456
9 | 34:19.32 | 5:57.43 | 154457 | 181274

Range status and errors

Selected range

Filename C:UsersArturDesktopUB40UB40 – UB44.wav

Peak level 96.9 %
Extraction speed 7.8 X
Range quality 100.0 %
Test CRC A2FF5486
Copy CRC A2FF5486
Copy OK

No errors occurred

End of status report

–– CUETools DB Plugin V2.1.6

[CTDB TOCID: 4mwXEEFFjrMR8HkocfvwraUNBs8-] found
Submit result: 4mwXEEFFjrMR8HkocfvwraUNBs8- has been confirmed
Track | CTDB Status
1 | (38/38) Accurately ripped
2 | (38/38) Accurately ripped
3 | (38/38) Accurately ripped
4 | (38/38) Accurately ripped
5 | (38/38) Accurately ripped
6 | (38/38) Accurately ripped
7 | (38/38) Accurately ripped
8 | (38/38) Accurately ripped
9 | (38/38) Accurately ripped

==== Log checksum 7B95E8A96F093B63647974B4F5B023D551B2DF453FF22FC675256BEA5DC63CB6 ====

Dynamic Range Meter log CD3
––––––––––––––––––––––––––––––––––––––––
Analyzed: UB40 / UB44
––––––––––––––––––––––––––––––––––––––––

DR Peak RMS Duration Track
––––––––––––––––––––––––––––––––––––––––
DR14 -0.30 dB -16.11 dB 3:54 01-So Here I Am
DR15 -0.99 dB -17.83 dB 3:47 02-I Won’t Close My Eyes
DR14 -1.20 dB -17.22 dB 4:23 03-Forget The Cost
DR16 -2.17 dB -19.88 dB 4:57 04-Love Is All Is Alright
DR14 -2.29 dB -18.34 dB 3:50 05-The Piper Calls The Tune
DR14 -2.41 dB -18.33 dB 5:05 06-The Key
DR15 -0.27 dB -16.90 dB 4:13 07-Don’t Do The Crime
DR15 -1.44 dB -17.36 dB 4:10 08-Folitician
DR15 -0.29 dB -17.52 dB 5:58 09-The Prisoner
––––––––––––––––––––––––––––––––––––––––

Number of tracks: 9
Official DR value: DR15

Samplerate: 44100 Hz
Channels: 2
Bits per sample: 16
Bitrate: 841 kbps
Codec: FLAC
================================================================================

UB40 - Classic Album Selection: 1980-1984 (2013) [5CD Box Set]

Disc 4: "Labour Of Love" (1983)
Reggae, Dub, Electronic | EAC Rip | FLAC, Img+CUE+LOG+Scans-300dpi (PNG) | 40:01 Min. | 251,84 Mb
Label: Virgin Records Limited / DEP International (EU) | Released: 2013-11-25 (1983)

A victim of both overexposure and embracement from privileged hedonists around the globe, UB40’s Labour of Love is still a near perfect album, one filled with warmth and an infectious love of the music it’s covering. Then there’s that reggae version of “Red Red Wine” that spills out of yachts, frat parties, soirees by the pool, water parks, and just about anywhere there are sun-seeking tourists. Delivered with a drunken sway, the band’s cover of the Neil Diamond favorite also features a new toasted/rapped break in the middle, which comes courtesy of UB40 MC Astro and adds so much mirth and fun to the number that Diamond lifted it for his own live show. Even if omnipresence has since made it pop-reggae’s “Don’t Worry Be Happy,” the U.K. crew’s version is in the Jamaican tradition of covering sweet, soothing tunes that pre-date lovers rock, plus the rest of this all-cover-versions album sticks with the classic reggae songbook, as even the Impressions’ “Keep on Moving” is done in a style that honors the 1973 recording from Bob Marley & the Wailers. If “Red Red Wine” is effortless almost to a fault, Jimmy Cliff’s “Many Rivers to Cross” is performed with full heart and can rock the soul’s foundation, while “Johnny Too Bad” is just spiky enough to bring reminders of the group’s birth in the time and land of post-punk. Everything else is A- at worst, and the end-to-end LP flow is classic while recontextualizing “Red Red Wine” for the better. Put it on at a party and spill beer on it if you must, because the resilient Labour of Love is true sweetness and light. ~Review by David Jeffries~

Tracklist:

01. Cherry Oh Baby (03:18)
02. Keep On Moving (04:39)
03. Please Don’t Make Me Cry (03:26)
04. Sweet Sensation (03:38)
05. Johnny Too Bad (05:02)
06. Red Red Wine (05:18)
07. Guilty (03:16)
08. She Caught The Train (03:15)
09. Version Girl (03:26)
10. Many Rivers To Cross (04:33)

EAC log CD4
Exact Audio Copy V1.3 from 2. September 2016

EAC extraction logfile from 23. December 2016, 13:22

UB40 / Labour Of Love

Used drive : ATAPI iHAS122 C Adapter: 1 ID: 0

Read mode : Secure
Utilize accurate stream : Yes
Defeat audio cache : Yes
Make use of C2 pointers : No

Read offset correction : 6
Overread into Lead-In and Lead-Out : No
Fill up missing offset samples with silence : Yes
Delete leading and trailing silent blocks : No
Null samples used in CRC calculations : Yes
Used interface : Native Win32 interface for Win NT & 2000

Used output format : Internal WAV Routines
Sample format : 44.100 Hz; 16 Bit; Stereo

TOC of the extracted CD

Track | Start | Length | Start sector | End sector
––––––––––––––––––––––––––––-
1 | 0:00.00 | 3:18.25 | 0 | 14874
2 | 3:18.25 | 4:39.32 | 14875 | 35831
3 | 7:57.57 | 3:26.13 | 35832 | 51294
4 | 11:23.70 | 3:38.72 | 51295 | 67716
5 | 15:02.67 | 5:02.08 | 67717 | 90374
6 | 20:05.00 | 5:20.65 | 90375 | 114439
7 | 25:25.65 | 3:16.30 | 114440 | 129169
8 | 28:42.20 | 3:17.30 | 129170 | 143974
9 | 31:59.50 | 3:28.02 | 143975 | 159576
10 | 35:27.52 | 4:33.23 | 159577 | 180074

Range status and errors

Selected range

Filename C:UsersArturDesktopUB40UB40 – Labour Of Love.wav

Peak level 96.4 %
Extraction speed 7.6 X
Range quality 99.9 %
Test CRC AC7DF7BB
Copy CRC AC7DF7BB
Copy OK

No errors occurred

End of status report

–– CUETools DB Plugin V2.1.6

[CTDB TOCID: 57PV8ydrP0p0jCTH5qH4U93Z1m8-] found
Submit result: 57PV8ydrP0p0jCTH5qH4U93Z1m8- has been confirmed
Track | CTDB Status
1 | (120/121) Accurately ripped
2 | (121/121) Accurately ripped
3 | (118/121) Accurately ripped
4 | (120/121) Accurately ripped
5 | (119/121) Accurately ripped
6 | (120/121) Accurately ripped
7 | (120/121) Accurately ripped
8 | (120/121) Accurately ripped
9 | (121/121) Accurately ripped
10 | (120/121) Accurately ripped

==== Log checksum EACF9EAA80E45DE5E2DDF7D8C34A9AC021468F0FBE701B3B6B511537B042866D ====

Dynamic Range Meter log CD4
––––––––––––––––––––––––––––––––––––––––
Analyzed: UB40 / Labour Of Love
––––––––––––––––––––––––––––––––––––––––

DR Peak RMS Duration Track
––––––––––––––––––––––––––––––––––––––––
DR15 -1.07 dB -17.24 dB 3:18 01-Cherry oh baby
DR13 -4.70 dB -18.46 dB 4:39 02-Keep on moving
DR13 -2.47 dB -16.64 dB 3:26 03-Please don’t make me cry
DR14 -3.61 dB -19.18 dB 3:39 04-Sweet sensation
DR14 -3.90 dB -19.35 dB 5:02 05-Johnny too bad
DR14 -0.32 dB -17.42 dB 5:21 06-Red red wine
DR13 -4.08 dB -18.64 dB 3:16 07-Guilty
DR13 -2.37 dB -17.03 dB 3:17 08-She caught the train
DR15 -0.35 dB -17.49 dB 3:28 09-Version girl
DR12 -3.27 dB -16.67 dB 4:33 10-Many rivers to cross
––––––––––––––––––––––––––––––––––––––––

Number of tracks: 10
Official DR value: DR13

Samplerate: 44100 Hz
Channels: 2
Bits per sample: 16
Bitrate: 836 kbps
Codec: FLAC
================================================================================

UB40 - Classic Album Selection: 1980-1984 (2013) [5CD Box Set]

Disc 5: "Geffery Morgan…" (1984)
Reggae, Dub, Electronic | EAC Rip | FLAC, Img+CUE+LOG+Scans-300dpi (PNG) | 39:36 Min. | 260,71 Mb
Label: Virgin Records Limited / DEP International (EU) | Released: 2013-11-25 (1984)

UB40 was faced with following up the surprisingly successful covers album Labour Of Love (which had topped the U.K. chart, and become their U.S. chart debut) with this album of original material. Their own songs were good, but no match for what then seemed a one-of-a-kind collection. “If It Happens Again,” which went to Number Nine in Britain, sounded like a song by The English Beat, while the second single, “Riddle Me” (at Number 59), was a deeper reggae groove tune. It was a good set, but without a classic like “Red, Red Wine,” it suffered from a certain anonymity, especially in the U.S. ~Review by William Ruhlmann~

Tracklist:

01. Riddle Me (03:59)
02. As Always You Were Wrong Again (03:36)
03. If It Happens Again (03:41)
04. D.U.B. (04:49)
05. The Pillow (03:25)
06. Nkomo a Go Go (03:06)
07. Seasons (03:48)
08. You’re Not an Army (03:46)
09. I’m Not Fooled So Easily (04:13)
10. Your Eyes Were Open (04:59)

EAC log CD5
Exact Audio Copy V1.3 from 2. September 2016

EAC extraction logfile from 23. December 2016, 14:08

UB40 / Geffery Morgan

Used drive : ATAPI iHAS122 C Adapter: 1 ID: 0

Read mode : Secure
Utilize accurate stream : Yes
Defeat audio cache : Yes
Make use of C2 pointers : No

Read offset correction : 6
Overread into Lead-In and Lead-Out : No
Fill up missing offset samples with silence : Yes
Delete leading and trailing silent blocks : No
Null samples used in CRC calculations : Yes
Used interface : Native Win32 interface for Win NT & 2000

Used output format : Internal WAV Routines
Sample format : 44.100 Hz; 16 Bit; Stereo

TOC of the extracted CD

Track | Start | Length | Start sector | End sector
––––––––––––––––––––––––––––-
1 | 0:00.33 | 3:58.05 | 33 | 17887
2 | 3:58.38 | 3:37.57 | 17888 | 34219
3 | 7:36.20 | 3:44.50 | 34220 | 51069
4 | 11:20.70 | 4:51.73 | 51070 | 72967
5 | 16:12.68 | 3:29.25 | 72968 | 88667
6 | 19:42.18 | 3:06.30 | 88668 | 102647
7 | 22:48.48 | 3:48.02 | 102648 | 119749
8 | 26:36.50 | 3:46.33 | 119750 | 136732
9 | 30:23.08 | 4:14.37 | 136733 | 155819
10 | 34:37.45 | 4:59.53 | 155820 | 178297

Range status and errors

Selected range

Filename C:UsersArturDesktopUB40UB40 – Geffery Morgan.wav

Peak level 99.8 %
Extraction speed 7.7 X
Range quality 100.0 %
Test CRC 64B1BED5
Copy CRC 64B1BED5
Copy OK

No errors occurred

End of status report

–– CUETools DB Plugin V2.1.6

[CTDB TOCID: BT7WukjLXU0xzvvFo9CD29t_Tjs-] found
Submit result: BT7WukjLXU0xzvvFo9CD29t_Tjs- has been confirmed
Track | CTDB Status
1 | (16/16) Accurately ripped
2 | (16/16) Accurately ripped
3 | (16/16) Accurately ripped
4 | (16/16) Accurately ripped
5 | (16/16) Accurately ripped
6 | (16/16) Accurately ripped
7 | (16/16) Accurately ripped
8 | (16/16) Accurately ripped
9 | (16/16) Accurately ripped
10 | (16/16) Accurately ripped

==== Log checksum 0222F8207426C9C81B46890D05C7A8B216454F18AD7AC06DC6754BFA239CAB52 ====

Dynamic Range Meter log CD5
––––––––––––––––––––––––––––––––––––––––
Analyzed: UB40 / Geffery Morgan
––––––––––––––––––––––––––––––––––––––––

DR Peak RMS Duration Track
––––––––––––––––––––––––––––––––––––––––
DR12 -1.60 dB -14.95 dB 3:58 01-Riddle Me
DR14 -0.02 dB -16.78 dB 3:38 02-As Always You Were Wrong Again
DR14 -0.01 dB -14.91 dB 3:45 03-If It Happens Again
DR14 -0.55 dB -16.48 dB 4:52 04-D.U.B.
DR14 -0.01 dB -15.61 dB 3:29 05-The Pillow
DR14 -0.01 dB -14.85 dB 3:06 06-Nkomo A Go Go
DR15 -0.33 dB -16.99 dB 3:48 07-Seasons
DR13 -1.13 dB -16.13 dB 3:46 08-You’re Not An Army
DR14 -0.72 dB -16.70 dB 4:14 09-I’m Not Fooled So Easily
DR14 -1.63 dB -16.86 dB 5:00 10-Your Eyes Were Open
––––––––––––––––––––––––––––––––––––––––

Number of tracks: 10
Official DR value: DR14

Samplerate: 44100 Hz
Channels: 2
Bits per sample: 16
Bitrate: 874 kbps
Codec: FLAC
================================================================================

All thanks to London

See also:
UB40 – Red Red Wine: The Collecton (2014)

UB40 – Classic Album Selection: 1980-1984 (2013) [5CD Box Set] Download, Warez, DDL, Free, Full Album, Torrent, Legal.

Download


  • Recent Posts

  • Recent Tags