Tyshawn Sorey – Vermisilitude (2017)

Download
Tyshawn Sorey - Vermisilitude (2017)

Tyshawn Sorey – Vermisilitude
EAC Rip | FLAC (tracks)+cue, log, m3u, front cover | 78:54 min | 336 MB
Label: Pi Recordings – PI70 | Tracks: 05 | Rls.date: 2017
Jazz

‘Verisimilitude’ continues drummer/composer Tyshawn Sorey’s effort to shatter the jazz piano trio tradition by extending the form to encompass the influence of the likes of Feldman, Debussy and Xenakis.

One of the most in-demand drummers in improvised music – he has collaborated extensively with the likes of John Zorn, Vijay Iyer, Steve Lehman, Claire Chase, George Lewis, and Roscoe Mitchell, among myriad others – Sorey is also in the vanguard of artists working in that liminal space between spontaneous composition and notated music. The New Yorker calls Sorey "among the most formidable denizens of [that] in-between zone," while The Wall Street Journal has called him "a composer of radical and seemingly boundless ideas."

Featuring Cory Smythe on piano and Chris Tordini on bass, the trio’s first release, ‘Alloy’ (Pi 2014), was described as "shadowy and elegant" by The New York Times. His 2015 release, ‘The Inner Spectrum of Variables’, which also features the same group joined by a string trio, was called "devastatingly gorgeous" by The Chicago Reader and "a genuine masterwork" by Stereogum. The new work utilizes a wide array of percussion, along with judicious use of electronics to explore a wider textural soundscape. The result is a far-reaching and intensely beautiful work that daringly blurs the boundaries between composition and improvisation.

TRACKLIST
01 Cascade in Slow Motion
02 Flowers for Prashant
03 Obsidian
04 Algid November
05 Contemplating Tranquility

PERSONNEL
Tyshawn Sorey (drums, percussion)
Corey Smythe (piano, toy piano, electronics)
Chris Tordini (bass)

EAC Log
Exact Audio Copy V1.3 from 2. September 2016

EAC extraction logfile from 27. July 2017, 18:13

Tyshawn Sorey / Verisimilitude

Used drive : HL-DT-STBDDVDRW GBC-H20L Adapter: 1 ID: 0

Read mode : Secure
Utilize accurate stream : Yes
Defeat audio cache : Yes
Make use of C2 pointers : No

Read offset correction : 667
Overread into Lead-In and Lead-Out : No
Fill up missing offset samples with silence : Yes
Delete leading and trailing silent blocks : No
Null samples used in CRC calculations : Yes
Used interface : Native Win32 interface for Win NT & 2000
Gap handling : Appended to previous track

Used output format : User Defined Encoder
Selected bitrate : 768 kBit/s
Quality : High
Add ID3 tag : No
Command line compressor : C:Program Files (x86)Exact Audio CopyFLACFLAC.EXE
Additional command line options : -8 -e -p -V -T "ARTIST=%artist%" -T "TITLE=%title%" -T "ALBUM=%albumtitle%" -T "DATE=%year%" -T "TRACKNUMBER=%tracknr%" -T "GENRE=%genre%" -T "PERFORMER=%albuminterpret%" -T "COMPOSER=%composer%" %haslyrics%–tag-from-file=LYRICS="%lyricsfile%"%haslyrics% -T "ALBUMARTIST=%albumartist%" -T "DISCNUMBER=%cdnumber%" -T "TOTALDISCS=%totalcds%" -T "TOTALTRACKS=%numtracks%" -T "COMMENT=%comment%" %source% -o %dest%

TOC of the extracted CD

Track | Start | Length | Start sector | End sector
––––––––––––––––––––––––––––-
1 | 0:00.00 | 4:26.00 | 0 | 19949
2 | 4:26.00 | 10:43.17 | 19950 | 68191
3 | 15:09.17 | 18:04.63 | 68192 | 149554
4 | 33:14.05 | 30:49.17 | 149555 | 288246
5 | 64:03.22 | 14:52.23 | 288247 | 355169

Track 1

Filename Z:mediaripsTyshawn Sorey – Vermisilitude1 Cascade in Slow Motion.wav

Pre-gap length 0:00:02.00

Peak level 88.1 %
Extraction speed 4.7 X
Track quality 100.0 %
Test CRC 17C4EBCF
Copy CRC 17C4EBCF
Track not present in AccurateRip database
Copy OK

Track 2

Filename Z:mediaripsTyshawn Sorey – Vermisilitude2 Flowers for Prashant.wav

Peak level 75.5 %
Extraction speed 5.9 X
Track quality 100.0 %
Test CRC 16FD1E13
Copy CRC 16FD1E13
Track not present in AccurateRip database
Copy OK

Track 3

Filename Z:mediaripsTyshawn Sorey – Vermisilitude3 Obsidian.wav

Peak level 88.5 %
Extraction speed 7.3 X
Track quality 100.0 %
Test CRC BB1A71B8
Copy CRC BB1A71B8
Track not present in AccurateRip database
Copy OK

Track 4

Filename Z:mediaripsTyshawn Sorey – Vermisilitude4 Algid November.wav

Peak level 88.8 %
Extraction speed 8.9 X
Track quality 99.9 %
Test CRC 61092A96
Copy CRC 61092A96
Track not present in AccurateRip database
Copy OK

Track 5

Filename Z:mediaripsTyshawn Sorey – Vermisilitude5 Contemplating Tranquility.wav

Peak level 62.8 %
Extraction speed 10.3 X
Track quality 100.0 %
Test CRC C3D1340C
Copy CRC C3D1340C
Track not present in AccurateRip database
Copy OK

None of the tracks are present in the AccurateRip database

No errors occurred

End of status report

==== Log checksum DC02B29EC5939855E2907AD77401C514E0A06340DACA81485B5E98A13E385946 ====

Thanks to the Original customer.

Tyshawn Sorey – Vermisilitude (2017) Download, Warez, DDL, Free, Full Album, Torrent, Legal.

Tags:

  • Tyshawn Sorey - Verisimilitude lossless
Download