Triumph – Diamond Collection (2010) [10 CD Vinyl Replica Box Set] | ViralVideoPk

Daily Dose of Free Downloads

Triumph – Diamond Collection (2010) [10 CD Vinyl Replica Box Set]

Download

Triumph - Diamond Collection (2010) [10 CD Vinyl Replica Box Set]

Triumph – Diamond Collection (2010)
EAC | Flac(Image) + Cue + Log & MP3 CBR 320Kbps
Frontiers Records, FR CD 502 | ~ 3320 or 1168 Mb | Scans Included
Hard Rock / Classic Rock

Triumph is a Canadian hard rock band that was popular in the late 1970s through the 1980s. Eight of the band’s albums were certified gold or higher, and Triumph was nominated for multiple Juno Awards, including Group of the Year Award in 1979, 1985, 1986 and 1987.

Like their fellow Canadians Rush and Saga, Triumph began building their reputation across North America as a live band, peaking in the early to mid 1980s. The band was formed by Toronto music veterans Gil Moore (drums, vocals) and Mike Levine (bass, keyboards, producer), after meeting guitarist, singer, songwriter Rik Emmett in a manager’s office in Toronto in 1975.

The band signed at RCA in 1978 and changed to MCA in 1984.

~ discogs

Triumph - Diamond Collection (2010) [10 CD Vinyl Replica Box Set]

Triumph at Wiki | Triumph at Discogs | Triumph at Allmusic | Triumph HomePage

***********

Triumph - Diamond Collection (2010) [10 CD Vinyl Replica Box Set]

Triumph – Diamond Collection (2010):

Triumph - Diamond Collection (2010) [10 CD Vinyl Replica Box Set]

Tracklist CD01 – 1976 – Triumph:

01. 24 Hours A Day [04:29]
02. Be My Lover [03:19]
03. Don’t Take My Life [05:02]
04. Street Fighter [03:28]
05. Street Fighter Reprise [03:02]
06. What’s Another Day of Rock’n’Roll [04:51]
07. Easy Life [03:55]
08. Let Me Get Next To You [03:02]
09. Blinding Light Show/Moonchild [08:44]

EAC Log
Exact Audio Copy V0.99 prebeta 5 from 4. May 2009

EAC extraction logfile from 1. January 2011, 22:12

Triumph / Diamond Collection

Used drive : ASUS DRW-20B1ST Adapter: 2 ID: 1

Read mode : Secure
Utilize accurate stream : Yes
Defeat audio cache : Yes
Make use of C2 pointers : No

Read offset correction : 6
Overread into Lead-In and Lead-Out : No
Fill up missing offset samples with silence : Yes
Delete leading and trailing silent blocks : No
Null samples used in CRC calculations : Yes
Used interface : Native Win32 interface for Win NT & 2000

Used output format : Monkey’s Audio Lossless Encoder
Selected bitrate : High Lossless Compression
Quality : High
Add ID3 tag : No
Command line compressor : C:Program Files (x86)Monkey’s AudioMAC.exe
Additional command line options : -v

TOC of the extracted CD

Track | Start | Length | Start sector | End sector
––––––––––––––––––––––––––––-
1 | 0:00.51 | 4:29.47 | 51 | 20272
2 | 4:30.23 | 3:19.10 | 20273 | 35207
3 | 7:49.33 | 5:02.00 | 35208 | 57857
4 | 12:51.33 | 3:28.05 | 57858 | 73462
5 | 16:19.38 | 3:02.28 | 73463 | 87140
6 | 19:21.66 | 4:51.30 | 87141 | 108995
7 | 24:13.21 | 3:55.65 | 108996 | 126685
8 | 28:09.11 | 3:02.12 | 126686 | 140347
9 | 31:11.23 | 8:44.33 | 140348 | 179680

Range status and errors

Selected range

Filename E:Triumph – Diamond Collection.ape – 2010.wav

Peak level 100.0 %
Range quality 100.0 %
Copy CRC 31EA166E
Copy OK

No errors occurred

AccurateRip summary

Track 1 accurately ripped (confidence 2) [91313E2C]
Track 2 accurately ripped (confidence 2) [F14423C9]
Track 3 accurately ripped (confidence 2) [A7905A0E]
Track 4 accurately ripped (confidence 2) [5F998E7A]
Track 5 accurately ripped (confidence 2) [12D5DA73]
Track 6 accurately ripped (confidence 2) [4722003A]
Track 7 accurately ripped (confidence 2) [8F469289]
Track 8 accurately ripped (confidence 2) [A9EB43D6]
Track 9 accurately ripped (confidence 2) [8BD7C85A]

All tracks accurately ripped

End of status report

Triumph - Diamond Collection (2010) [10 CD Vinyl Replica Box Set]

Tracklist CD02 – 1977 – Rock & Roll Machine:

01. Takes Time [03:49]
02. Bringing It On Home [04:36]
03. Little Texas Shaker [03:26]
04. New York City Streets – Part 1 [03:09]
05. New York City Streets – Part 2 [04:42]
06. The City [09:31]
07. Rocky Mountain Way [04:06]
08. Rock & Roll Machine [06:58]

EAC Log
Exact Audio Copy V0.99 prebeta 5 from 4. May 2009

EAC extraction logfile from 2. January 2011, 12:49

Triumph / Rock & Roll Machine

Used drive : ASUS DRW-20B1ST Adapter: 2 ID: 1

Read mode : Secure
Utilize accurate stream : Yes
Defeat audio cache : Yes
Make use of C2 pointers : No

Read offset correction : 6
Overread into Lead-In and Lead-Out : No
Fill up missing offset samples with silence : Yes
Delete leading and trailing silent blocks : No
Null samples used in CRC calculations : Yes
Used interface : Native Win32 interface for Win NT & 2000

Used output format : Monkey’s Audio Lossless Encoder
Selected bitrate : High Lossless Compression
Quality : High
Add ID3 tag : No
Command line compressor : C:Program Files (x86)Monkey’s AudioMAC.exe
Additional command line options : -v

TOC of the extracted CD

Track | Start | Length | Start sector | End sector
––––––––––––––––––––––––––––-
1 | 0:00.00 | 3:49.44 | 0 | 17218
2 | 3:49.44 | 4:36.31 | 17219 | 37949
3 | 8:26.00 | 3:26.04 | 37950 | 53403
4 | 11:52.04 | 3:09.08 | 53404 | 67586
5 | 15:01.12 | 4:42.34 | 67587 | 88770
6 | 19:43.46 | 9:31.65 | 88771 | 131660
7 | 29:15.36 | 4:06.41 | 131661 | 150151
8 | 33:22.02 | 6:58.25 | 150152 | 181526

Range status and errors

Selected range

Filename E:Triumph – Rock & Roll Machine.ape – 2010.wav

Peak level 100.0 %
Range quality 100.0 %
Copy CRC A622F2C3
Copy OK

No errors occurred

AccurateRip summary

Track 1 cannot be verified as accurate (confidence 4) [45488C79], AccurateRip returned [89C3BC09]
Track 2 cannot be verified as accurate (confidence 3) [40042E69], AccurateRip returned [D8912A1D]
Track 3 cannot be verified as accurate (confidence 4) [C5F35420], AccurateRip returned [8ED4F0C0]
Track 4 cannot be verified as accurate (confidence 3) [A775386D], AccurateRip returned [BBB6A417]
Track 5 cannot be verified as accurate (confidence 4) [59A40825], AccurateRip returned [E34F8704]
Track 6 cannot be verified as accurate (confidence 4) [507BA8A4], AccurateRip returned [4C776F35]
Track 7 cannot be verified as accurate (confidence 3) [6F22111F], AccurateRip returned [71A51A0D]
Track 8 cannot be verified as accurate (confidence 4) [EE939633], AccurateRip returned [6EF2947B]

No tracks could be verified as accurate
You may have a different pressing from the one(s) in the database

End of status report

Triumph - Diamond Collection (2010) [10 CD Vinyl Replica Box Set]

Tracklist CD03 – 1979 – Just A Game:

01. Movin’On [04:07]
02. Lay It On The Line [04:05]
03. Young Enough To Cry [06:03]
04. American Girls [05:03]
05. Just A Game [06:13]
06. Fantasy Serenade [01:41]
07. Hold On [06:06]
08. Suitcase Blues [03:04]

EAC Log
Exact Audio Copy V0.99 prebeta 5 from 4. May 2009

EAC extraction logfile from 4. January 2011, 1:53

Triumph / Just a Game

Used drive : ASUS DRW-20B1ST Adapter: 2 ID: 1

Read mode : Secure
Utilize accurate stream : Yes
Defeat audio cache : Yes
Make use of C2 pointers : No

Read offset correction : 6
Overread into Lead-In and Lead-Out : No
Fill up missing offset samples with silence : Yes
Delete leading and trailing silent blocks : No
Null samples used in CRC calculations : Yes
Used interface : Native Win32 interface for Win NT & 2000

Used output format : Monkey’s Audio Lossless Encoder
Selected bitrate : High Lossless Compression
Quality : High
Add ID3 tag : No
Command line compressor : C:Program Files (x86)Monkey’s AudioMAC.exe
Additional command line options : -v

TOC of the extracted CD

Track | Start | Length | Start sector | End sector
––––––––––––––––––––––––––––-
1 | 0:00.00 | 4:07.53 | 0 | 18577
2 | 4:07.53 | 4:05.34 | 18578 | 36986
3 | 8:13.12 | 6:03.34 | 36987 | 64245
4 | 14:16.46 | 5:03.11 | 64246 | 86981
5 | 19:19.57 | 6:13.03 | 86982 | 114959
6 | 25:32.60 | 1:41.31 | 114960 | 122565
7 | 27:14.16 | 6:06.48 | 122566 | 150063
8 | 33:20.64 | 3:04.36 | 150064 | 163899

Range status and errors

Selected range

Filename E:Triumph – Just a Game.ape – 2010.wav

Peak level 100.0 %
Range quality 99.9 %
Copy CRC B96A5D36
Copy OK

No errors occurred

AccurateRip summary

Track 1 cannot be verified as accurate (confidence 17) [5AEE1D02], AccurateRip returned [62D5E2FA]
Track 2 cannot be verified as accurate (confidence 17) [99795B9D], AccurateRip returned [A31693ED]
Track 3 cannot be verified as accurate (confidence 17) [7A55B9F0], AccurateRip returned [EFEA1929]
Track 4 cannot be verified as accurate (confidence 17) [441973DD], AccurateRip returned [36F42515]
Track 5 cannot be verified as accurate (confidence 17) [9D1ED1E5], AccurateRip returned [0D381A88]
Track 6 cannot be verified as accurate (confidence 17) [BDE5BE9F], AccurateRip returned [09DF5348]
Track 7 cannot be verified as accurate (confidence 17) [98FD20E1], AccurateRip returned [B019BE80]
Track 8 cannot be verified as accurate (confidence 17) [20092C17], AccurateRip returned [16DF911F]

No tracks could be verified as accurate
You may have a different pressing from the one(s) in the database

End of status report

Triumph - Diamond Collection (2010) [10 CD Vinyl Replica Box Set]

Tracklist CD04 – 1980 – Progressions Of Power:

01. I Live For The Weekend [05:19]
02. I Can Survive [03:58]
03. In The Night [06:16]
04. Natures Child [05:41]
05. Woman In Love [04:40]
06. Take My Heart [03:29]
07. Tear The Roof Off [04:19]
08. Fingertalkin’ [01:59]
09. Hard Road [05:25]

EAC Log
Exact Audio Copy V0.99 prebeta 5 from 4. May 2009

EAC extraction logfile from 4. January 2011, 2:46

Triumph / Progressions of Power

Used drive : ASUS DRW-20B1ST Adapter: 2 ID: 1

Read mode : Secure
Utilize accurate stream : Yes
Defeat audio cache : Yes
Make use of C2 pointers : No

Read offset correction : 6
Overread into Lead-In and Lead-Out : No
Fill up missing offset samples with silence : Yes
Delete leading and trailing silent blocks : No
Null samples used in CRC calculations : Yes
Used interface : Native Win32 interface for Win NT & 2000

Used output format : Monkey’s Audio Lossless Encoder
Selected bitrate : High Lossless Compression
Quality : High
Add ID3 tag : No
Command line compressor : C:Program Files (x86)Monkey’s AudioMAC.exe
Additional command line options : -v

TOC of the extracted CD

Track | Start | Length | Start sector | End sector
––––––––––––––––––––––––––––-
1 | 0:00.00 | 5:19.20 | 0 | 23944
2 | 5:19.20 | 3:58.41 | 23945 | 41835
3 | 9:17.61 | 6:16.61 | 41836 | 70096
4 | 15:34.47 | 5:41.62 | 70097 | 95733
5 | 21:16.34 | 4:40.41 | 95734 | 116774
6 | 25:57.00 | 3:29.03 | 116775 | 132452
7 | 29:26.03 | 4:19.33 | 132453 | 151910
8 | 33:45.36 | 1:59.02 | 151911 | 160837
9 | 35:44.38 | 5:25.59 | 160838 | 185271

Range status and errors

Selected range

Filename E:Triumph – Progressions of Power.ape – 2010.wav

Peak level 99.8 %
Range quality 100.0 %
Copy CRC 04802781
Copy OK

No errors occurred

AccurateRip summary

Track 1 cannot be verified as accurate (confidence 2) [B38FC18C], AccurateRip returned [2C431002]
Track 2 cannot be verified as accurate (confidence 2) [5514DC26], AccurateRip returned [14FDA5B4]
Track 3 cannot be verified as accurate (confidence 2) [A0139E56], AccurateRip returned [406E5242]
Track 4 cannot be verified as accurate (confidence 2) [6A3FC8BF], AccurateRip returned [3A4D0C08]
Track 5 cannot be verified as accurate (confidence 2) [77AB04A9], AccurateRip returned [5834C255]
Track 6 cannot be verified as accurate (confidence 2) [A16A10D0], AccurateRip returned [737FC2E9]
Track 7 cannot be verified as accurate (confidence 2) [266C390C], AccurateRip returned [2240EA43]
Track 8 cannot be verified as accurate (confidence 2) [BB786685], AccurateRip returned [C390D862]
Track 9 cannot be verified as accurate (confidence 2) [F1413393], AccurateRip returned [72FFD339]

No tracks could be verified as accurate
You may have a different pressing from the one(s) in the database

End of status report

Triumph - Diamond Collection (2010) [10 CD Vinyl Replica Box Set]

Tracklist CD05 – 1981 – Allied Forces:

01. Fool For Your Love [04:32]
02. Magic Power [04:55]
03. Air Raid [01:20]
04. Allied Forces [05:04]
05. THot Time(In This City Tonight) [03:24]
06. Fight The Good Fight [06:31]
07. Ordinary Man [07:17]
08. Petite Etude [01:16]
09. Say Goodbye [04:34]

EAC Log
Exact Audio Copy V0.99 prebeta 5 from 4. May 2009

EAC extraction logfile from 6. January 2011, 11:08

Triumph / Allied Forces

Used drive : ASUS DRW-20B1ST Adapter: 2 ID: 1

Read mode : Secure
Utilize accurate stream : Yes
Defeat audio cache : Yes
Make use of C2 pointers : No

Read offset correction : 6
Overread into Lead-In and Lead-Out : No
Fill up missing offset samples with silence : Yes
Delete leading and trailing silent blocks : No
Null samples used in CRC calculations : Yes
Used interface : Native Win32 interface for Win NT & 2000

Used output format : Monkey’s Audio Lossless Encoder
Selected bitrate : High Lossless Compression
Quality : High
Add ID3 tag : No
Command line compressor : C:Program Files (x86)Monkey’s AudioMAC.exe
Additional command line options : -v

TOC of the extracted CD

Track | Start | Length | Start sector | End sector
––––––––––––––––––––––––––––-
1 | 0:00.00 | 4:32.40 | 0 | 20439
2 | 4:32.40 | 4:55.35 | 20440 | 42599
3 | 9:28.00 | 1:20.05 | 42600 | 48604
4 | 10:48.05 | 5:04.44 | 48605 | 71448
5 | 15:52.49 | 3:24.63 | 71449 | 86811
6 | 19:17.37 | 6:31.13 | 86812 | 116149
7 | 25:48.50 | 7:17.23 | 116150 | 148947
8 | 33:05.73 | 1:16.40 | 148948 | 154687
9 | 34:22.38 | 4:34.71 | 154688 | 175308

Range status and errors

Selected range

Filename E:Triumph – Allied Forces.ape – 2010.wav

Peak level 99.9 %
Range quality 100.0 %
Copy CRC 06618A67
Copy OK

No errors occurred

AccurateRip summary

Track 1 cannot be verified as accurate (confidence 18) [C5BFBBCC], AccurateRip returned [BB5E0763]
Track 2 cannot be verified as accurate (confidence 18) [846BA5B9], AccurateRip returned [4F2C4E2B]
Track 3 cannot be verified as accurate (confidence 18) [9C04C4B6], AccurateRip returned [4528DCEB]
Track 4 cannot be verified as accurate (confidence 18) [445F48E4], AccurateRip returned [9AD77C22]
Track 5 cannot be verified as accurate (confidence 18) [377868F9], AccurateRip returned [0D3BA829]
Track 6 cannot be verified as accurate (confidence 18) [186F8924], AccurateRip returned [5B6E31E4]
Track 7 cannot be verified as accurate (confidence 18) [C632E570], AccurateRip returned [0A883538]
Track 8 cannot be verified as accurate (confidence 17) [8C17A28D], AccurateRip returned [EE5C0BA5]
Track 9 cannot be verified as accurate (confidence 17) [FDDC4F3E], AccurateRip returned [E9CAE26E]

No tracks could be verified as accurate
You may have a different pressing from the one(s) in the database

End of status report

Triumph - Diamond Collection (2010) [10 CD Vinyl Replica Box Set]

Tracklist CD06 – 1982 – Never Surrender:

01. Too Much Thinking [05:39]
02. A World Of Fantasy [05:01]
03. A Minor Prelude [00:41]
04. All The Way [03:42]
05. Battle Cry [04:59]
06. Overture [01:53]
07. Never Surrender [06:41]
08. When The Lights Go Down [05:06]
09. Writing On The Wall [03:38]
10. Epilogue [02:45]

EAC Log
Exact Audio Copy V0.99 prebeta 5 from 4. May 2009

EAC extraction logfile from 6. January 2011, 11:27

Triumph / Never Surrender

Used drive : ASUS DRW-20B1ST Adapter: 2 ID: 1

Read mode : Secure
Utilize accurate stream : Yes
Defeat audio cache : Yes
Make use of C2 pointers : No

Read offset correction : 6
Overread into Lead-In and Lead-Out : No
Fill up missing offset samples with silence : Yes
Delete leading and trailing silent blocks : No
Null samples used in CRC calculations : Yes
Used interface : Native Win32 interface for Win NT & 2000

Used output format : Monkey’s Audio Lossless Encoder
Selected bitrate : High Lossless Compression
Quality : High
Add ID3 tag : No
Command line compressor : C:Program Files (x86)Monkey’s AudioMAC.exe
Additional command line options : -v

TOC of the extracted CD

Track | Start | Length | Start sector | End sector
––––––––––––––––––––––––––––-
1 | 0:00.00 | 5:39.34 | 0 | 25458
2 | 5:39.34 | 5:01.53 | 25459 | 48086
3 | 10:41.12 | 0:41.51 | 48087 | 51212
4 | 11:22.63 | 3:42.61 | 51213 | 67923
5 | 15:05.49 | 4:59.27 | 67924 | 90375
6 | 20:05.01 | 1:53.31 | 90376 | 98881
7 | 21:58.32 | 6:41.44 | 98882 | 129000
8 | 28:40.01 | 5:06.36 | 129001 | 151986
9 | 33:46.37 | 3:38.55 | 151987 | 168391
10 | 37:25.17 | 2:45.69 | 168392 | 180835

Range status and errors

Selected range

Filename E:Triumph – Never Surrender.ape – 2010.wav

Peak level 100.0 %
Range quality 99.9 %
Copy CRC 914ABDBD
Copy OK

No errors occurred

AccurateRip summary

Track 1 cannot be verified as accurate (confidence 9) [973F6110], AccurateRip returned [5FB0914E]
Track 2 cannot be verified as accurate (confidence 9) [C87F266E], AccurateRip returned [4E2C1E31]
Track 3 cannot be verified as accurate (confidence 9) [A3F80F5F], AccurateRip returned [8314C0C1]
Track 4 cannot be verified as accurate (confidence 9) [286CA785], AccurateRip returned [6992A7F6]
Track 5 cannot be verified as accurate (confidence 9) [B0152FC4], AccurateRip returned [C82A8C80]
Track 6 cannot be verified as accurate (confidence 9) [95D16B76], AccurateRip returned [798305D4]
Track 7 cannot be verified as accurate (confidence 9) [B0E34DEF], AccurateRip returned [4D26637F]
Track 8 cannot be verified as accurate (confidence 9) [7FAC7F0D], AccurateRip returned [B362CCA1]
Track 9 cannot be verified as accurate (confidence 9) [4449D6F3], AccurateRip returned [4C049572]
Track 10 cannot be verified as accurate (confidence 9) [980300CC], AccurateRip returned [73065E1B]

No tracks could be verified as accurate
You may have a different pressing from the one(s) in the database

End of status report

Triumph - Diamond Collection (2010) [10 CD Vinyl Replica Box Set]

Tracklist CD07 – 1984 – Thunder Seven:

01. Spellbound [05:14]
02. Rock Out,Roll On [05:17]
03. Cool Down [04:50]
04. Follow Your Heart [03:35]
05. Time Goes By [06:02]
06. Midsummer’s daydream [01:40]
07. Time Canon [01:33]
08. Killing Time [04:17]
09. Stranger In A Srtrange Land [05:13]
10. Little Boy Blues [03:38]

EAC Log
Exact Audio Copy V0.99 prebeta 5 from 4. May 2009

EAC extraction logfile from 8. January 2011, 12:14

Triumph / Thunder Seven

Used drive : ASUS DRW-20B1ST Adapter: 2 ID: 1

Read mode : Secure
Utilize accurate stream : Yes
Defeat audio cache : Yes
Make use of C2 pointers : No

Read offset correction : 6
Overread into Lead-In and Lead-Out : No
Fill up missing offset samples with silence : Yes
Delete leading and trailing silent blocks : No
Null samples used in CRC calculations : Yes
Used interface : Native Win32 interface for Win NT & 2000

Used output format : Monkey’s Audio Lossless Encoder
Selected bitrate : High Lossless Compression
Quality : High
Add ID3 tag : No
Command line compressor : C:Program Files (x86)Monkey’s AudioMAC.exe
Additional command line options : -v

TOC of the extracted CD

Track | Start | Length | Start sector | End sector
––––––––––––––––––––––––––––-
1 | 0:00.00 | 5:14.59 | 0 | 23608
2 | 5:14.59 | 5:17.47 | 23609 | 47430
3 | 10:32.31 | 4:50.33 | 47431 | 69213
4 | 15:22.64 | 3:35.32 | 69214 | 85370
5 | 18:58.21 | 6:02.58 | 85371 | 112578
6 | 25:01.04 | 1:40.35 | 112579 | 120113
7 | 26:41.39 | 1:33.17 | 120114 | 127105
8 | 28:14.56 | 4:17.60 | 127106 | 146440
9 | 32:32.41 | 5:13.14 | 146441 | 169929
10 | 37:45.55 | 3:38.74 | 169930 | 186353

Range status and errors

Selected range

Filename E:Triumph – Thunder Seven.ape – 2010.wav

Peak level 99.4 %
Range quality 100.0 %
Copy CRC D2D97530
Copy OK

No errors occurred

AccurateRip summary

Track 1 accurately ripped (confidence 3) [07BA6D58]
Track 2 accurately ripped (confidence 3) [F9CB057D]
Track 3 accurately ripped (confidence 3) [66016EDC]
Track 4 accurately ripped (confidence 3) [3EE6DAD4]
Track 5 accurately ripped (confidence 3) [AE5A3BB3]
Track 6 accurately ripped (confidence 3) [0494592B]
Track 7 accurately ripped (confidence 3) [E2F6F3A6]
Track 8 accurately ripped (confidence 3) [33C22ACA]
Track 9 accurately ripped (confidence 3) [D9F567D0]
Track 10 accurately ripped (confidence 3) [413FFF24]

All tracks accurately ripped

End of status report

Triumph - Diamond Collection (2010) [10 CD Vinyl Replica Box Set]

Tracklist CD08 – 1985 – Stages:

01. When The Lights Go Down [06:01]
02. Never Surrender [06:46]
03. Hold On [04:21]
04. Magic Power [06:08]
05. Rock and Roll Machine [10:25]
06. Lay It On The Line [05:03]
07. A World Of Fantasy [08:37]
08. Midsummer’s Daydream [02:43]
09. Spellbound [03:55]
10. Follow Your Heart [03:39]
11. Fight The Good Fight [07:36]
12. Mind Games [04:48]
13. Empty Inside [04:02]

EAC Log
Exact Audio Copy V0.99 prebeta 5 from 4. May 2009

EAC extraction logfile from 8. January 2011, 21:36

Triumph / Stages

Used drive : ASUS DRW-20B1ST Adapter: 2 ID: 1

Read mode : Secure
Utilize accurate stream : Yes
Defeat audio cache : Yes
Make use of C2 pointers : No

Read offset correction : 6
Overread into Lead-In and Lead-Out : No
Fill up missing offset samples with silence : Yes
Delete leading and trailing silent blocks : No
Null samples used in CRC calculations : Yes
Used interface : Native Win32 interface for Win NT & 2000

Used output format : Monkey’s Audio Lossless Encoder
Selected bitrate : High Lossless Compression
Quality : High
Add ID3 tag : No
Command line compressor : C:Program Files (x86)Monkey’s AudioMAC.exe
Additional command line options : -v

TOC of the extracted CD

Track | Start | Length | Start sector | End sector
––––––––––––––––––––––––––––-
1 | 0:00.00 | 6:01.07 | 0 | 27081
2 | 6:01.07 | 6:46.00 | 27082 | 57531
3 | 12:47.07 | 4:21.21 | 57532 | 77127
4 | 17:08.28 | 6:08.68 | 77128 | 104795
5 | 23:17.21 | 10:25.58 | 104796 | 151728
6 | 33:43.04 | 5:03.54 | 151729 | 174507
7 | 38:46.58 | 8:37.72 | 174508 | 213354
8 | 47:24.55 | 2:43.61 | 213355 | 225640
9 | 50:08.41 | 3:55.61 | 225641 | 243326
10 | 54:04.27 | 3:39.65 | 243327 | 259816
11 | 57:44.17 | 7:36.19 | 259817 | 294035
12 | 65:20.36 | 4:48.16 | 294036 | 315651
13 | 70:08.52 | 4:02.69 | 315652 | 333870

Range status and errors

Selected range

Filename E:Triumph – Stages.ape – 2010.wav

Peak level 100.0 %
Range quality 100.0 %
Copy CRC 99C17B3D
Copy OK

No errors occurred

AccurateRip summary

Track 1 cannot be verified as accurate (confidence 4) [CCBD406E], AccurateRip returned [7D569FB4]
Track 2 cannot be verified as accurate (confidence 4) [12CB7007], AccurateRip returned [6C748DD7]
Track 3 cannot be verified as accurate (confidence 4) [93F7CF88], AccurateRip returned [D72D0CE7]
Track 4 cannot be verified as accurate (confidence 5) [5CBE0C92], AccurateRip returned [9275D93F]
Track 5 cannot be verified as accurate (confidence 4) [CE773343], AccurateRip returned [2F8194C7]
Track 6 cannot be verified as accurate (confidence 4) [2C88687C], AccurateRip returned [026C03F2]
Track 7 cannot be verified as accurate (confidence 4) [51BD7290], AccurateRip returned [BFF7A79C]
Track 8 cannot be verified as accurate (confidence 4) [5886BE32], AccurateRip returned [37A2D422]
Track 9 cannot be verified as accurate (confidence 4) [1E92CC96], AccurateRip returned [831D1FA3]
Track 10 cannot be verified as accurate (confidence 4) [E694CEB4], AccurateRip returned [F1B3D1D9]
Track 11 cannot be verified as accurate (confidence 4) [3BD831E9], AccurateRip returned [43305C3E]
Track 12 cannot be verified as accurate (confidence 4) [7FF8A73B], AccurateRip returned [21EBC994]
Track 13 cannot be verified as accurate (confidence 4) [DC3B7F9B], AccurateRip returned [D14089EF]

No tracks could be verified as accurate
You may have a different pressing from the one(s) in the database

End of status report

Triumph - Diamond Collection (2010) [10 CD Vinyl Replica Box Set]

Tracklist CD09 – 1986 – The Sport Of Kings:

01. Tears In The Rain [03:55]
02. Somebody’s Out There [04:04]
03. What Rules My Heart [03:52]
04. If Only [04:00]
05. Hooked On You [03:22]
06. Take A Stand [04:33]
07. Just One Night [03:40]
08. Embrujo(instrumental) [01:29]
09. Play With The Fire [05:18]
10. Don’t Love Anybody But Me [03:55]
11. In The Middle Of The Night [04:34]

EAC Log
Exact Audio Copy V0.99 prebeta 5 from 4. May 2009

EAC extraction logfile from 11. January 2011, 13:42

Triumph / The Sport Of Kings

Used drive : ASUS DRW-20B1ST Adapter: 2 ID: 1

Read mode : Secure
Utilize accurate stream : Yes
Defeat audio cache : Yes
Make use of C2 pointers : No

Read offset correction : 6
Overread into Lead-In and Lead-Out : No
Fill up missing offset samples with silence : Yes
Delete leading and trailing silent blocks : No
Null samples used in CRC calculations : Yes
Used interface : Native Win32 interface for Win NT & 2000

Used output format : Monkey’s Audio Lossless Encoder
Selected bitrate : High Lossless Compression
Quality : High
Add ID3 tag : No
Command line compressor : C:Program Files (x86)Monkey’s AudioMAC.exe
Additional command line options : -v

TOC of the extracted CD

Track | Start | Length | Start sector | End sector
––––––––––––––––––––––––––––-
1 | 0:00.00 | 3:55.17 | 0 | 17641
2 | 3:55.17 | 4:04.43 | 17642 | 35984
3 | 7:59.60 | 3:52.21 | 35985 | 53405
4 | 11:52.06 | 4:00.42 | 53406 | 71447
5 | 15:52.48 | 3:22.70 | 71448 | 86667
6 | 19:15.43 | 4:33.74 | 86668 | 107216
7 | 23:49.42 | 3:40.08 | 107217 | 123724
8 | 27:29.50 | 1:29.30 | 123725 | 130429
9 | 28:59.05 | 5:18.64 | 130430 | 154343
10 | 34:17.69 | 3:55.57 | 154344 | 172025
11 | 38:13.51 | 4:34.21 | 172026 | 192596

Range status and errors

Selected range

Filename E:Triumph – The Sport Of Kings.ape – 2010.wav

Peak level 100.0 %
Range quality 100.0 %
Copy CRC 7A1CC463
Copy OK

No errors occurred

AccurateRip summary

Track 1 cannot be verified as accurate (confidence 5) [1F4A7069], AccurateRip returned [98779D52]
Track 2 cannot be verified as accurate (confidence 5) [BA3AA099], AccurateRip returned [A46285EC]
Track 3 cannot be verified as accurate (confidence 5) [41A7F6DC], AccurateRip returned [6DF66CDA]
Track 4 cannot be verified as accurate (confidence 5) [9C530FF0], AccurateRip returned [92637E6A]
Track 5 cannot be verified as accurate (confidence 5) [EDF3CF51], AccurateRip returned [95009F8C]
Track 6 cannot be verified as accurate (confidence 5) [BA37A405], AccurateRip returned [FA761DFF]
Track 7 cannot be verified as accurate (confidence 5) [2BCCBBAB], AccurateRip returned [DB82AE74]
Track 8 cannot be verified as accurate (confidence 5) [CD4F8959], AccurateRip returned [CBA84757]
Track 9 cannot be verified as accurate (confidence 5) [1E46A919], AccurateRip returned [91C23C39]
Track 10 cannot be verified as accurate (confidence 5) [8F540ECB], AccurateRip returned [270A9539]
Track 11 cannot be verified as accurate (confidence 5) [13D637EA], AccurateRip returned [AADE235C]

No tracks could be verified as accurate
You may have a different pressing from the one(s) in the database

End of status report

Triumph - Diamond Collection (2010) [10 CD Vinyl Replica Box Set]

Tracklist CD10 – 1987 – Surveillance:

01. Prologue:Into The Forever [01:00]
02. Never Say Never [03:38]
03. Headed For Nowhere [06:08]
04. All The King’s Horses [01:46]
05. Carry On The Flame [05:18]
06. Let The Light(Shine On Me) [05:33]
07. Long Time Gone [05:15]
08. Rock You Down [04:01]
09. Prelude: The Waking Dream [01:10]
10. On And On [03:46]
11. All Over Again [03:58]
12. Running In The Night [03:51]

EAC Log
Exact Audio Copy V0.99 prebeta 5 from 4. May 2009

EAC extraction logfile from 15. January 2011, 1:09

Triumph / Surveillance

Used drive : ASUS DRW-20B1ST Adapter: 2 ID: 1

Read mode : Secure
Utilize accurate stream : Yes
Defeat audio cache : Yes
Make use of C2 pointers : No

Read offset correction : 6
Overread into Lead-In and Lead-Out : No
Fill up missing offset samples with silence : Yes
Delete leading and trailing silent blocks : No
Null samples used in CRC calculations : Yes
Used interface : Native Win32 interface for Win NT & 2000

Used output format : Monkey’s Audio Lossless Encoder
Selected bitrate : High Lossless Compression
Quality : High
Add ID3 tag : No
Command line compressor : C:Program Files (x86)Monkey’s AudioMAC.exe
Additional command line options : -v

TOC of the extracted CD

Track | Start | Length | Start sector | End sector
––––––––––––––––––––––––––––-
1 | 0:00.00 | 1:00.41 | 0 | 4540
2 | 1:00.41 | 3:38.48 | 4541 | 20938
3 | 4:39.14 | 6:08.24 | 20939 | 48562
4 | 10:47.38 | 1:46.66 | 48563 | 56578
5 | 12:34.29 | 5:18.40 | 56579 | 80468
6 | 17:52.69 | 5:33.26 | 80469 | 105469
7 | 23:26.20 | 5:15.27 | 105470 | 129121
8 | 28:41.47 | 4:01.33 | 129122 | 147229
9 | 32:43.05 | 1:10.42 | 147230 | 152521
10 | 33:53.47 | 3:47.00 | 152522 | 169546
11 | 37:40.47 | 3:58.08 | 169547 | 187404
12 | 41:38.55 | 3:51.48 | 187405 | 204777

Range status and errors

Selected range

Filename E:Triumph – Surveillance.ape – 2010.wav

Peak level 99.3 %
Range quality 100.0 %
Copy CRC AE472AF9
Copy OK

No errors occurred

AccurateRip summary

Track 1 cannot be verified as accurate (confidence 6) [F2B0824D], AccurateRip returned [D45BC2EC]
Track 2 cannot be verified as accurate (confidence 6) [D60BB022], AccurateRip returned [60BDFA92]
Track 3 cannot be verified as accurate (confidence 6) [53F33DA1], AccurateRip returned [985BB46E]
Track 4 cannot be verified as accurate (confidence 6) [BBA41826], AccurateRip returned [06DC7BFA]
Track 5 cannot be verified as accurate (confidence 6) [818245E4], AccurateRip returned [169902ED]
Track 6 cannot be verified as accurate (confidence 6) [E9ADDEC9], AccurateRip returned [1A29568E]
Track 7 cannot be verified as accurate (confidence 6) [93F26788], AccurateRip returned [9DF8A598]
Track 8 cannot be verified as accurate (confidence 6) [52AC5E4F], AccurateRip returned [8588541B]
Track 9 cannot be verified as accurate (confidence 6) [B06312A8], AccurateRip returned [F0B307B4]
Track 10 cannot be verified as accurate (confidence 6) [2F50E5F8], AccurateRip returned [C91F0E36]
Track 11 cannot be verified as accurate (confidence 6) [30428DAB], AccurateRip returned [4DE70B9C]
Track 12 cannot be verified as accurate (confidence 6) [B0C5CCCF], AccurateRip returned [17624596]

No tracks could be verified as accurate
You may have a different pressing from the one(s) in the database

End of status report

Triumph - Diamond Collection (2010) [10 CD Vinyl Replica Box Set]

All thanks go to Trifolius

Triumph in my Blog

Download Triumph – Diamond Collection (2010):

Triumph – Diamond Collection (2010) [10 CD Vinyl Replica Box Set] Download, Warez, DDL, Free, Full Album, Torrent, Legal.

Download


  • Recent Posts

  • Recent Tags