Triade – 1998: La Storia Di Sabazio (1973) [Reissue 2005]

Download
Triade - 1998: La Storia Di Sabazio (1973) [Reissue 2005]

Triade – 1998: La Storia Di Sabazio (1973) [Reissue 2005]
EAC Rip | FLAC (image+.cue+log) – 210 MB | MP3 CBR 320 kbps (LAME 3.93) – 86 MB | Covers (11 MB) included
Genre: Progressive Rock | RAR 3% Rec. | Label: BTF/Vinyl Magic (VM CD 105)

A trio formed in Florence in the early 70’s by keyboardist Vincenzo Coccimiglio along with bass player Agostino "Tino" Nobile, that had previously played in Noi Tre, a legendary band that also included guitarists Franco Falsini of Sensations’ Fix and Paolo Tofani that was in Area and later known as Electric Frankenstein. After trying various drummers, they found a suitable one in Giorgio Sorano and Triade was born. Signed to the Derby label, the group only released an album and a single in 1973, and had a good live activity supporting the likes of Banco del Mutuo Soccorso and Premiata Forneria Marconi and even playing some dates on their own (like a couple of memorable concerts at Pierlombardo in Milan).
"1998: La Storia Di Sabazio" includes a totally instrumental first side with strong classical influences (much in the ELP direction) and a three-track second side with vocal parts. The album was the result of the different tastes of the two composers, first side being almost completely composed by Coccimiglio, while the second side (that’s sometimes compared with Le Orme) was more song-oriented and composed by Nobile.

Progarchives

Tracklist:
01. Sabazio: Nascita
02. Sabazio: Il Viaggio
03. Sabazio: Il Sogno
04. Sabazio: Vita Nuova
05. Il Circo
06. Espressione
07. Caro Fratello
08. 1998 (Millenovecentonovantotto)

Total time: 31:25

EAC log
Exact Audio Copy V0.99 prebeta 4 from 23. January 2008

EAC extraction logfile from 25. February 2011, 21:14

Triade / 1998: La Storia Di Sabazio

Used drive : Optiarc DVD RW AD-7170S Adapter: 1 ID: 0

Read mode : Secure
Utilize accurate stream : Yes
Defeat audio cache : Yes
Make use of C2 pointers : No

Read offset correction : 48
Overread into Lead-In and Lead-Out : No
Fill up missing offset samples with silence : Yes
Delete leading and trailing silent blocks : No
Null samples used in CRC calculations : Yes
Used interface : Native Win32 interface for Win NT & 2000

Used output format : User Defined Encoder
Selected bitrate : 128 kBit/s
Quality : High
Add ID3 tag : No
Command line compressor : G:Program FilesExact Audio CopyFlacflac.exe
Additional command line options : -8 -V %s

TOC of the extracted CD

Track | Start | Length | Start sector | End sector
––––––––––––––––––––––––––––-
1 | 0:00.00 | 2:59.32 | 0 | 13456
2 | 2:59.32 | 2:39.45 | 13457 | 25426
3 | 5:39.02 | 3:19.63 | 25427 | 40414
4 | 8:58.65 | 3:06.07 | 40415 | 54371
5 | 12:04.72 | 2:50.10 | 54372 | 67131
6 | 14:55.07 | 5:06.58 | 67132 | 90139
7 | 20:01.65 | 5:06.40 | 90140 | 113129
8 | 25:08.30 | 6:16.62 | 113130 | 141391

Range status and errors

Selected range

Filename D:terr83Triade – 1998 La Storia Di Sabazio 1973CDImage.wav

Peak level 100.0 %
Range quality 100.0 %
Test CRC 678C3B48
Copy CRC 678C3B48
Copy OK

No errors occurred

AccurateRip summary

Track 1 accurately ripped (confidence 1) [0A5AB862]
Track 2 accurately ripped (confidence 1) [9867B58A]
Track 3 accurately ripped (confidence 1) [4B11B7BF]
Track 4 accurately ripped (confidence 1) [D00D1DE7]
Track 5 accurately ripped (confidence 1) [AE4BD28D]
Track 6 accurately ripped (confidence 1) [CD8E8C77]
Track 7 accurately ripped (confidence 1) [74C7DDB3]
Track 8 accurately ripped (confidence 1) [A6859DBF]

All tracks accurately ripped

End of status report

CUETools log
[CUETools log; Date: 30.12.2016 13:20:10; Version: 2.1.4]
[CTDB TOCID: 1bamzd.LfITT1NzAhdKFXlxNT7M-] found.
Track | CTDB Status
1 | (1/1) Accurately ripped
2 | (1/1) Accurately ripped
3 | (1/1) Accurately ripped
4 | (1/1) Accurately ripped
5 | (1/1) Accurately ripped
6 | (1/1) Accurately ripped
7 | (1/1) Accurately ripped
8 | (1/1) Accurately ripped
[AccurateRip ID: 000852b9-003930d8-51075d08] found.
Track [ CRC | V2 ] Status
01 [0a5ab862|00f851ca] (1+1/2) Accurately ripped
02 [9867b58a|d756da2f] (1+1/2) Accurately ripped
03 [4b11b7bf|be53efef] (1+1/2) Accurately ripped
04 [d00d1de7|75563415] (1+1/2) Accurately ripped
05 [ae4bd28d|5ae73695] (1+1/2) Accurately ripped
06 [cd8e8c77|b89f7cfd] (1+1/2) Accurately ripped
07 [74c7ddb3|0e97b129] (1+1/2) Accurately ripped
08 [a6859dbf|17dab98e] (1+1/2) Accurately ripped

Track Peak [ CRC32 ] [W/O NULL] [ LOG ]
– 100,0 [678C3B48] [03C18CFB] CRC32
01 100,0 [09293BB6] [2472936C]
02 100,0 [CE079C31] [FD8773A6]
03 97,6 [FC1445D6] [9150B6C3]
04 83,7 [DA15C723] [554967F5]
05 100,0 [2D4934B1] [21B90343]
06 100,0 [ACEE3456] [338CBAA8]
07 99,3 [7A75E751] [828DE50A]
08 100,0 [386C9257] [CFC8196E]

Thanks to terr83

Welcome to My Blog!

Triade – 1998: La Storia Di Sabazio (1973) [Reissue 2005] Download, Warez, DDL, Free, Full Album, Torrent, Legal.

Download