Trees Of Eternity – Hour Of The Nightingale (2016) [Limited Ed.] Digipak

Download
Trees Of Eternity - Hour Of The Nightingale (2016) [Limited Ed.] Digipak

Trees Of Eternity – Hour Of The Nightingale (2016) [Limited Ed.] Digipak
EAC Rip | FLAC: Image+Cue+Log | 446 Mb | MP3 CBR 320 kbps | 173 Mb | Scans | 245 Mb | Time: 01:02:42
Svart Records | SVART058CDBK
Atmospheric Doom Metal/Gothic Metal/Ambient

The first Trees of Eternity full length is an amazing piece of music. Featuring re-recordings of the demo tracks from the first release that show the contributions of the newest members and fresh songs that give a larger scope to the band’s ambition, this fantastic release is sadly the end of an era for a relatively short-lived band but is so very memorable that it will pull at your heartstrings in every way imaginable. ONE OF THE MOST GENTLE VOICES TO BLESS THIS EARTH !!!

Trees Of Eternity - Hour Of The Nightingale (2016) [Limited Ed.] Digipak
Trees Of Eternity
Wikipedia | Amazon | Svart Records

Track Listing

01. My Requiem (06:02)
02. Eye Of Night (06:05)
03. Condemned To Silence (feat. Mick Moss of Antimatter) (05:23)
04. A Million Tears (07:13)
05. Hour Of The Nightingale (05:36)
06. The Passage (06:11)
07. Broken Mirror (05:56)
08. Black Ocean (07:02)
09. Sinking Ships (03:36)
10. Gallows Bird (feat. Nick Holmes of Paradise Lost) (09:38)

Produced by Jens Bogren

The Band

• Aleah Starbridge: vocals
• Juha Raivio (Swallow The Sun) : guitar
• Kai Hahto (Nightwish, Wintersun) : drums
• Mattias Norrman (ex-Katatonia, October Tide): bass
• Fredrik Norrman (ex-Katatonia, October Tide) : guitar

Notes

Limited edition of 250 copies released in 4-panel A5 sized digipak with 24-page A5 sized booklet.
Matrix: DATA-MATE YJ455393632D ETERNITY=

Trees Of Eternity - Hour Of The Nightingale (2016) [Limited Ed.] Digipak
R.I.P.

* Aleah Liane Stanbridge (01.06.1976 – 18.04.2016) †

EAC Log
Exact Audio Copy V1.1 from 23. June 2015

EAC extraction logfile from 27. December 2016, 17:11

Trees Of Eternity / Hour Of The Nightingale

Used drive : PIONEER DVD-RW DVR-111D Adapter: 1 ID: 0

Read mode : Secure
Utilize accurate stream : Yes
Defeat audio cache : Yes
Make use of C2 pointers : No

Read offset correction : 48
Overread into Lead-In and Lead-Out : No
Fill up missing offset samples with silence : Yes
Delete leading and trailing silent blocks : No
Null samples used in CRC calculations : Yes
Used interface : Native Win32 interface for Win NT & 2000

Used output format : User Defined Encoder
Selected bitrate : 1024 kBit/s
Quality : High
Add ID3 tag : No
Command line compressor : D:Flacflac.exe
Additional command line options : -V -8 -T "Date=%year%" -T "Genre=%genre%" %source%

TOC of the extracted CD

Track | Start | Length | Start sector | End sector
––––––––––––––––––––––––––––-
1 | 0:00.00 | 6:02.02 | 0 | 27151
2 | 6:02.02 | 6:04.44 | 27152 | 54495
3 | 12:06.46 | 5:22.43 | 54496 | 78688
4 | 17:29.14 | 7:13.05 | 78689 | 111168
5 | 24:42.19 | 5:35.69 | 111169 | 136362
6 | 30:18.13 | 6:11.00 | 136363 | 164187
7 | 36:29.13 | 5:55.72 | 164188 | 190884
8 | 42:25.10 | 7:01.53 | 190885 | 222512
9 | 49:26.63 | 3:35.72 | 222513 | 238709
10 | 53:02.60 | 9:38.15 | 238710 | 282074

Range status and errors

Selected range

Filename D:Rips from DаrkmindTrees Of Eternity – Hour Of The Nightingale.wav

Peak level 100.0 %
Extraction speed 7.6 X
Range quality 100.0 %
Test CRC E16664A8
Copy CRC E16664A8
Copy OK

No errors occurred

AccurateRip summary

Track 1 not present in database
Track 2 not present in database
Track 3 not present in database
Track 4 not present in database
Track 5 not present in database
Track 6 not present in database
Track 7 not present in database
Track 8 not present in database
Track 9 not present in database
Track 10 not present in database

None of the tracks are present in the AccurateRip database

End of status report

–– CUETools DB Plugin V2.1.6

[CTDB TOCID: vrm.q72ZlnHwvnoIqAeO_OJhidQ-] found
Submit result: already submitted
Track | CTDB Status
1 | (14/14) Accurately ripped
2 | (14/14) Accurately ripped
3 | (14/14) Accurately ripped
4 | (14/14) Accurately ripped
5 | (14/14) Accurately ripped
6 | (14/14) Accurately ripped
7 | (14/14) Accurately ripped
8 | (14/14) Accurately ripped
9 | (14/14) Accurately ripped
10 | (14/14) Accurately ripped

==== Log checksum 73A8B309FA63C3B697C96690943E496C4BA38CD85CA4449ECB0A09E4EED63E5A ====

Many thanks to the original uploader: Dаrkmind

SEE also:
Katatonia 2016 The Fall Of Hearts [Limited Mediabook Edition]

Wintersun 2012 Time I [Limited Ed.] [CD+DVD]

……
Welcome to My Blog for more wonderful music!
……

Trees Of Eternity – Hour Of The Nightingale (2016) [Limited Ed.] Digipak Download, Warez, DDL, Free, Full Album, Torrent, Legal.

Download