Transmission Trio – Tiny Beast (2002)

Download
Transmission Trio - Tiny Beast (2002)

Transmission Trio – Tiny Beast (2002)
XLD Rip | FLAC (tracks+.cue, log) ~ 232.29 Mb | 43:27 | Cover
Free Jazz | Label: Transmission Trio ‎– tran6456

The Transmission Trio is comprised of Colin Stetson (saxes, clarinets), Andrew Kitchen (drums), and Eric Perney (upright bass). Stetson recently performed on the David Letterman Show with Tom Waits, and both Stetson and Perney can be heard on Waits’ 2002 releases Alice and Blood Money. Colin Stetson has also recorded on several of Recloose’s albums, including the very well received 2002 release, Cardiology. The two were joined live this past November for performances in Japan.Now the Transmission Trio is releasing it’s first full length album entitled Tiny Beast.

They have played sold-out shows at NYC’s Knitting Factory, the Empty Bottle in Chicago, Blind Pig in Ann Arbor, the Majestic Theatre in Detroit, and all over the bay area including Storyville, Bruno’s, Luggage Store Gallery, Jupiter, and the Make-out Room.They’ve shared stages with John Zorn, Medeski Martin and Wood, Fishbone, Don Byron, Dave Douglass, and Tim Berne.

Eric Perney has studied both classical and jazz bass playing at the University of Michigan with Stuart Sankey and Rodney Whitaker. Eric has studied improvisation with Fred Frith, Steve Rush, John Clayton, Joelle Leandre and Ed Sarath and has worked with Peter Kowald and Fareed Haque. Eric also plays in various musical projects in San Francisco ranging in style from jazz to Balkan music (the music of Eastern European countries such as Bulgaria and Croatia). You can also hear him on the title track of Tom Waits’ recent release Alice.

Bay Area percussionist Andrew Kitchen has been active as a performer for over 13 years. A Chicago native, he has studied in his hometown and Ann Arbor, MI. with Michael Udow, Gerald Cleaver, Julie Spencer, Stephen Rush, Joel Spencer, and others. While in Ann Arbor at the University of Michigan School of Music he worked to further develop his powerful sense of rhythm and unique sound on the drumset, mixing influences from traditional musics and instruments of India, Japan, and China with contemporary 20th century chamber music from Japan and the U.S.In addition to his work with the Transmission Trio, he can also be heard driving the San Francisco-based instrumental big-band behemoth Boostamonte, a hopped-up, stripped-down hip-hop/funk/Latin fusion big band led by trumpeter and composer Ara Anderson (which also includes Eric Perney on upright bass and Colin Stetson on baritone saxophone). Andrew can be heard on Transmission’s various grass-roots releases, and has also recorded music by Lou Harrison and Gernot Blume for Udow’s Equilibrium label. Some of his music written for the defunct Burns Bros. project can be found under the moniker Ozenfant on the London-based eclectica label Satellites and Clouds.

Colin Stetson grew up in Ann Arbor Mi., where he received a degree in saxophone performance from the University of Michigan Music School. He has studied with a wide variety of performers including Donald Sinta, Roscoe Mitchell, Fred Frith, and Henry Threadgill. In may of 2002, Colin performed on The Late Show with David Letterman with TOM WAITS. He can be heard on Tom’s recent releases Alice and Blood Money as well as numerous albums of Recloose (planet e records), TV ON THE RADIO, and ARCADE FIRE.
Stetson is currently touring with the ARCADE FIRE.

Bass – Eric Perney
Drums – Andrew Kitchen
Saxophone – Colin Stetson

Track List:
01. Hoover Dam (9:43)
02. Shiloh (7:30)
03. Aviary (3:24)
04. Tiny Beast (5:28)
05. Tired Of Winning (6:16)
06. The Life & Times Of Farmer Man-Dog (11:07)

XLD log
X Lossless Decoder version 20110821 (136.1)

XLD extraction logfile from 2011-08-24 21:47:06 -0400

Transmission Trio / Tiny Beast

Used drive : OPTIARC DVD RW AD-5680H (revision 3AHB)

Ripper mode : XLD Secure Ripper
Disable audio cache : OK for the drive with a cache less than 1375KiB
Make use of C2 pointers : NO
Read offset correction : 48
Max retry count : 100
Gap status : Analyzed, Appended (except HTOA)

TOC of the extracted CD
Track | Start | Length | Start sector | End sector
––––––––––––––––––––––––––––-
1 | 00:00:00 | 09:42:52 | 0 | 43701
2 | 09:42:52 | 07:29:62 | 43702 | 77438
3 | 17:12:39 | 03:24:14 | 77439 | 92752
4 | 20:36:53 | 05:28:18 | 92753 | 117370
5 | 26:04:71 | 06:15:44 | 117371 | 145539
6 | 32:20:40 | 11:06:63 | 145540 | 195552

AccurateRip Summary
Disc not found in AccurateRip DB.

All Tracks
Album gain : -1.04 dB
Peak : 0.999969
Statistics
Read error : 0
Jitter error (maybe fixed) : 0
Retry sector count : 0
Damaged sector count : 0

Track 01
Filename : /Users/thekeddys/CD RIPS/Transmission Trio – Tiny Beast (2002) [FLAC]/01 Hoover Dam.flac
Pre-gap length : 00:02:00

Track gain : -2.29 dB
Peak : 0.981354
CRC32 hash (test run) : 5730426A
CRC32 hash : 5730426A
CRC32 hash (skip zero) : DF6421F8
AccurateRip signature : D047E117
->Track not present in AccurateRip database.
Statistics
Read error : 0
Jitter error (maybe fixed) : 0
Retry sector count : 0
Damaged sector count : 0

Track 02
Filename : /Users/thekeddys/CD RIPS/Transmission Trio – Tiny Beast (2002) [FLAC]/02 Shiloh.flac

Track gain : -0.03 dB
Peak : 0.944427
CRC32 hash (test run) : 51BF4773
CRC32 hash : 51BF4773
CRC32 hash (skip zero) : E91220FA
AccurateRip signature : E10BEC36
->Track not present in AccurateRip database.
Statistics
Read error : 0
Jitter error (maybe fixed) : 0
Retry sector count : 0
Damaged sector count : 0

Track 03
Filename : /Users/thekeddys/CD RIPS/Transmission Trio – Tiny Beast (2002) [FLAC]/03 Aviary.flac

Track gain : 3.56 dB
Peak : 0.474365
CRC32 hash (test run) : 6A0D28B6
CRC32 hash : 6A0D28B6
CRC32 hash (skip zero) : 325CDA9F
AccurateRip signature : EB901456
->Track not present in AccurateRip database.
Statistics
Read error : 0
Jitter error (maybe fixed) : 0
Retry sector count : 0
Damaged sector count : 0

Track 04
Filename : /Users/thekeddys/CD RIPS/Transmission Trio – Tiny Beast (2002) [FLAC]/04 Tiny Beast.flac

Track gain : -0.03 dB
Peak : 0.881653
CRC32 hash (test run) : 507945CB
CRC32 hash : 507945CB
CRC32 hash (skip zero) : 3741CCA2
AccurateRip signature : 38A0F66A
->Track not present in AccurateRip database.
Statistics
Read error : 0
Jitter error (maybe fixed) : 0
Retry sector count : 0
Damaged sector count : 0

Track 05
Filename : /Users/thekeddys/CD RIPS/Transmission Trio – Tiny Beast (2002) [FLAC]/05 Tired Of Winning.flac

Track gain : 3.28 dB
Peak : 0.542969
CRC32 hash (test run) : 19134BC3
CRC32 hash : 19134BC3
CRC32 hash (skip zero) : 969C8908
AccurateRip signature : 12859E09
->Track not present in AccurateRip database.
Statistics
Read error : 0
Jitter error (maybe fixed) : 0
Retry sector count : 0
Damaged sector count : 0

Track 06
Filename : /Users/thekeddys/CD RIPS/Transmission Trio – Tiny Beast (2002) [FLAC]/06 The Life & Times Of Farmer Man-Dog.flac

Track gain : -1.71 dB
Peak : 0.999969
CRC32 hash (test run) : 751CE1CD
CRC32 hash : 751CE1CD
CRC32 hash (skip zero) : 6DFE1650
AccurateRip signature : 09D774E9
->Track not present in AccurateRip database.
Statistics
Read error : 0
Jitter error (maybe fixed) : 0
Retry sector count : 0
Damaged sector count : 0

No errors occurred

End of status report

All thanks go to the Original ripper (unknown)

More Music in My Blog
Follow My RSS Channel

Transmission Trio – Tiny Beast (2002) Download, Warez, DDL, Free, Full Album, Torrent, Legal.

Download