TOTO – The Essential TOTO (2004) 2CDs [Re-Up]

Download
TOTO - The Essential TOTO (2004) 2CDs [Re-Up]

TOTO – The Essential TOTO (2004) 2CD
EAC | FLAC | Image (Cue&Log) ~ 1.1 Gb (incl 5%) | Mp3 (CBR320) ~ 366 Mb (incl 5%) | Scans included
Rock, Soft Rock, Adult Contemporary | Label: Columbia | # 518609 2 | Time: 02:29:44

Two CD edition of the Classic Rock/Soft Rock band’s Essential collection containing 18 more tracks than the U.S. single disc pressing. Even in the ’70s, a group made up of L.A. studio musicians was frowned upon by the music industry, but someone forgot to tell the public, who fell in love with the band’s slick, AOR Pop and Toto sold millions of records over the next few decades. This double disc set features 32 tracks including ‘Hold The Line’, ‘Africa’, ‘Rosanna’, ‘I’ll Supply The Love’ and many more.

While there have been a bunch of Toto budget-line compilations over the years, 2003’s The Essential Toto is the first high-profile hits collection since 1990’s Past to Present 1977-1990. At 14 songs, The Essential is one track longer than that compilation, but it shares eight cuts with Past to Present, which, of course, are all the big hits: "Africa," "Hold the Line," "Georgy Porgy," "Rosanna," "I Won’t Hold You Back," "99," and "Pamela." What differentiates the two compilations, then, is that The Essential boasts a much better remastering and a better selection of songs, including the single "Make Believe" and a good selection of album tracks from their peak period, like "I’ll Supply the Love." While this is missing some hits, they’re minor ones that won’t be missed by most listeners – "Live for Today," "Afraid of Love," "Loves in the Night," "Waiting for Your Love," "Stranger in Town," and "Holyanna" – and what’s here is very good, an accurate representation of Toto at their best, making this their best compilation to date. [2004 edition was expanded to two discs and included 18 songs not included on the original issue.]

Review by Stephen Thomas Erlewine, Allmusic.com

TOTO - The Essential TOTO (2004) 2CDs [Re-Up]

Toto at Allmusic
Toto Website
Toto at Wiki

Tracklist:

CD1:

01. Rosanna (04:03)
02. Stop Loving You (04:30)
03. Hold The Line (03:33)
04. Caught In The Balance (06:23)
05. 99 (05:13)
06. The Other Side (04:42)
07. I Won’t Hold You Back (04:58)
08. Africa (04:23)
09. Don’t Chain My Heart (04:44)
10. 2 Hearts (05:09)
11. Waiting For Your Love (04:14)
12. Make Believe (03:45)
13. Goodbye Elenore (04:55)
14. Home Of The Brave (06:47)
15. How Does It Feel (03:52)
16. The Road Goes On (04:24)

CD2:

01. I Will Remember (04:24)
02. Georgy Porgy (04:10)
03. Just Can` t Get To You (05:04)
04. Pamela (04:32)
05. Baby He`s Your Man (05:42)
06. I`ll Supply The Love (03:47)
07. Holyanna (04:17)
08. The Turning Point (04:05)
09. If You Belong To Me (04:01)
10. Can You Hear What I` m Saying (05:00)
11. Slipped Away (05:18)
12. Dave` s Gone Skiing (05:01)
13. Without Your Love (04:31)
14. Stranger In Town (04:45)
15. Til The End (05:29)
16. I`ll Be Over You (03:48)

EAC log CD1
Exact Audio Copy V0.99 prebeta 5 from 4. May 2009

EAC extraction logfile from 13. February 2010, 12:44

TOTO / The Essential TOTO (Disc 1 of 2)

Used drive : HL-DT-STDVD-RAM GH22LS30 Adapter: 1 ID: 2

Read mode : Secure
Utilize accurate stream : Yes
Defeat audio cache : Yes
Make use of C2 pointers : No

Read offset correction : 102
Overread into Lead-In and Lead-Out : No
Fill up missing offset samples with silence : Yes
Delete leading and trailing silent blocks : No
Null samples used in CRC calculations : Yes
Used interface : Native Win32 interface for Win NT & 2000

Used output format : User Defined Encoder
Selected bitrate : 320 kBit/s
Quality : High
Add ID3 tag : No
Command line compressor : C:Program FilesExact Audio Copyflac.exe
Additional command line options : -8 -V -T "artist=%a" -T "title=%t" -T "album=%g" -T "date=%y" -T "tracknumber=%n" -T "genre=%m" -T "comment=EAC V0.99 pЯ 5 & flac 1.2.1 Q8" %s

TOC of the extracted CD

Track | Start | Length | Start sector | End sector
––––––––––––––––––––––––––––-
1 | 0:00.00 | 4:03.38 | 0 | 18262
2 | 4:03.38 | 4:30.45 | 18263 | 38557
3 | 8:34.08 | 3:33.15 | 38558 | 54547
4 | 12:07.23 | 6:23.35 | 54548 | 83307
5 | 18:30.58 | 5:13.55 | 83308 | 106837
6 | 23:44.38 | 4:41.72 | 106838 | 127984
7 | 28:26.35 | 4:58.68 | 127985 | 150402
8 | 33:25.28 | 4:23.33 | 150403 | 170160
9 | 37:48.61 | 4:44.10 | 170161 | 191470
10 | 42:32.71 | 5:08.70 | 191471 | 214640
11 | 47:41.66 | 4:14.46 | 214641 | 233736
12 | 51:56.37 | 3:45.59 | 233737 | 250670
13 | 55:42.21 | 4:55.05 | 250671 | 272800
14 | 60:37.26 | 6:47.53 | 272801 | 303378
15 | 67:25.04 | 3:52.28 | 303379 | 320806
16 | 71:17.32 | 4:24.20 | 320807 | 340626

Range status and errors

Selected range

Filename F:TMPAUDIO_TMPEAC_TMPTOTO – The Essential TOTO (Disc 1 of 2).wav

Peak level 99.9 %
Range quality 100.0 %
Test CRC C5499E00
Copy CRC C5499E00
Copy OK

No errors occurred

AccurateRip summary

Track 1 accurately ripped (confidence 24) [D77AAEB1]
Track 2 accurately ripped (confidence 23) [3A8C126B]
Track 3 accurately ripped (confidence 25) [6A878B54]
Track 4 accurately ripped (confidence 23) [A34A8776]
Track 5 accurately ripped (confidence 24) [AA44C5D8]
Track 6 accurately ripped (confidence 23) [98FE8186]
Track 7 accurately ripped (confidence 24) [0CC20CE7]
Track 8 accurately ripped (confidence 24) [5E25BDB9]
Track 9 accurately ripped (confidence 23) [6A900635]
Track 10 accurately ripped (confidence 24) [E0A796ED]
Track 11 accurately ripped (confidence 23) [EC0A6128]
Track 12 accurately ripped (confidence 23) [38917C64]
Track 13 accurately ripped (confidence 24) [FB23A6DE]
Track 14 accurately ripped (confidence 22) [8AE67B86]
Track 15 accurately ripped (confidence 23) [7886CAB3]
Track 16 accurately ripped (confidence 22) [90669580]

All tracks accurately ripped

End of status report

AR log CD1
[CUETools log; Date: 26.08.2014 16:23:09; Version: 2.1.4]
[CTDB TOCID: WO0i.EhIx8qjVx2c7fzYxmOLMCw-] found.
Track | CTDB Status
1 | (50/50) Accurately ripped
2 | (50/50) Accurately ripped
3 | (49/50) Accurately ripped
4 | (50/50) Accurately ripped
5 | (50/50) Accurately ripped
6 | (49/50) Accurately ripped
7 | (48/50) Accurately ripped
8 | (50/50) Accurately ripped
9 | (50/50) Accurately ripped
10 | (50/50) Accurately ripped
11 | (50/50) Accurately ripped
12 | (50/50) Accurately ripped
13 | (50/50) Accurately ripped
14 | (49/50) Accurately ripped
15 | (50/50) Accurately ripped
16 | (49/50) Accurately ripped
[AccurateRip ID: 002beaf6-021158ff-d911bd10] found.
Track [ CRC | V2 ] Status
01 [d77aaeb1|1d98f8d6] (41+29/82) Accurately ripped
02 [3a8c126b|1e8026ef] (40+29/81) Accurately ripped
03 [6a878b54|a8ff4ccb] (42+29/83) Accurately ripped
04 [a34a8776|a752b174] (40+29/81) Accurately ripped
05 [aa44c5d8|cec0bed7] (41+29/82) Accurately ripped
06 [98fe8186|e1258175] (40+29/81) Accurately ripped
07 [0cc20ce7|2ec2a677] (41+28/81) Accurately ripped
08 [5e25bdb9|aeb2a6cd] (41+29/82) Accurately ripped
09 [6a900635|636f3cea] (40+28/80) Accurately ripped
10 [e0a796ed|2dbdfdf0] (41+28/81) Accurately ripped
11 [ec0a6128|a37c47b0] (40+29/81) Accurately ripped
12 [38917c64|985dfcf4] (40+28/80) Accurately ripped
13 [fb23a6de|a55e23e2] (41+28/81) Accurately ripped
14 [8ae67b86|06c77d7c] (39+28/79) Accurately ripped
15 [7886cab3|aac7946e] (39+30/81) Accurately ripped
16 [90669580|e36d1faf] (39+29/80) Accurately ripped
Offsetted by -48:
01 [4cb32024] (06/82) Accurately ripped
02 [4ceae0db] (06/81) Accurately ripped
03 [10a97ab4] (06/83) Accurately ripped
04 [99814a76] (06/81) Accurately ripped
05 [44276058] (06/82) Accurately ripped
06 [2b2b8566] (06/81) Accurately ripped
07 [00770667] (06/81) Accurately ripped
08 [37748af9] (06/82) Accurately ripped
09 [22439ea5] (06/80) Accurately ripped
10 [1913dd9d] (06/81) Accurately ripped
11 [95ae4b98] (06/81) Accurately ripped
12 [f614e724] (06/80) Accurately ripped
13 [6b56d52e] (06/81) Accurately ripped
14 [dd310a56] (06/79) Accurately ripped
15 [156e29f3] (06/81) Accurately ripped
16 [34c7f5c0] (06/80) Accurately ripped

Track Peak [ CRC32 ] [W/O NULL] [ LOG ]
– 99,9 [C5499E00] [202C7340] CRC32
01 99,9 [EF5CA4BE] [8B28D783]
02 99,9 [C2C65654] [B948E816]
03 99,9 [B48FCC0E] [E35F88C9]
04 91,8 [B4D22CE5] [17CD1A5F]
05 90,6 [5C59EFC7] [C5DD2C1F]
06 89,5 [3529D4C7] [D2577AE8]
07 86,7 [24F44883] [F31DDF66]
08 99,6 [0B4A1F9F] [8EB6BBF8]
09 88,3 [7905D325] [0807582C]
10 87,7 [A72487C2] [E3071868]
11 99,9 [BAA0467C] [0D171AF3]
12 99,7 [83BF2C00] [D35A753F]
13 90,9 [B6892605] [01931899]
14 89,9 [FB7217A4] [DE375FF0]
15 99,9 [6BC5B243] [14694E0D]
16 80,9 [3BFDB756] [88D0DA0E]

DR log CD1
foobar2000 1.2 / Dynamic Range Meter 1.1.1
log date: 2014-08-26 16:32:18

––––––––––––––––––––––––––––––––––––––––
Analyzed: TOTO / The Essential TOTO (Disc 1 of 2)
––––––––––––––––––––––––––––––––––––––––

DR Peak RMS Duration Track
––––––––––––––––––––––––––––––––––––––––
DR10 0.00 dB -12.50 dB 4:04 01-Rosanna
DR9 0.00 dB -11.05 dB 4:31 02-Stop Loving You
DR9 0.00 dB -10.89 dB 3:33 03-Hold The Line
DR8 -0.74 dB -10.31 dB 6:23 04-Caught In The Balance
DR9 -0.85 dB -11.67 dB 5:14 05-99
DR8 -0.96 dB -11.93 dB 4:42 06-The Other Side
DR8 -1.24 dB -12.40 dB 4:59 07-I Won’t Hold You Back
DR10 -0.03 dB -12.17 dB 4:23 08-Africa
DR8 -1.08 dB -11.13 dB 4:44 09-Don’t Chain My Heart
DR9 -1.14 dB -12.13 dB 5:09 10-2 Hearts
DR9 0.00 dB -10.84 dB 4:15 11-Waiting For Your Love
DR10 -0.02 dB -11.82 dB 3:46 12-Make Believe
DR8 -0.83 dB -10.19 dB 4:55 13-Goodbye Elenore
DR9 -0.92 dB -11.38 dB 6:48 14-Home Of The Brave
DR10 0.00 dB -12.74 dB 3:52 15-How Does It Feel
DR7 -1.84 dB -11.36 dB 4:24 16-The Road Goes On
––––––––––––––––––––––––––––––––––––––––

Number of tracks: 16
Official DR value: DR9

Samplerate: 44100 Hz
Channels: 2
Bits per sample: 16
Bitrate: 977 kbps
Codec: FLAC
================================================================================

EAC log CD2
Exact Audio Copy V0.99 prebeta 5 from 4. May 2009

EAC extraction logfile from 13. February 2010, 13:46

TOTO / The Essential TOTO (Disc 2 of 2)

Used drive : HL-DT-STDVD-RAM GH22LS30 Adapter: 1 ID: 2

Read mode : Secure
Utilize accurate stream : Yes
Defeat audio cache : Yes
Make use of C2 pointers : No

Read offset correction : 102
Overread into Lead-In and Lead-Out : No
Fill up missing offset samples with silence : Yes
Delete leading and trailing silent blocks : No
Null samples used in CRC calculations : Yes
Used interface : Native Win32 interface for Win NT & 2000

Used output format : User Defined Encoder
Selected bitrate : 320 kBit/s
Quality : High
Add ID3 tag : No
Command line compressor : C:Program FilesExact Audio Copyflac.exe
Additional command line options : -8 -V -T "artist=%a" -T "title=%t" -T "album=%g" -T "date=%y" -T "tracknumber=%n" -T "genre=%m" -T "comment=EAC V0.99 pЯ 5 & flac 1.2.1 Q8" %s

TOC of the extracted CD

Track | Start | Length | Start sector | End sector
––––––––––––––––––––––––––––-
1 | 0:00.00 | 4:24.10 | 0 | 19809
2 | 4:24.10 | 4:10.54 | 19810 | 38613
3 | 8:34.64 | 5:04.22 | 38614 | 61435
4 | 13:39.11 | 4:32.40 | 61436 | 81875
5 | 18:11.51 | 5:42.65 | 81876 | 107590
6 | 23:54.41 | 3:47.48 | 107591 | 124663
7 | 27:42.14 | 4:17.05 | 124664 | 143943
8 | 31:59.19 | 4:05.40 | 143944 | 162358
9 | 36:04.59 | 4:00.73 | 162359 | 180431
10 | 40:05.57 | 5:00.48 | 180432 | 202979
11 | 45:06.30 | 5:18.13 | 202980 | 226842
12 | 50:24.43 | 5:01.07 | 226843 | 249424
13 | 55:25.50 | 4:31.12 | 249425 | 269761
14 | 59:56.62 | 4:45.67 | 269762 | 291203
15 | 64:42.54 | 5:29.35 | 291204 | 315913
16 | 70:12.14 | 3:48.38 | 315914 | 333051

Range status and errors

Selected range

Filename F:TMPAUDIO_TMPEAC_TMPTOTO – The Essential TOTO (Disc 2 of 2).wav

Peak level 99.9 %
Range quality 99.9 %
Test CRC 8EE5F913
Copy CRC 8EE5F913
Copy OK

No errors occurred

AccurateRip summary

Track 1 accurately ripped (confidence 17) [1EC64813]
Track 2 accurately ripped (confidence 18) [A2210C22]
Track 3 accurately ripped (confidence 18) [64226990]
Track 4 accurately ripped (confidence 18) [BBD9584F]
Track 5 accurately ripped (confidence 18) [3E035F8A]
Track 6 accurately ripped (confidence 18) [A6F19936]
Track 7 accurately ripped (confidence 18) [C6B6236C]
Track 8 accurately ripped (confidence 18) [48340A6C]
Track 9 accurately ripped (confidence 18) [45C64014]
Track 10 accurately ripped (confidence 18) [1D7DEECE]
Track 11 accurately ripped (confidence 18) [170A6581]
Track 12 accurately ripped (confidence 18) [F3F9E6F6]
Track 13 accurately ripped (confidence 17) [F6757A31]
Track 14 accurately ripped (confidence 17) [2742DEA2]
Track 15 accurately ripped (confidence 17) [91D1F4C8]
Track 16 accurately ripped (confidence 16) [A7C4451D]

All tracks accurately ripped

End of status report

AR log CD2
[CUETools log; Date: 26.08.2014 16:23:33; Version: 2.1.4]
[CTDB TOCID: 1zvslubJKWL6UMzAlXavxoPMvQM-] found.
Track | CTDB Status
1 | (48/48) Accurately ripped
2 | (48/48) Accurately ripped
3 | (47/48) Accurately ripped
4 | (48/48) Accurately ripped
5 | (48/48) Accurately ripped
6 | (48/48) Accurately ripped
7 | (48/48) Accurately ripped
8 | (48/48) Accurately ripped
9 | (48/48) Accurately ripped
10 | (47/48) Accurately ripped
11 | (47/48) Accurately ripped
12 | (47/48) Accurately ripped
13 | (47/48) Accurately ripped
14 | (47/48) Accurately ripped
15 | (47/48) Accurately ripped
16 | (48/48) Accurately ripped
[AccurateRip ID: 002ae032-0203d0fd-e2115810] found.
Track [ CRC | V2 ] Status
01 [1ec64813|73075770] (26+14/79) Accurately ripped
02 [a2210c22|8adfdff1] (27+14/80) Accurately ripped
03 [64226990|edff6868] (27+14/80) Accurately ripped
04 [bbd9584f|b30e6ecd] (27+14/79) Accurately ripped
05 [3e035f8a|fba8a9c6] (27+14/80) Accurately ripped
06 [a6f19936|86fdf8be] (27+14/80) Accurately ripped
07 [c6b6236c|77ef9878] (27+14/80) Accurately ripped
08 [48340a6c|7b0e2c09] (26+14/79) Accurately ripped
09 [45c64014|103d5c5b] (27+14/80) Accurately ripped
10 [1d7deece|e3016f82] (27+14/79) Accurately ripped
11 [170a6581|3d48a85f] (27+13/78) Accurately ripped
12 [f3f9e6f6|85635702] (27+14/79) Accurately ripped
13 [f6757a31|629a23d6] (27+14/80) Accurately ripped
14 [2742dea2|5978ab11] (26+13/78) Accurately ripped
15 [91d1f4c8|97a2b78c] (26+12/77) Accurately ripped
16 [a7c4451d|ac726cd3] (25+13/77) Accurately ripped
Offsetted by -647:
01 [3420e553] (06/79) Accurately ripped
02 [6c249e1e] (06/80) Accurately ripped
03 [1080612e] (06/80) Accurately ripped
04 [71ec7a34] (06/79) Accurately ripped
05 [f154b0de] (06/80) Accurately ripped
06 [68eb1829] (06/80) Accurately ripped
07 [708959e8] (06/80) Accurately ripped
08 [8e782d87] (06/79) Accurately ripped
09 [a7090d20] (06/80) Accurately ripped
10 [3d8419b3] (06/79) Accurately ripped
11 [ae1b21b9] (06/78) Accurately ripped
12 [22f7de04] (06/79) Accurately ripped
13 [fb7095b2] (06/80) Accurately ripped
14 [b4f72d00] (06/78) Accurately ripped
15 [dabba519] (06/77) Accurately ripped
16 [2182a948] (06/77) Accurately ripped
Offsetted by -599:
01 [59b74153] (13/79) Accurately ripped
02 [c20d675e] (13/80) Accurately ripped
03 [e4d9f3ce] (13/80) Accurately ripped
04 [614020a4] (12/79) Accurately ripped
05 [4d46be9e] (13/80) Accurately ripped
06 [7f533e39] (13/80) Accurately ripped
07 [3999bb28] (13/80) Accurately ripped
08 [b65cf717] (13/79) Accurately ripped
09 [9a47c160] (13/80) Accurately ripped
10 [f77af023] (12/79) Accurately ripped
11 [03d6a039] (12/78) Accurately ripped
12 [a4083da4] (12/79) Accurately ripped
13 [37366362] (13/80) Accurately ripped
14 [61a623a0] (13/78) Accurately ripped
15 [d28dd1c9] (13/77) Accurately ripped
16 [c89ebc6f] (13/77) Accurately ripped

Track Peak [ CRC32 ] [W/O NULL] [ LOG ]
– 99,9 [8EE5F913] [58C0D517] CRC32
01 90,9 [59E3EA8E] [C6417B01]
02 99,7 [5792B7CC] [C1E06C21]
03 88,4 [48483BC2] [AC6847A5]
04 99,9 [4FDA39F5] [A2351E3F]
05 78,8 [4E1BB03F] [B31FA456]
06 99,9 [7763BD41] [6C6E82E0]
07 99,9 [3A984B54] [40B06EA5]
08 87,5 [6D60F2B0] [81DF7D5C]
09 96,2 [E85B7FD6] [0F192F6A]
10 99,9 [520F73ED] [5FBEEC4A]
11 73,8 [9B4B2F29] [E45E37BA]
12 82,3 [1B992627] [49FAA016]
13 99,9 [15E88611] [6F2CB360]
14 99,9 [45864085] [440BFB57]
15 99,9 [7A4DA614] [8B9FAA4A]
16 93,2 [3E9BABCE] [609EDB1D]

DR log CD2
foobar2000 1.2 / Dynamic Range Meter 1.1.1
log date: 2014-08-26 16:32:44

––––––––––––––––––––––––––––––––––––––––
Analyzed: TOTO / The Essential TOTO (Disc 2 of 2)
––––––––––––––––––––––––––––––––––––––––

DR Peak RMS Duration Track
––––––––––––––––––––––––––––––––––––––––
DR8 -0.82 dB -11.07 dB 4:24 01-I Will Remember
DR10 -0.02 dB -12.52 dB 4:11 02-Georgy Porgy
DR9 -1.07 dB -11.95 dB 5:04 03-Just Can` t Get To You
DR10 0.00 dB -12.15 dB 4:33 04-Pamela
DR8 -2.06 dB -11.07 dB 5:43 05-Baby He`s Your Man
DR9 0.00 dB -10.74 dB 3:48 06-I`ll Supply The Love
DR10 -0.01 dB -11.37 dB 4:17 07-Holyanna
DR8 -1.15 dB -11.34 dB 4:06 08-The Turning Point
DR9 -0.33 dB -12.00 dB 4:01 09-If You Belong To Me
DR9 0.00 dB -11.92 dB 5:01 10-Can You Hear What I` m Saying
DR7 -2.64 dB -12.15 dB 5:18 11-Slipped Away
DR8 -1.69 dB -11.35 dB 5:01 12-Dave` s Gone Skiing
DR10 0.00 dB -12.46 dB 4:31 13-Without Your Love
DR10 0.00 dB -12.07 dB 4:46 14-Stranger In Town
DR11 0.00 dB -12.48 dB 5:29 15-Til The End
DR9 -0.60 dB -12.23 dB 3:49 16-I`ll Be Over You
––––––––––––––––––––––––––––––––––––––––

Number of tracks: 16
Official DR value: DR9

Samplerate: 44100 Hz
Channels: 2
Bits per sample: 16
Bitrate: 971 kbps
Codec: FLAC
================================================================================

TOTO - The Essential TOTO (2004) 2CDs [Re-Up]

TOTO - The Essential TOTO (2004) 2CDs [Re-Up]

All thanks to original releaser – Marwell.

More interesting music in My Blog

Toto – Africa: The Best Of Toto (2009) 2CDs

TOTO – The Essential TOTO (2004) 2CDs [Re-Up] Download, Warez, DDL, Free, Full Album, Torrent, Legal.

Download