Toshiko Akiyoshi Trio – Four Seasons (1990) {1999 Ninety-One/Nippon Crown Co., Ltd.} **[RE-UP]**

Download
Toshiko Akiyoshi Trio - Four Seasons (1990) {1999  Ninety-One/Nippon Crown Co., Ltd.} **[RE-UP]**

Toshiko Akiyoshi Trio – Four Seasons (1990) {1999 Ninety-One/Nippon Crown Co., Ltd.}
EAC Rip | FLAC with CUE and log | scans | 296 mb
MP3 CBR 320kbps | RAR | 127 mb
Genre: jazz

Four Seasons is a 1990 album by pianist Toshiko Akiyoshi and her trio (George Mraz on bass and Lewis Nash on drums.) The album features songs that represent the seasons of the year in full, before returning back to where she began. In this case, it’s done with a bit of ironic humor. This was released by the Ninety-One label through Nippon Crown Co., Ltd in 1999.

Toshiko Akiyoshi Trio - Four Seasons (1990) {1999  Ninety-One/Nippon Crown Co., Ltd.} **[RE-UP]**

1. Spring Is Here
2. Suddenly It Is Spring
3. Summer Time
4. Indian Summer
5. Autumn Sea
6. Autumn Leaves
7. Winter Wonderland
8. Santa Claus Is Coming To Town

Toshiko Akiyoshi-piano
George Mraz-bass
Lewis Nash-drums

Produced by Toshiko Akiyoshi
Engineered by Rudy Van Gelder
Recorded at Van Gelder Studios 2nd & 3rd July, 1990
Mastered by Yukio Kojima

EAC Log
EAC extraction logfile from 20. July 2006, 8:13 for CD
Toshiko Akiyoshi Trio / Four Seasons

Used drive : LITE-ON DVDRW SOHW-1633S Adapter: 0 ID: 0
Read mode : Secure with NO C2, accurate stream, disable cache
Read offset correction : 12
Overread into Lead-In and Lead-Out : No

Used output format : Internal WAV Routines
44.100 Hz; 16 Bit; Stereo

Other options :
Fill up missing offset samples with silence : Yes
Delete leading and trailing silent blocks : No
Installed external ASPI interface

Track 1
Filename D:FLACToshiko Akiyoshi Trio – Four Seasons (1990) [FLAC]1 – Spring Is Here.wav

Pre-gap length 0:00:02.00

Peak level 89.1 %
Track quality 100.0 %
Test CRC 0A5E52E2
Copy CRC 0A5E52E2
Copy OK

Track 2
Filename D:FLACToshiko Akiyoshi Trio – Four Seasons (1990) [FLAC]2 – Suddenly it Is Spring.wav

Pre-gap length 0:00:03.33

Peak level 87.5 %
Track quality 99.9 %
Test CRC 0E41F41A
Copy CRC 0E41F41A
Copy OK

Track 3
Filename D:FLACToshiko Akiyoshi Trio – Four Seasons (1990) [FLAC]3 – Summer Time.wav

Pre-gap length 0:00:02.80

Peak level 76.2 %
Track quality 100.0 %
Test CRC 86F04A12
Copy CRC 86F04A12
Copy OK

Track 4
Filename D:FLACToshiko Akiyoshi Trio – Four Seasons (1990) [FLAC]4 – Indian Summer.wav

Pre-gap length 0:00:02.53

Peak level 75.1 %
Track quality 100.0 %
Test CRC 3A4E24D2
Copy CRC 3A4E24D2
Copy OK

Track 5
Filename D:FLACToshiko Akiyoshi Trio – Four Seasons (1990) [FLAC]5 – Autumn Sea.wav

Pre-gap length 0:00:00.77

Peak level 99.8 %
Track quality 100.0 %
Test CRC 5300F38A
Copy CRC 5300F38A
Copy OK

Track 6
Filename D:FLACToshiko Akiyoshi Trio – Four Seasons (1990) [FLAC]6 – Autumn Leaves.wav

Pre-gap length 0:00:02.37

Peak level 77.1 %
Track quality 100.0 %
Test CRC E00F18CB
Copy CRC E00F18CB
Copy OK

Track 7
Filename D:FLACToshiko Akiyoshi Trio – Four Seasons (1990) [FLAC]7 – Winter Wonderland.wav

Pre-gap length 0:00:02.46

Peak level 84.6 %
Track quality 100.0 %
Test CRC EAA2A23B
Copy CRC EAA2A23B
Copy OK

Track 8
Filename D:FLACToshiko Akiyoshi Trio – Four Seasons (1990) [FLAC]8 – Santa Claus Is Coming To Town.wav

Pre-gap length 0:00:02.20

Peak level 84.3 %
Track quality 100.0 %
Test CRC 78D002ED
Copy CRC 78D002ED
Copy OK

Track 9
Filename D:FLACToshiko Akiyoshi Trio – Four Seasons (1990) [FLAC]9 – Springtime For Hitler.wav

Pre-gap length 0:00:02.60

Peak level 95.0 %
Track quality 99.9 %
Test CRC B89A5E5E
Copy CRC B89A5E5E
Copy OK

No errors occured

End of status report

Toshiko Akiyoshi Trio - Four Seasons (1990) {1999  Ninety-One/Nippon Crown Co., Ltd.} **[RE-UP]**

Check out other titles in my Avaxhome blog or my personal blog.

Toshiko Akiyoshi Trio – Four Seasons (1990) {1999 Ninety-One/Nippon Crown Co., Ltd.} **[RE-UP]** Download, Warez, DDL, Free, Full Album, Torrent, Legal.

Download