Toro Y Moi – Boo Boo (Japanese Edition) (2017)

Download
Toro Y Moi - Boo Boo (Japanese Edition) (2017)

Toro Y Moi – Boo Boo (Japanese Edition)
EAC Rip | FLAC (tracks)+cue, log, front cover | 52:18 min | 305 MB
Label: Hostess Entertainment Unlimited – CAK121J | Tracks: 13 | Rls.date: 2017
Electronic, Chillwave, Psychedelic Pop

"After 7 years of touring and recording, I found myself becoming self conscious about my position in life as a "famous" person, or at least my version of whatever that is. My dreams had become my reality, yet I was somehow unable to accept this new environment. I couldn’t help but fall into what might be described as an identity crisis. A feedback loop of fearful thoughts left me feeling confused. I felt as though I no longer knew what it was that I actually wanted and needed in and out of life, and at times I felt unable to even tell what was real. During this time of personal turmoil, I turned to music as a form of therapy, and it helped me cope with the pain that I was feeling. I’d listen to the same ambient song over and over again, trying to insulate myself from reality. I fell in love with space again. By the time I felt ready to begin working on a new record, I knew that this idea of space within music would be something that propelled my new work forward. The artists that were influencing what I was making included everyone from Travis Scott to Daft Punk, Frank Ocean to Oneohtrix Point Never, Kashif and Gigi Masin. I recognized that the common thread between these artists was their attention to a feeling of space, or lack thereof. I decided that I wanted to make a Pop record with these ideas in mind."

TRACKLIST
1 Mirage 5:09
2 No Show 3:14
3 Mona Lisa 4:15
4 Pavement 2:22
5 Don’t Try 4:25
6 Windows 4:05
7 Embarcadero 2:46
8 Girl Like You 3:43
9 You and I 3:51
10 Labyrinth 4:01
11 Inside My Head 4:11
12 W.I.W.W.T.W. 7:08
13. 13. Tides 02:58 [Japan Bonus Track]

EAC Log
Exact Audio Copy V1.3 from 2. September 2016

EAC extraction logfile from 8. October 2017, 16:49

Toro Y Moi / Boo Boo

Used drive : PLEXTOR DVDR PX-L890SA Adapter: 1 ID: 1

Read mode : Secure
Utilize accurate stream : Yes
Defeat audio cache : Yes
Make use of C2 pointers : No

Read offset correction : 6
Overread into Lead-In and Lead-Out : No
Fill up missing offset samples with silence : Yes
Delete leading and trailing silent blocks : No
Null samples used in CRC calculations : Yes
Used interface : Native Win32 interface for Win NT & 2000
Gap handling : Appended to previous track

Used output format : User Defined Encoder
Selected bitrate : 1024 kBit/s
Quality : High
Add ID3 tag : No
Command line compressor : C:Program Files (x86)Exact Audio CopyFlacflac.exe
Additional command line options : -8 -e -p -V -T "ARTIST=%artist%" -T "TITLE=%title%" -T "ALBUM=%albumtitle%" -T "DATE=%year%" -T "TRACKNUMBER=%tracknr%" -T "GENRE=%genre%" -T "PERFORMER=%albuminterpret%" -T "COMPOSER=%composer%" %haslyrics%–tag-from-file=LYRICS="%lyricsfile%"%haslyrics% -T "ALBUMARTIST=%albumartist%" -T "DISCNUMBER=%cdnumber%" -T "TOTALDISCS=%totalcds%" -T "TOTALTRACKS=%numtracks%" -T "COMMENT=%comment%" %source% -o %dest%

TOC of the extracted CD

Track | Start | Length | Start sector | End sector
––––––––––––––––––––––––––––-
1 | 0:00.00 | 5:09.17 | 0 | 23191
2 | 5:09.17 | 3:14.56 | 23192 | 37797
3 | 8:23.73 | 4:15.17 | 37798 | 56939
4 | 12:39.15 | 2:22.00 | 56940 | 67589
5 | 15:01.15 | 4:25.47 | 67590 | 87511
6 | 19:26.62 | 4:05.61 | 87512 | 105947
7 | 23:32.48 | 2:46.22 | 105948 | 118419
8 | 26:18.70 | 3:43.58 | 118420 | 135202
9 | 30:02.53 | 3:51.18 | 135203 | 152545
10 | 33:53.71 | 4:01.19 | 152546 | 170639
11 | 37:55.15 | 4:11.18 | 170640 | 189482
12 | 42:06.33 | 7:18.72 | 189483 | 222404
13 | 49:25.30 | 2:58.42 | 222405 | 235796

Track 1

Filename C:heirloom ripsToro Y Moi2017 Boo Boo [CAK121J]1 Mirage.wav

Pre-gap length 0:00:02.00

Peak level 99.7 %
Extraction speed 5.2 X
Track quality 100.0 %
Test CRC 8E58B5C9
Copy CRC 8E58B5C9
Track not present in AccurateRip database
Copy OK

Track 2

Filename C:heirloom ripsToro Y Moi2017 Boo Boo [CAK121J]2 No Show.wav

Peak level 99.7 %
Extraction speed 5.4 X
Track quality 100.0 %
Test CRC 7E4D3E34
Copy CRC 7E4D3E34
Track not present in AccurateRip database
Copy OK

Track 3

Filename C:heirloom ripsToro Y Moi2017 Boo Boo [CAK121J]3 Mona Lisa.wav

Peak level 99.7 %
Extraction speed 6.0 X
Track quality 100.0 %
Test CRC 5C3D1634
Copy CRC 5C3D1634
Track not present in AccurateRip database
Copy OK

Track 4

Filename C:heirloom ripsToro Y Moi2017 Boo Boo [CAK121J]4 Pavement.wav

Peak level 98.9 %
Extraction speed 5.7 X
Track quality 100.0 %
Test CRC 761502DD
Copy CRC 761502DD
Track not present in AccurateRip database
Copy OK

Track 5

Filename C:heirloom ripsToro Y Moi2017 Boo Boo [CAK121J]5 Don’t Try.wav

Peak level 99.7 %
Extraction speed 6.8 X
Track quality 100.0 %
Test CRC E3B45783
Copy CRC E3B45783
Track not present in AccurateRip database
Copy OK

Track 6

Filename C:heirloom ripsToro Y Moi2017 Boo Boo [CAK121J]6 Windows.wav

Peak level 99.7 %
Extraction speed 7.1 X
Track quality 100.0 %
Test CRC 00EDD070
Copy CRC 00EDD070
Track not present in AccurateRip database
Copy OK

Track 7

Filename C:heirloom ripsToro Y Moi2017 Boo Boo [CAK121J]7 Embarcadero.wav

Peak level 99.3 %
Extraction speed 6.9 X
Track quality 100.0 %
Test CRC 55F5F1FF
Copy CRC 55F5F1FF
Track not present in AccurateRip database
Copy OK

Track 8

Filename C:heirloom ripsToro Y Moi2017 Boo Boo [CAK121J]8 Girl Like You.wav

Peak level 99.7 %
Extraction speed 6.3 X
Track quality 99.9 %
Test CRC 7CA1055A
Copy CRC 7CA1055A
Track not present in AccurateRip database
Copy OK

Track 9

Filename C:heirloom ripsToro Y Moi2017 Boo Boo [CAK121J]9 You and I.wav

Peak level 99.5 %
Extraction speed 7.8 X
Track quality 100.0 %
Test CRC 2D007D24
Copy CRC 2D007D24
Track not present in AccurateRip database
Copy OK

Track 10

Filename C:heirloom ripsToro Y Moi2017 Boo Boo [CAK121J]10 Labyrinth.wav

Peak level 99.0 %
Extraction speed 8.1 X
Track quality 100.0 %
Test CRC 1BCD820C
Copy CRC 1BCD820C
Track not present in AccurateRip database
Copy OK

Track 11

Filename C:heirloom ripsToro Y Moi2017 Boo Boo [CAK121J]11 Inside My Head.wav

Peak level 99.7 %
Extraction speed 8.5 X
Track quality 100.0 %
Test CRC 8B5EAAD0
Copy CRC 8B5EAAD0
Track not present in AccurateRip database
Copy OK

Track 12

Filename C:heirloom ripsToro Y Moi2017 Boo Boo [CAK121J]12 W.I.W.W.T.W. – (Be).wav

Peak level 99.2 %
Extraction speed 9.4 X
Track quality 100.0 %
Test CRC 3C19937D
Copy CRC 3C19937D
Track not present in AccurateRip database
Copy OK

Track 13

Filename C:heirloom ripsToro Y Moi2017 Boo Boo [CAK121J]13 Tides.wav

Pre-gap length 0:00:10.00

Peak level 93.0 %
Extraction speed 8.8 X
Track quality 100.0 %
Test CRC BAC1F6F1
Copy CRC BAC1F6F1
Track not present in AccurateRip database
Copy OK

None of the tracks are present in the AccurateRip database

No errors occurred

End of status report

–– CUETools DB Plugin V2.1.6

[CTDB TOCID: xhgRhaXwpor4TngP9vwicEW7KoY-] found
Submit result: xhgRhaXwpor4TngP9vwicEW7KoY- has been confirmed
Track | CTDB Status
1 | (1/1) Accurately ripped
2 | (1/1) Accurately ripped
3 | (1/1) Accurately ripped
4 | (1/1) Accurately ripped
5 | (1/1) Accurately ripped
6 | (1/1) Accurately ripped
7 | (1/1) Accurately ripped
8 | (1/1) Accurately ripped
9 | (1/1) Accurately ripped
10 | (1/1) Accurately ripped
11 | (1/1) Accurately ripped
12 | (1/1) Accurately ripped
13 | (1/1) Accurately ripped

==== Log checksum 985C8E82D17F46376854774E5257E9DED523B393FDA459B43F7256DFD0186C48 ====

Thanks to the Original customer.

Toro Y Moi – Boo Boo (Japanese Edition) (2017) Download, Warez, DDL, Free, Full Album, Torrent, Legal.

Download