Tone Lōc – Lōc-ed After Dark (1989) {Delicious Vinyl}

Download
Tone Lōc - Lōc-ed After Dark (1989) {Delicious Vinyl}

Tone Lōc – Lōc-ed After Dark (1989) {Delicious Vinyl}
EAC Rip | FLAC with CUE and log | scans | 279 mb
MP3 CBR 320kbps | RAR | 116 mb
Genre: hip-hop, rap

Lōc-ed After Dark is the 1989 debut album by Anthony Smith, who was known better under his pseudonym, Tone Lōc. Released by Delicious Vinyl, this album featured the hit songs "Wild Thing", "Funky Cold Medina", and "I Got It Goin’ On".

Tone Lōc - Lōc-ed After Dark (1989) {Delicious Vinyl}

01. On Fire (Remix)
02. Wild Thing
03. Lōc’ed After Dark
04. I Got It Goin’ On
05. Cutting Rhythms
06. Funky Cold Medina
07. Next Episode
08. Cheeba Cheeba
09. Don’t Get Close
10. Lōc’in On The Shaw
11. The Homies

Produced, arranged and mixed by Matt Duke & Michael Ross except:
Tracks 5, 7 & 9 produced by The Dust Brothers
Engineered by Mario Caldato Jr.

Tone Lōc - Lōc-ed After Dark (1989) {Delicious Vinyl}
EAC Log
Exact Audio Copy V1.1 from 23. June 2015

EAC extraction logfile from 10. December 2016, 12:31

Tone Lōc / Lōc-ed After Dark

Used drive : TEAC DVD-ROM DV-28SW Adapter: 1 ID: 0

Read mode : Secure
Utilize accurate stream : Yes
Defeat audio cache : Yes
Make use of C2 pointers : No

Read offset correction : 6
Overread into Lead-In and Lead-Out : No
Fill up missing offset samples with silence : Yes
Delete leading and trailing silent blocks : No
Null samples used in CRC calculations : Yes
Used interface : Native Win32 interface for Win NT & 2000
Gap handling : Appended to previous track

Used output format : Internal WAV Routines
Sample format : 44.100 Hz; 16 Bit; Stereo

TOC of the extracted CD

Track | Start | Length | Start sector | End sector
––––––––––––––––––––––––––––-
1 | 0:00.00 | 4:51.18 | 0 | 21842
2 | 4:51.18 | 4:23.20 | 21843 | 41587
3 | 9:14.38 | 5:11.10 | 41588 | 64922
4 | 14:25.48 | 4:32.35 | 64923 | 85357
5 | 18:58.08 | 5:11.27 | 85358 | 108709
6 | 24:09.35 | 4:07.70 | 108710 | 127304
7 | 28:17.30 | 4:00.53 | 127305 | 145357
8 | 32:18.08 | 6:05.42 | 145358 | 172774
9 | 38:23.50 | 3:40.08 | 172775 | 189282
10 | 42:03.58 | 4:21.62 | 189283 | 208919
11 | 46:25.45 | 3:51.55 | 208920 | 226299

Track 1

Filename C:My DocumentsMy FLACTone Lōc – Lōc-ed After Dark (1989) [FLAC] {Delicious Vinyl}1 – On Fire (Remix).wav

Pre-gap length 0:00:02.00

Peak level 80.8 %
Extraction speed 3.0 X
Track quality 100.0 %
Test CRC 9A36F915
Copy CRC 9A36F915
Accurately ripped (confidence 16) [611919C8] (AR v2)
Copy OK

Track 2

Filename C:My DocumentsMy FLACTone Lōc – Lōc-ed After Dark (1989) [FLAC] {Delicious Vinyl}2 – Wild Thing.wav

Peak level 65.2 %
Extraction speed 2.8 X
Track quality 99.9 %
Test CRC 6FFECE6A
Copy CRC 6FFECE6A
Accurately ripped (confidence 16) [E40B37E2] (AR v2)
Copy OK

Track 3

Filename C:My DocumentsMy FLACTone Lōc – Lōc-ed After Dark (1989) [FLAC] {Delicious Vinyl}3 – Lōc-ed After Dark.wav

Pre-gap length 0:00:00.20

Peak level 76.0 %
Extraction speed 3.7 X
Track quality 100.0 %
Test CRC 5D5D3C82
Copy CRC 5D5D3C82
Accurately ripped (confidence 17) [CC4430D2] (AR v2)
Copy OK

Track 4

Filename C:My DocumentsMy FLACTone Lōc – Lōc-ed After Dark (1989) [FLAC] {Delicious Vinyl}4 – I Got It Goin’ On.wav

Pre-gap length 0:00:00.08

Peak level 61.5 %
Extraction speed 3.9 X
Track quality 100.0 %
Test CRC ED4E1EE3
Copy CRC ED4E1EE3
Accurately ripped (confidence 17) [27803051] (AR v2)
Copy OK

Track 5

Filename C:My DocumentsMy FLACTone Lōc – Lōc-ed After Dark (1989) [FLAC] {Delicious Vinyl}5 – Cutting Rhythms.wav

Pre-gap length 0:00:00.30

Peak level 91.6 %
Extraction speed 4.1 X
Track quality 100.0 %
Test CRC A002B7DF
Copy CRC A002B7DF
Accurately ripped (confidence 17) [B2BC1DB9] (AR v2)
Copy OK

Track 6

Filename C:My DocumentsMy FLACTone Lōc – Lōc-ed After Dark (1989) [FLAC] {Delicious Vinyl}6 – Funky Cold Medina.wav

Peak level 94.6 %
Extraction speed 4.3 X
Track quality 100.0 %
Test CRC F0D24D6F
Copy CRC F0D24D6F
Accurately ripped (confidence 18) [17C3D8F6] (AR v2)
Copy OK

Track 7

Filename C:My DocumentsMy FLACTone Lōc – Lōc-ed After Dark (1989) [FLAC] {Delicious Vinyl}7 – Next Episode.wav

Pre-gap length 0:00:00.17

Peak level 84.9 %
Extraction speed 3.8 X
Track quality 99.9 %
Test CRC 825D3CC9
Copy CRC 825D3CC9
Accurately ripped (confidence 17) [57F465C6] (AR v2)
Copy OK

Track 8

Filename C:My DocumentsMy FLACTone Lōc – Lōc-ed After Dark (1989) [FLAC] {Delicious Vinyl}8 – Cheeba Cheeba.wav

Peak level 72.6 %
Extraction speed 4.4 X
Track quality 99.9 %
Test CRC 09DE46B6
Copy CRC 09DE46B6
Accurately ripped (confidence 17) [77BE48B6] (AR v2)
Copy OK

Track 9

Filename C:My DocumentsMy FLACTone Lōc – Lōc-ed After Dark (1989) [FLAC] {Delicious Vinyl}9 – Don’t Get Close.wav

Pre-gap length 0:00:00.22

Peak level 87.8 %
Extraction speed 4.1 X
Track quality 99.9 %
Test CRC 46B39484
Copy CRC 46B39484
Accurately ripped (confidence 16) [72271AA9] (AR v2)
Copy OK

Track 10

Filename C:My DocumentsMy FLACTone Lōc – Lōc-ed After Dark (1989) [FLAC] {Delicious Vinyl}10 – Lōc’in On The Shaw.wav

Peak level 95.9 %
Extraction speed 5.1 X
Track quality 100.0 %
Test CRC 904AE35C
Copy CRC 904AE35C
Accurately ripped (confidence 16) [A9BFD128] (AR v2)
Copy OK

Track 11

Filename C:My DocumentsMy FLACTone Lōc – Lōc-ed After Dark (1989) [FLAC] {Delicious Vinyl}11 – The Homies.wav

Peak level 97.7 %
Extraction speed 4.4 X
Track quality 99.9 %
Test CRC 2D513C89
Copy CRC 2D513C89
Accurately ripped (confidence 15) [80D79EDE] (AR v2)
Copy OK

All tracks accurately ripped

No errors occurred

End of status report

–– CUETools DB Plugin V2.1.6

[CTDB TOCID: Gx8YnjB0_WqiqeeghOt9utKH0Lk-] found
Submit result: Gx8YnjB0_WqiqeeghOt9utKH0Lk- has been confirmed
Track | CTDB Status
1 | (27/28) Accurately ripped
2 | (28/28) Accurately ripped
3 | (27/28) Accurately ripped
4 | (28/28) Accurately ripped
5 | (28/28) Accurately ripped
6 | (28/28) Accurately ripped
7 | (28/28) Accurately ripped
8 | (28/28) Accurately ripped
9 | (28/28) Accurately ripped
10 | (28/28) Accurately ripped
11 | (28/28) Accurately ripped

==== Log checksum 2D03A2E3F00FCFEE472537515F19613C1B051B66D169540693CD261E5E8D1F96 ====

Tone Lōc - Lōc-ed After Dark (1989) {Delicious Vinyl}

Tone Lōc – Lōc-ed After Dark (1989) {Delicious Vinyl} Download, Warez, DDL, Free, Full Album, Torrent, Legal.

Download