Tomorrow feat. Keith West – Tomorrow (1968) [Reissue 1999] Re-up

Download
Tomorrow feat. Keith West - Tomorrow (1968) [Reissue 1999] Re-up

Tomorrow feat. Keith West – Tomorrow (1968) [Reissue 1999]
EAC Rip | FLAC: Tracks+Cue+Log | 494 Mb | MP3 CBR 320 kbps | 195 Mb | Scans | Time: 01:15:52
EMI Records Ltd. | 7243 4 98819 2 1
Psychedelic Rock

Tomorrow is a 1968 album by the English psychedelic rock band Tomorrow. It was originally released by EMI Parlophone in the U.K. in a black and white sleeve. A slightly different version of the album was also released in the U.S. in 1968 as Sire Records SES 97012, one of the first releases on that label. Although it was not a success when first released it is now widely regarded as one of the best psychedelic rock albums ever made.

Tomorrow’s sole album was a solid effort, with quite a few first-rate tracks. "My White Bicycle" was one of the first songs to prominently feature backward guitar phasing, "Real Life Permanent Dream" has engaging English harmonies and sitar riffs, "Revolution" is an infectious hippie anthem, and "Now Your Time Has Come" features intricate riffing from Steve Howe. "Hallucinations," with its irresistible melody, gentle harmonies, and affectingly trippy lyrics, was perhaps their best track. The more self-conscious English whimsy – populated by jolly little dwarfs, Auntie Mary’s dress shop, colonels, and the like – is less successful, although the band’s craftsmanship is strong enough to avoid embarassment. ~ Review by Richie Unterberger

Wikipedia | Allmusic | Amazon
Tomorrow feat. Keith West - Tomorrow (1968) [Reissue 1999] Re-up

Track Listing

01. My White Bicycle (3:18)
02. Colonel Brown (2:53)
03. Real Life Permanent Dream (3:17)
04. Shy Boy (2:27)
05. Revolution (3:50)
06. The Incredible Journey of Timothy Chase (3:18)
07. Auntie Mary’s Dress Shop (2:46)
08. Strawberry Fields Forever (3:59)
09. Three Jolly Little Dwarfs (2:28)
10. Now Your Time Has Come (4:53)
11. Hallucinations (2:43)
12. Claramount Lake (3:02)
13. Real Life Permanent Dream (Alternative early mono version – Previously unreleased) (2:24)
14. Why (3:59)
15. Revolution (Phased mono version) (3:50)
16. Now Your Time Has Come (3:05)
17. 10,000 Words in a Cardboard Box (3:27)
18. Good Wizard Meets Naughty Wizard (4:42)
19. Me (Previously unreleased) (3:12)
20. On a Saturday (3:13)
21. The Kid Who Was a Killer (2:31)
22. She (2:30)
23. The Visit (4:05)

Produced by Mark P. Wirtz & Keith West

The Band

• Keith West (The In Crowd, Tomorrow, Moonrider) – vocals
• Steve Howe (Yes, Asia, GTR, Anderson, Bruford, Wakeman, Howe, Bodast, Tomorrow, The Syndicats, Explorer’s Club) – guitar
• John "Twink" Alder (Dane Stephens and the Deep Beats, The Fairies, Tomorrow, The Pretty Things, The Pink Fairies, PinkWind, The Rings, Syd Barrett, Stars) – drums
• John "Junior" Wood – bass
• Mark P. Wirtz – keyboards

*****
• Ronnie Wood (The Rolling Stones, the Birds, the Creation, the Jeff Beck Group, Faces, the New Barbarians) – bass
• Aynsley Dunbar (The Jeff Beck Group, David Bowie, Frank Zappa, UFO, Whitesnake, Journey, Jefferson Starship, Lou Reed, John Mayall & the Bluesbreakers, Sammy Hagar, Michael Schenker, Jake E. Lee, The Mojos) – drums, percussion

Notes

Tracks 1-12, 17, 18, 20 & 21 ℗ 1968
Tracks 13-16, 19, 22, 23 ℗ 1999

Tracks 1-12, 17, 18, 20, 21 Digital remasters.
℗ 1999 The copyright in this sound recording is owned by EMI Records Ltd.
© 1999 EMI Records Ltd.

These original analogue masters have been digitally transfered at 24 bits resolution, processed using Sonic Solutions NoNoise technology and mastered to 16 bit for CD using Prism SNS Noise Shaping.

Tomorrow feat. Keith West - Tomorrow (1968) [Reissue 1999] Re-up
EAC Log
EAC extraction logfile from 23. August 2005, 23:19 for CD
Tomorrow / Tomorrow

Used drive : ASUS DVD-E616P3 Adapter: 0 ID: 0
Read mode : Secure with NO C2, accurate stream, disable cache
Read offset correction : 738
Overread into Lead-In and Lead-Out : No

Used output format : Internal WAV Routines
44.100 Hz; 16 Bit; Stereo

Other options :
Fill up missing offset samples with silence : Yes
Delete leading and trailing silent blocks : No
Installed external ASPI interface

Track 1
Filename C:SeedsTomorrow – Tomorrow (1968)[FLAC]1 – My White Bicycle.wav

Pre-gap length 0:00:02.00

Peak level 87.6 %
Track quality 100.0 %
Test CRC 7EF317D1
Copy CRC 7EF317D1
Copy OK

Track 2
Filename C:SeedsTomorrow – Tomorrow (1968)[FLAC]2 – Colonel Brown.wav

Pre-gap length 0:00:01.30

Peak level 87.6 %
Track quality 100.0 %
Test CRC 4D82555E
Copy CRC 4D82555E
Copy OK

Track 3
Filename C:SeedsTomorrow – Tomorrow (1968)[FLAC]3 – Real Life Permanent Dream.wav

Pre-gap length 0:00:01.80

Peak level 86.0 %
Track quality 100.0 %
Test CRC 6F26445E
Copy CRC 6F26445E
Copy OK

Track 4
Filename C:SeedsTomorrow – Tomorrow (1968)[FLAC]4 – Shy Boy.wav

Pre-gap length 0:00:01.56

Peak level 84.3 %
Track quality 100.0 %
Test CRC 4B9BC9CC
Copy CRC 4B9BC9CC
Copy OK

Track 5
Filename C:SeedsTomorrow – Tomorrow (1968)[FLAC]5 – Revolution.wav

Pre-gap length 0:00:01.93

Peak level 88.1 %
Track quality 100.0 %
Test CRC B9C2DD84
Copy CRC B9C2DD84
Copy OK

Track 6
Filename C:SeedsTomorrow – Tomorrow (1968)[FLAC]6 – The Incredible Journey of Timothy Chase.wav

Pre-gap length 0:00:01.97

Peak level 87.6 %
Track quality 99.9 %
Test CRC A95FC3FD
Copy CRC A95FC3FD
Copy OK

Track 7
Filename C:SeedsTomorrow – Tomorrow (1968)[FLAC]7 – Auntie Mary’s Dress Shop.wav

Pre-gap length 0:00:01.69

Peak level 87.6 %
Track quality 100.0 %
Test CRC 46BA2479
Copy CRC 46BA2479
Copy OK

Track 8
Filename C:SeedsTomorrow – Tomorrow (1968)[FLAC]8 – Strawberry Fields Forever.wav

Pre-gap length 0:00:02.24

Peak level 89.9 %
Track quality 99.9 %
Test CRC 724B1E22
Copy CRC 724B1E22
Copy OK

Track 9
Filename C:SeedsTomorrow – Tomorrow (1968)[FLAC]9 – Three Jolly Little Dwarfs.wav

Pre-gap length 0:00:01.57

Peak level 87.6 %
Track quality 99.9 %
Test CRC 8F3B1559
Copy CRC 8F3B1559
Copy OK

Track 10
Filename C:SeedsTomorrow – Tomorrow (1968)[FLAC]10 – Now Your Time Has Come.wav

Pre-gap length 0:00:01.77

Peak level 90.2 %
Track quality 100.0 %
Test CRC 6AC0C27F
Copy CRC 6AC0C27F
Copy OK

Track 11
Filename C:SeedsTomorrow – Tomorrow (1968)[FLAC]11 – Hallucinations.wav

Pre-gap length 0:00:01.93

Peak level 87.5 %
Track quality 100.0 %
Test CRC EDB26B63
Copy CRC EDB26B63
Copy OK

Track 12
Filename C:SeedsTomorrow – Tomorrow (1968)[FLAC]12 – Claramount Lake.wav

Pre-gap length 0:00:04.89

Peak level 92.2 %
Track quality 100.0 %
Test CRC 8AD104AF
Copy CRC 8AD104AF
Copy OK

Track 13
Filename C:SeedsTomorrow – Tomorrow (1968)[FLAC]13 – Real Life Permanent Dream (mono version).wav

Pre-gap length 0:00:01.06

Peak level 87.6 %
Track quality 100.0 %
Test CRC F225F295
Copy CRC F225F295
Copy OK

Track 14
Filename C:SeedsTomorrow – Tomorrow (1968)[FLAC]14 – Why.wav

Pre-gap length 0:00:01.93

Peak level 87.5 %
Track quality 100.0 %
Test CRC 3AF98111
Copy CRC 3AF98111
Copy OK

Track 15
Filename C:SeedsTomorrow – Tomorrow (1968)[FLAC]15 – Revolution (phased mono version).wav

Pre-gap length 0:00:01.64

Peak level 91.8 %
Track quality 100.0 %
Test CRC 4F7F373F
Copy CRC 4F7F373F
Copy OK

Track 16
Filename C:SeedsTomorrow – Tomorrow (1968)[FLAC]16 – Now Your Time Has Come.wav

Pre-gap length 0:00:01.46

Peak level 91.0 %
Track quality 100.0 %
Test CRC EB4ECB45
Copy CRC EB4ECB45
Copy OK

Track 17
Filename C:SeedsTomorrow – Tomorrow (1968)[FLAC]17 – 10,000 Words in a Cardboard Box.wav

Pre-gap length 0:00:02.70

Peak level 87.5 %
Track quality 100.0 %
Test CRC 45AB819A
Copy CRC 45AB819A
Copy OK

Track 18
Filename C:SeedsTomorrow – Tomorrow (1968)[FLAC]18 – Good wizard meets naughty wizard.wav

Pre-gap length 0:00:01.50

Peak level 87.5 %
Track quality 100.0 %
Test CRC 442E1327
Copy CRC 442E1327
Copy OK

Track 19
Filename C:SeedsTomorrow – Tomorrow (1968)[FLAC]19 – Me.wav

Pre-gap length 0:00:01.69

Peak level 87.6 %
Track quality 99.9 %
Test CRC 8F35740E
Copy CRC 8F35740E
Copy OK

Track 20
Filename C:SeedsTomorrow – Tomorrow (1968)[FLAC]20 – On a Saturday.wav

Pre-gap length 0:00:08.10

Peak level 85.1 %
Track quality 100.0 %
Test CRC 997DA9A7
Copy CRC 997DA9A7
Copy OK

Track 21
Filename C:SeedsTomorrow – Tomorrow (1968)[FLAC]21 – The kid who was a killer.wav

Pre-gap length 0:00:01.93

Peak level 89.0 %
Track quality 100.0 %
Test CRC F81E2818
Copy CRC F81E2818
Copy OK

Track 22
Filename C:SeedsTomorrow – Tomorrow (1968)[FLAC]22 – She.wav

Pre-gap length 0:00:01.66

Peak level 87.6 %
Track quality 100.0 %
Test CRC 6BA28344
Copy CRC 6BA28344
Copy OK

Track 23
Filename C:SeedsTomorrow – Tomorrow (1968)[FLAC]23 – The visit.wav

Pre-gap length 0:00:01.77

Peak level 95.3 %
Track quality 99.9 %
Test CRC DD9E24F3
Copy CRC DD9E24F3
Copy OK

No errors occured

End of status report

Many thanks to the original uploader: katosich

SEE also:
Tomorrow 1998 50 Minute Technicolor Dream

……
Welcome to My Blog for more wonderful music!
……

Tomorrow feat. Keith West – Tomorrow (1968) [Reissue 1999] Re-up Download, Warez, DDL, Free, Full Album, Torrent, Legal.

Download