Tomorrow – 50 Minute Technicolor Dream (1998) Re-up

Download
Tomorrow - 50 Minute Technicolor Dream (1998) Re-up

Tomorrow – 50 Minute Technicolor Dream (1998)
EAC Rip | FLAC: Tracks+Cue+Log | 245 Mb | MP3 CBR 320 kbps | 133 Mb | Scans | Time: 55:46
RPM Records Ltd. | RPM 184
Psychedelic Rock

50 Minute Technicolor Dream is a compilation of mostly previously unreleased recordings by Tomorrow. Tracks 1-2 are unused demos for the film Blowup. Tracks 7-8 are from BBC Radio 1: "Top Gear" (the first "Peel Session", recorded September 21, 1967), recorded at Maida Vale Studios. Tracks 9-16 are live at "Christmas On Earth Continued" Friday, December 22, 1967, recorded at Kensington Olympia Grand & National Halls.

Tomorrow were one of the 1960s best and most intriguing one-album artists, so this 16-track compilation of additional material comes as quite a welcome bonus to fans, even 30 years after their split. None of these demos, alternates, or live performances were issued in the ’60s, although the two respectable mod-psych demos they did for Blow Up surfaced elsewhere in the ’90s, and the BBC versions of "Revolution" and "Three Jolly Little Dwarfs" have long circulated among collectors. Studio rarities include a fine, slightly sinister, unreleased cut "Caught in a Web," a cover of the Byrds’ "Why," and considerably different versions of "Revolution" and "Real Life Permanent Dream." Eight songs from their late-1967 concert at the "Christmas on Earth Continued" psychedelic event in London are frustrating: the band plays well and the instruments are decently recorded, but Keith West’s vocals suffer heavily from tinny distortion due to poor miking. Nonetheless, these are still interesting to hear, including versions of a bunch of songs from their album (among them "My White Bicycle"), "Why," and the otherwise unavailable "Shotgun & the Duck." The package is enhanced by detailed liner notes with comments from West and Steve Howe. ~ Review by Richie Unterberger

Wikipedia | Allmusic | Amazon
Tomorrow - 50 Minute Technicolor Dream (1998) Re-up

Track Listing

Part One: Unissued Studio And Session Recordings
01. Am I Glad To See You (Blow Up film demo) (4:28)
02. Blow Up (Blow Up film demo) (1:54)
03. Caught In A Web (Unissued Studio Recording) (3:08)
04. Revolution (unissued original phased version) (3:48)
05. Why (unissued studio recording) (3:57)
06. Real Life Permanent Dream (unissued alternate version) (3:16)
07. Three Jolly Little Dwarfs (Top Gear radio session) (2:25)

Part Two: Christmas On Earth Continued – Live December 1967
08. Revolution (Top Gear radio session) (4:10)
09. Caught In A Web (Live) (3:21)
10. Shotgun & The Duck (Live) (5:53)
11. My White Bicycle (Live) (3:07)
12. Real Life Permanent Dream (Live) (2:32)
13. Revolution (Live) (3:33)
14. Why (Live) (3:22)
15. Mr Rainbow (Live) (2:42)
16. Strawberry Fields Forever (Live) (4:10)

The Band

• Keith West (The In Crowd, Tomorrow, Moonrider) – vocals
• Steve Howe (Yes, Asia, GTR, Anderson, Bruford, Wakeman, Howe, Bodast, Tomorrow, The Syndicats, Explorer’s Club) – guitar
• John "Twink" Alder (Dane Stephens and the Deep Beats, The Fairies, Tomorrow, The Pretty Things, The Pink Fairies, PinkWind, The Rings, Syd Barrett, Stars) – drums
• John "Junior" Wood – bass

Notes

Tracks 1 & 2 written for Michaelangelo Antonioni’s film "Blow Up" but not used in the film.
Tracks 7 & 8 recorded at Maida Vale studio, September 1967, originally broadcast on John Peel’s Radio One show, October 1, 1967.
Tracks 9-16 recorded at ‘Christmas On Earth Continued’ Friday, December 22, 1967 @ Kensington Olympia Grand & National Halls

Due to the lack of monitors at the show some vocal distortion is evident on the live tracks.

Tracks 1, 2, 7 & 8 first appeared on RPM 141.

Digitally mastered at SRT, Cambridge

Tomorrow - 50 Minute Technicolor Dream (1998) Re-up
EAC Log
EAC extraction logfile from 24. August 2005, 19:14 for CD
Tomorrow / 50 Minute Technicolour Dream

Used drive : ASUS DVD-E616P3 Adapter: 0 ID: 0
Read mode : Secure with NO C2, accurate stream, disable cache
Read offset correction : 738
Overread into Lead-In and Lead-Out : No

Used output format : Internal WAV Routines
44.100 Hz; 16 Bit; Stereo

Other options :
Fill up missing offset samples with silence : Yes
Delete leading and trailing silent blocks : No
Installed external ASPI interface

Track 1
Filename C:SeedsTomorrow – 50 Minute Technicolour Dream (1998)[FLAC]1 – Am I Glad To See You.wav

Pre-gap length 0:00:02.00

Peak level 95.6 %
Track quality 99.9 %
Test CRC 52981CDB
Copy CRC 52981CDB
Copy OK

Track 2
Filename C:SeedsTomorrow – 50 Minute Technicolour Dream (1998)[FLAC]2 – Blow Up.wav

Peak level 94.7 %
Track quality 99.9 %
Test CRC DCA0BA22
Copy CRC DCA0BA22
Copy OK

Track 3
Filename C:SeedsTomorrow – 50 Minute Technicolour Dream (1998)[FLAC]3 – Caught In A Web.wav

Pre-gap length 0:00:00.50

Peak level 80.6 %
Track quality 100.0 %
Test CRC 29D75062
Copy CRC 29D75062
Copy OK

Track 4
Filename C:SeedsTomorrow – 50 Minute Technicolour Dream (1998)[FLAC]4 – Revolution.wav

Pre-gap length 0:00:00.42

Peak level 95.4 %
Track quality 100.0 %
Test CRC 0EF9BD8F
Copy CRC 0EF9BD8F
Copy OK

Track 5
Filename C:SeedsTomorrow – 50 Minute Technicolour Dream (1998)[FLAC]5 – Why.wav

Peak level 97.0 %
Track quality 100.0 %
Test CRC 2D9DC29E
Copy CRC 2D9DC29E
Copy OK

Track 6
Filename C:SeedsTomorrow – 50 Minute Technicolour Dream (1998)[FLAC]6 – Real Life Permanent Dream.wav

Peak level 98.2 %
Track quality 99.9 %
Test CRC 44AF8402
Copy CRC 44AF8402
Copy OK

Track 7
Filename C:SeedsTomorrow – 50 Minute Technicolour Dream (1998)[FLAC]7 – Three Jolly Little Dwarfs.wav

Pre-gap length 0:00:01.00

Peak level 95.9 %
Track quality 100.0 %
Test CRC 259F4308
Copy CRC 259F4308
Copy OK

Track 8
Filename C:SeedsTomorrow – 50 Minute Technicolour Dream (1998)[FLAC]8 – Revolution.wav

Peak level 95.9 %
Track quality 100.0 %
Test CRC 71FF4262
Copy CRC 71FF4262
Copy OK

Track 9
Filename C:SeedsTomorrow – 50 Minute Technicolour Dream (1998)[FLAC]9 – Caught In A Web.wav

Pre-gap length 0:00:00.53

Peak level 95.1 %
Track quality 100.0 %
Test CRC A1171BCE
Copy CRC A1171BCE
Copy OK

Track 10
Filename C:SeedsTomorrow – 50 Minute Technicolour Dream (1998)[FLAC]10 – Shotgun & The Duck.wav

Pre-gap length 0:00:00.01

Peak level 94.0 %
Track quality 100.0 %
Test CRC 502E0B2D
Copy CRC 502E0B2D
Copy OK

Track 11
Filename C:SeedsTomorrow – 50 Minute Technicolour Dream (1998)[FLAC]11 – My White Bicycle.wav

Peak level 96.2 %
Track quality 99.9 %
Test CRC 12BD134A
Copy CRC 12BD134A
Copy OK

Track 12
Filename C:SeedsTomorrow – 50 Minute Technicolour Dream (1998)[FLAC]12 – Real Life Permanent Dream.wav

Peak level 97.9 %
Track quality 99.9 %
Test CRC 2C7C013E
Copy CRC 2C7C013E
Copy OK

Track 13
Filename C:SeedsTomorrow – 50 Minute Technicolour Dream (1998)[FLAC]13 – Revolution.wav

Peak level 98.4 %
Track quality 100.0 %
Test CRC AE95873E
Copy CRC AE95873E
Copy OK

Track 14
Filename C:SeedsTomorrow – 50 Minute Technicolour Dream (1998)[FLAC]14 – Why.wav

Peak level 100.0 %
Track quality 99.9 %
Test CRC 9A9B39B8
Copy CRC 9A9B39B8
Copy OK

Track 15
Filename C:SeedsTomorrow – 50 Minute Technicolour Dream (1998)[FLAC]15 – Mr Rainbow.wav

Peak level 98.5 %
Track quality 99.9 %
Test CRC 2DB66C05
Copy CRC 2DB66C05
Copy OK

Track 16
Filename C:SeedsTomorrow – 50 Minute Technicolour Dream (1998)[FLAC]16 – Strawberry Fields Forever.wav

Peak level 99.9 %
Track quality 100.0 %
Test CRC B2DE8E5F
Copy CRC B2DE8E5F
Copy OK

No errors occured

End of status report

Many thanks to the original uploader: katosich

SEE also:
Tomorrow feat. Keith West 1968 Tomorrow [Reissue 1999]

……
Welcome to My Blog for more wonderful music!
……

Tomorrow – 50 Minute Technicolor Dream (1998) Re-up Download, Warez, DDL, Free, Full Album, Torrent, Legal.

Download