Tom Zé – Brazil 5: The Hips Of Tradition (1992) {Luaka Bop} **[RE-UP]**

Download
Tom Zé - Brazil 5: The Hips Of Tradition (1992) {Luaka Bop} **[RE-UP]**

Tom Zé – Brazil 5: The Hips Of Tradition (1992) {Luaka Bop}
EAC Rip | FLAC with CUE and log | scans | 255 mb
MP3 CBR 320kbps | RAR | 121 mb
Genre: Brazilian, bossa nova, salsa

Brazil 5: The Hips Of Tradition is a 1992 compilation CD by Brazlian artist Tom Zé . This was put together by the Luaka Bop label, then subsidiaried by Warner Bros. Records via David Byrne of Talking Heads fame.

This 1992 album by Tom Zé was already produced by Luaka Bop, David Byrne’s label, after his discovery by Byrne when he was almost dropping everything to return to his hometown to work in a gas station. "I don’t make art, I make spoken and sung journalism." This self-coined definition by Tom Zé helps listeners understand his music. Pop music with self-made instruments, references to modern erudite music, and strong reminiscences of ancient northeastern cantigas de cego and other grooves. On this album subtitled The Return of Tom Zé" he sticks to the concept developed in the ’60s by tropicália, the movement he helped to conceptualize, which perceived music as a cultural industry production for which it is valid to take any world influences, mixing them with Brazilian rhythms, concrete poetry, existentialism, drum machine loops (added later), pop culture, contemporary urban grooves, and everything else that eventually could be thought of. Tom Zé has lots of thoughts to express in his lyrics, which had an English version in the inlay, and this release may be very appealing for those who are into world music. It even explores some indigenous styles, delivered in an almost pure form. But, as he himself put out, his albums shouldn’t be listened to for beautiful melodies.

Tom Zé - Brazil 5: The Hips Of Tradition (1992) {Luaka Bop} **[RE-UP]**

01. Ogodô, Ano 2000
02. Sem a Letra "A"
03. Feira de Santana
04. Sofro de Juventude
05. Cortina 1
06. Taí
07. Iracema
08. Fliperama
09. O Amor é Velho-Menina
10. Cortina 2
11. Tatuarambá
12. Jingle do Disco
13. Lua-Gira-Sol
14. Cortina 3
15. Multiplicar-se Única
16. Cortina 4
17. O Pão Nosso de Cada Mês
18. Amar
–-
Tom Zé-lead vocals
Eder Sandoli-electric guitar, rhythm and lead acoustic guitar, mandolin, bottles and hand claps
Ronaldo de Carvalho-keyboards, vocals, and hand claps
Lauro Léllis-drums, cowbell, hand claps, pandeiro, bottles
Gilberto Assis-bass, hand claps
Jarbas Mariz-triangle, shaker, reco-reco, hand claps, mandolin, and berimbau

All backing vocals by Marie Oliveira, Edy Oliveira, Jarbas Mariz, Ronaldo de Carvalho except Marie and Edy on "Amar"
Additional vocals on "Jingle de Disco" by David Byrne
Additional bottleneck electric and 12-string acoustic guitars on "Sem a Letra "A"" by David Byrne
Additional electric guitar on "Tatuarambá" by Arto Lindsay
Additional bass on "Sem a Letra "A"" and "Ogodô, Ano 2000" y Greg Cohen
Additional percussion on "Sem a Letra "A"" and "O Amor é Velho-Menina" by Cyro Baptista

Produced by Roberto Lazzarine
Additional production and mixing by Arto Lindsay
Recorded by Leandro Oliveira, Marco Beato Paulo, and Tom Zé
with assistance by Marco Beato, Roberto Lazzarine, and Lauro Léllis
Recorded and mixed at In Sonoria Causa Studios, São Paulo, Brazil
Additional recording and remixing engineered by Patrick Dillett at Shelter Island Sound, NYC
Mastered by Scott Hull at Masterdisk

EAC Log
EAC extraction logfile from 22. December 2006, 7:26 for CD
Tom Zé / Brazil 5, The Hips Of Tradition

Used drive : LITE-ON DVDRW SOHW-1633S Adapter: 0 ID: 0
Read mode : Secure with NO C2, accurate stream, disable cache
Read offset correction : 12
Overread into Lead-In and Lead-Out : No

Used output format : Internal WAV Routines
44.100 Hz; 16 Bit; Stereo

Other options :
Fill up missing offset samples with silence : Yes
Delete leading and trailing silent blocks : No
Installed external ASPI interface

Track 1
Filename D:FLACTom Ze – Brazil 5, The Hips Of Tradition (1992) [FLAC] {Luaka Bop}1 – Ogodo, Ano 2000.wav

Pre-gap length 0:00:02.42

Peak level 97.3 %
Track quality 100.0 %
Test CRC 84C24D67
Copy CRC 84C24D67
Copy OK

Track 2
Filename D:FLACTom Ze – Brazil 5, The Hips Of Tradition (1992) [FLAC] {Luaka Bop}2 – Sem a Letra ”A”.wav

Pre-gap length 0:00:01.40

Peak level 73.9 %
Track quality 100.0 %
Test CRC 71FD8C62
Copy CRC 71FD8C62
Copy OK

Track 3
Filename D:FLACTom Ze – Brazil 5, The Hips Of Tradition (1992) [FLAC] {Luaka Bop}3 – Feira de Santana.wav

Pre-gap length 0:00:00.46

Peak level 73.7 %
Track quality 100.0 %
Test CRC C0B5BDD0
Copy CRC C0B5BDD0
Copy OK

Track 4
Filename D:FLACTom Ze – Brazil 5, The Hips Of Tradition (1992) [FLAC] {Luaka Bop}4 – Sofro de Juventude.wav

Pre-gap length 0:00:01.73

Peak level 97.3 %
Track quality 100.0 %
Test CRC 01E835FF
Copy CRC 01E835FF
Copy OK

Track 5
Filename D:FLACTom Ze – Brazil 5, The Hips Of Tradition (1992) [FLAC] {Luaka Bop}5 – Cortina 1.wav

Pre-gap length 0:00:00.93

Peak level 62.8 %
Track quality 100.0 %
Test CRC D38DA30E
Copy CRC D38DA30E
Copy OK

Track 6
Filename D:FLACTom Ze – Brazil 5, The Hips Of Tradition (1992) [FLAC] {Luaka Bop}6 – Tai.wav

Pre-gap length 0:00:00.89

Peak level 97.2 %
Track quality 100.0 %
Test CRC 626BEB16
Copy CRC 626BEB16
Copy OK

Track 7
Filename D:FLACTom Ze – Brazil 5, The Hips Of Tradition (1992) [FLAC] {Luaka Bop}7 – Iracema.wav

Pre-gap length 0:00:01.06

Peak level 46.2 %
Track quality 100.0 %
Test CRC 6D14716B
Copy CRC 6D14716B
Copy OK

Track 8
Filename D:FLACTom Ze – Brazil 5, The Hips Of Tradition (1992) [FLAC] {Luaka Bop}8 – Fliperama.wav

Pre-gap length 0:00:02.13

Peak level 61.8 %
Track quality 100.0 %
Test CRC D32CCF80
Copy CRC D32CCF80
Copy OK

Track 9
Filename D:FLACTom Ze – Brazil 5, The Hips Of Tradition (1992) [FLAC] {Luaka Bop}9 – O Amor e Velho-Menina.wav

Pre-gap length 0:00:02.24

Peak level 97.3 %
Track quality 100.0 %
Test CRC 2CBA9FD5
Copy CRC 2CBA9FD5
Copy OK

Track 10
Filename D:FLACTom Ze – Brazil 5, The Hips Of Tradition (1992) [FLAC] {Luaka Bop}10 – Cortina 2.wav

Pre-gap length 0:00:00.29

Peak level 88.4 %
Track quality 100.0 %
Test CRC C2014EC9
Copy CRC C2014EC9
Copy OK

Track 11
Filename D:FLACTom Ze – Brazil 5, The Hips Of Tradition (1992) [FLAC] {Luaka Bop}11 – Tatuaramba.wav

Pre-gap length 0:00:00.20

Peak level 62.3 %
Track quality 100.0 %
Test CRC A641F432
Copy CRC A641F432
Copy OK

Track 12
Filename D:FLACTom Ze – Brazil 5, The Hips Of Tradition (1992) [FLAC] {Luaka Bop}12 – Jingle do Disco.wav

Pre-gap length 0:00:00.77

Peak level 92.3 %
Track quality 100.0 %
Test CRC 6D3D54F7
Copy CRC 6D3D54F7
Copy OK

Track 13
Filename D:FLACTom Ze – Brazil 5, The Hips Of Tradition (1992) [FLAC] {Luaka Bop}13 – Lua-Gira-Sol.wav

Pre-gap length 0:00:02.04

Peak level 97.2 %
Track quality 100.0 %
Test CRC 718E7243
Copy CRC 718E7243
Copy OK

Track 14
Filename D:FLACTom Ze – Brazil 5, The Hips Of Tradition (1992) [FLAC] {Luaka Bop}14 – Cortina 3.wav

Pre-gap length 0:00:01.02

Peak level 77.7 %
Track quality 100.0 %
Test CRC C89AE0EF
Copy CRC C89AE0EF
Copy OK

Track 15
Filename D:FLACTom Ze – Brazil 5, The Hips Of Tradition (1992) [FLAC] {Luaka Bop}15 – Multiplicar-se Unica.wav

Pre-gap length 0:00:00.46

Peak level 44.3 %
Track quality 100.0 %
Test CRC 2CE8EEFE
Copy CRC 2CE8EEFE
Copy OK

Track 16
Filename D:FLACTom Ze – Brazil 5, The Hips Of Tradition (1992) [FLAC] {Luaka Bop}16 – Cortina 4.wav

Pre-gap length 0:00:00.22

Peak level 66.8 %
Track quality 99.7 %
Test CRC 87B4D943
Copy CRC 87B4D943
Copy OK

Track 17
Filename D:FLACTom Ze – Brazil 5, The Hips Of Tradition (1992) [FLAC] {Luaka Bop}17 – O Pao Nosso de Cada Mes.wav

Pre-gap length 0:00:01.33

Peak level 97.3 %
Track quality 99.9 %
Test CRC 6B195481
Copy CRC 6B195481
Copy OK

Track 18
Filename D:FLACTom Ze – Brazil 5, The Hips Of Tradition (1992) [FLAC] {Luaka Bop}18 – Amar.wav

Pre-gap length 0:00:01.46

Peak level 62.2 %
Track quality 100.0 %
Test CRC 6F095001
Copy CRC 6F095001
Copy OK

No errors occured

End of status report

Tom Zé - Brazil 5: The Hips Of Tradition (1992) {Luaka Bop} **[RE-UP]**

Check out other titles in my Avaxhome blog or my personal blog.

Tom Zé – Brazil 5: The Hips Of Tradition (1992) {Luaka Bop} **[RE-UP]** Download, Warez, DDL, Free, Full Album, Torrent, Legal.

Download