Tom Scott – Reed My Lips (1994)

Download
Tom Scott - Reed My Lips (1994)

Tom Scott – Reed My Lips (1994)
EAC | FLAC (tracks+.cue, log) | Covers Included | 40:41 | 352 MB
Genre: Jazz, Fusion, Smooth Jazz | Label: GRP Records | Catalog: AAGRD9752

While most musicians wind up pigeonholed into very strict stylistic trappings throughout their career, Tom Scott has f ound challenges and success playing all formats of jazz on his solo projects and as leader of the GRP All Star Big Band (in the early 90s). It was fun following his muse in the middle of the decade, as he ventured back to his straightahead roots on 1992’s Born Again, then was back to the funk on this rousing jam session. Working with old and new friends like Grover Washington, Jr., Paul Jackson, Jr., Dave Witham, David Paich, Luis Conte, Eric Gale and Robben Ford, Scott mixes his own material with some contributions from the outside. The collection explodes from the get-go on the perfectly titled "Upbeat 90’s," a spirited bundle of energy which combines Scott’s funky tenor bravura with a modern hip-hop groove and Gale’s bouncy electric guitar. The saxman plays a passionate accompaniment and interlude behind the smooth vocals of singer/guitarist Jerry Lopez on a seductive cover of Jonathan Butler’s sweet "Sarah Sarah," then gives the title track–a soaring duet between Scott and Washington’s duelling tenor and soprano saxes–a brassy blues and bouncy hip-hop attitude. "Every Day and Every Minute" is possibly the most unique track Scott has ever done. It’s a hypnotic moodswing of spacey animation featuring mantra like breathy vocals, Witham’s vibes like melody and the saxman achieving mystery with the sounds of the bass flute.

AllMusic

Tom Scott - Reed My Lips (1994)

Track List:

01. Upbeat 90s – 4:27
02. Sarah, Sarah – 5:22
03. Reed My Lips – 5:42
04. Jungle Wave – 5:22
05. Hollywood Walk – 4:44
06. Every Day and Every Minute – 4:41
07. Walk a Mile – 4:08
08. G.B.U. – 4:16
09. Saxapella – 2:12
10. Easy Life – 4:22

Personnel:
Tom Scott – Saxophones, Synthesizers, Background Vocals, Horn Arrangements
Grover Washington, Jr. – Soprano Saxophone
David Witham – Piano, Organ, Synthesizers, Keyboards, Vocals (Background)
David Paich – Keyboards
Ron Aston – Synthesizers, Drums, Percussion, Guitar
Cleto Escobido – Harmony Vocals, Harmony, Gut String Guitar
Rick Hahn – Drums, Synthesizer Pads, Percussion Programming, Drum Programming, Programming
Eric Gale – Guitars
Robben Ford – Guitar
Paul Jackson, Jr. – Guitar
Larry Kimpel – Bass
John Guerin – Drums
Johnny Friday – Drums
Luis Conte – Percussion
Jerry Lopez – Vocals, Wah Wah Guitar
Carmen Twilley – Vocals
Background Vocals: Lise Miller, Lynne Scott, Carmen Twillie, Tamara Champlin

EAC Log
Exact Audio Copy V1.0 beta 3 from 29. August 2011

EAC extraction logfile from 6. May 2012, 12:53

Tom Scott / Reed My Lips

Used drive : HL-DT-STDVD-RAM GSA-H55N Adapter: 0 ID: 2

Read mode : Secure
Utilize accurate stream : Yes
Defeat audio cache : Yes
Make use of C2 pointers : No

Read offset correction : 102
Overread into Lead-In and Lead-Out : Yes
Fill up missing offset samples with silence : Yes
Delete leading and trailing silent blocks : No
Null samples used in CRC calculations : Yes
Used interface : Native Win32 interface for Win NT & 2000
Gap handling : Appended to previous track

Used output format : User Defined Encoder
Selected bitrate : 128 kBit/s
Quality : High
Add ID3 tag : No
Command line compressor : G:Program FilesExact Audio CopyEncoderflac.exe
Additional command line options : -V -8 -T "Genre=%genre%" -T "Artist=%artist%" -T "Title=%title%" -T "Album=%albumtitle%" -T "Date=%year%" -T "Tracknumber=%tracknr%" -T "Comment=EAC1.0b3 FLAC -8" %source%

TOC of the extracted CD

Track | Start | Length | Start sector | End sector
––––––––––––––––––––––––––––-
1 | 0:00.33 | 4:27.12 | 33 | 20069
2 | 4:27.45 | 5:22.20 | 20070 | 44239
3 | 9:49.65 | 5:41.58 | 44240 | 69872
4 | 15:31.48 | 5:22.02 | 69873 | 94024
5 | 20:53.50 | 4:44.28 | 94025 | 115352
6 | 25:38.03 | 4:40.47 | 115353 | 136399
7 | 30:18.50 | 4:08.08 | 136400 | 155007
8 | 34:26.58 | 4:16.25 | 155008 | 174232
9 | 38:43.08 | 2:12.10 | 174233 | 184142
10 | 40:55.18 | 4:22.15 | 184143 | 203807

Track 1

Filename F:WAV1 – Upbeat 90’s.wav

Pre-gap length 0:00:02.33

Peak level 99.8 %
Extraction speed 4.3 X
Track quality 100.0 %
Test CRC 32D6F6FD
Copy CRC 32D6F6FD
Accurately ripped (confidence 8) [1B77831B] (AR v1)
Copy OK

Track 2

Filename F:WAV2 – Sarah, Sarah.wav

Peak level 97.3 %
Extraction speed 5.0 X
Track quality 100.0 %
Test CRC C115201F
Copy CRC C115201F
Accurately ripped (confidence 8) [1F3077E0] (AR v1)
Copy OK

Track 3

Filename F:WAV3 – Reed My Lips.wav

Peak level 98.9 %
Extraction speed 5.6 X
Track quality 100.0 %
Test CRC ED213EE3
Copy CRC ED213EE3
Accurately ripped (confidence 8) [163EFA44] (AR v1)
Copy OK

Track 4

Filename F:WAV4 – Jungle Wave.wav

Pre-gap length 0:00:00.70

Peak level 99.8 %
Extraction speed 5.5 X
Track quality 99.9 %
Test CRC 5F71A60F
Copy CRC 5F71A60F
Accurately ripped (confidence 8) [41F27806] (AR v1)
Copy OK

Track 5

Filename F:WAV5 – Hollywood Walk.wav

Pre-gap length 0:00:01.02

Peak level 99.8 %
Extraction speed 6.3 X
Track quality 100.0 %
Test CRC 07A4AA26
Copy CRC 07A4AA26
Accurately ripped (confidence 8) [48CBE6E7] (AR v1)
Copy OK

Track 6

Filename F:WAV6 – Every Day and Every Minute.wav

Pre-gap length 0:00:01.50

Peak level 98.6 %
Extraction speed 6.7 X
Track quality 100.0 %
Test CRC A2E961C7
Copy CRC A2E961C7
Accurately ripped (confidence 8) [32FC23A3] (AR v1)
Copy OK

Track 7

Filename F:WAV7 – Walk a Mile.wav

Pre-gap length 0:00:01.05

Peak level 99.8 %
Extraction speed 6.8 X
Track quality 100.0 %
Test CRC 61B61E9B
Copy CRC 61B61E9B
Accurately ripped (confidence 8) [CC299E8C] (AR v1)
Copy OK

Track 8

Filename F:WAV8 – G.B.U..wav

Pre-gap length 0:00:00.43

Peak level 97.0 %
Extraction speed 7.0 X
Track quality 100.0 %
Test CRC AB4FAEE0
Copy CRC AB4FAEE0
Accurately ripped (confidence 8) [99F75759] (AR v1)
Copy OK

Track 9

Filename F:WAV9 – Saxapella.wav

Pre-gap length 0:00:01.38

Peak level 77.8 %
Extraction speed 5.1 X
Track quality 99.9 %
Test CRC 19A1DAAF
Copy CRC 19A1DAAF
Accurately ripped (confidence 8) [2B7843F3] (AR v1)
Copy OK

Track 10

Filename F:WAV10 – Easy Life.wav

Pre-gap length 0:00:02.13

Peak level 87.3 %
Extraction speed 5.4 X
Track quality 100.0 %
Test CRC E0926A05
Copy CRC E0926A05
Accurately ripped (confidence 8) [029DF9F6] (AR v1)
Copy OK

All tracks accurately ripped

No errors occurred

End of status report

==== Log checksum 20E278781A5EAB68A5380DE171152E2778A701785D76C0F9FF8D38417B4D8976 ====

CUETools Log
[CUETools log; Date: 06.02.2017 22:28:57; Version: 2.1.5]
Pregap length 00:00:33.
[CTDB TOCID: FbN6dXehb0.Q4SsjyEcg3xmIAeQ-] found.
Track | CTDB Status
1 | (12/12) Accurately ripped
2 | (12/12) Accurately ripped
3 | (12/12) Accurately ripped
4 | ( 9/12) Accurately ripped
5 | (12/12) Accurately ripped
6 | (12/12) Accurately ripped
7 | (12/12) Accurately ripped
8 | (12/12) Accurately ripped
9 | (12/12) Accurately ripped
10 | (12/12) Accurately ripped
[AccurateRip ID: 00124482-00905cab-810a9d0a] found.
Track [ CRC | V2 ] Status
01 [1b77831b|bcd3816d] (11+11/22) Accurately ripped
02 [1f3077e0|412915a1] (11+11/22) Accurately ripped
03 [163efa44|48ed6303] (11+11/22) Accurately ripped
04 [41f27806|24300d67] (11+09/20) Accurately ripped
05 [48cbe6e7|c3e60d0b] (11+11/22) Accurately ripped
06 [32fc23a3|51f475b5] (11+11/22) Accurately ripped
07 [cc299e8c|261f7cfb] (11+11/22) Accurately ripped
08 [99f75759|909adefb] (11+11/22) Accurately ripped
09 [2b7843f3|ca534434] (11+11/22) Accurately ripped
10 [029df9f6|203e5d36] (11+11/22) Accurately ripped
Offsetted by -66:
01 [08da2916] (00/22) No match (V2 was not tested)
02 [00b25f25] (00/22) No match (V2 was not tested)
03 [63fde07e] (00/22) No match (V2 was not tested)
04 [64707d50] (00/20) No match (V2 was not tested)
05 [7623692e] (00/22) No match (V2 was not tested)
06 [12e8bb24] (00/22) No match (V2 was not tested)
07 [292c423e] (00/22) No match (V2 was not tested)
08 [29e021d7] (00/22) No match (V2 was not tested)
09 [52ab833f] (00/22) No match (V2 was not tested)
10 [aad06fb4] (00/22) No match (V2 was not tested)

Track Peak [ CRC32 ] [W/O NULL] [ LOG ]
– 99,8 [B7C683DC] [F5531B46]
01 99,8 [32D6F6FD] [4BE1319B] CRC32
02 97,3 [C115201F] [E4635AA3] CRC32
03 98,9 [ED213EE3] [E9ECD7B7] CRC32
04 99,8 [5F71A60F] [9ADAF3E9] CRC32
05 99,8 [07A4AA26] [EF06C7EF] CRC32
06 98,6 [A2E961C7] [1FE57B25] CRC32
07 99,8 [61B61E9B] [C64C396B] CRC32
08 97,0 [AB4FAEE0] [F2932947] CRC32
09 77,8 [19A1DAAF] [62B62EFB] CRC32
10 87,3 [E0926A05] [D4F89DFD] CRC32

Tom Scott - Reed My Lips (1994)

Thanks to the Original ripper (unknown)!

Download:

Tom Scott – Reed My Lips (1994) Download, Warez, DDL, Free, Full Album, Torrent, Legal.

Download