Todd Rundgren – The Complete Bearsville Album Collection (2016) [13 CD Box Set]

Download
Todd Rundgren - The Complete Bearsville Album Collection (2016) [13 CD Box Set]

Todd Rundgren – The Complete Bearsville Album Collection
Classic Rock, Progressive Rock | FLAC (tracks)+cue, artwork | 10:39:37 | 4.17 GB
Label: Bearsville/Rhino | Tracks: 157 | Rls.date: 2016

Todd Rundgren’s classic run of the ’70s and early ’80s gets the budget box treatment in The Complete Bearsville Albums Collection. These albums – the first being Runt, the last being The Ever Popular Tortured Artist Effect; all studio albums apart from the epic double live set Back to the Bars, all solo, no Utopia LPs – have been reissued many times, most recently in deluxe editions by Edsel. Any of the bonus tracks that have popped up on these reissues are absent – this applies not just to the alternate Runt that finally surfaced in the 2010s, but also the EP that came with Healing, included on an early Rhino CD reissue – but each of the records is attractive as a mini-LP, the sound is good, and the price is cheap, so it’s a good, easy way to get the Todd basics. Review by Stephen Thomas Erlewine

Todd Rundgren - The Complete Bearsville Album Collection (2016) [13 CD Box Set]

Tracklist Disc 1: Runt (1970)

01 – Broke Down And Busted
02 – Believe In Me
03 – We Got To Get You A Woman
04 – Who’s That Man?
05 – Once Burned
06 – Devil’s Bite
07 – I’m In The Clique
08 – There Are No Words
09 – Baby Let’s Swing / The Last Thing You Said / Don’t Tie My Hands
10 – Birthday Carol

EAC Log
Exact Audio Copy V1.0 beta 6 from 9. April 2015

EAC extraction logfile from 21. March 2016, 19:20

Todd Rundgren / The Complete Bearsville Album Collection (Disc 1)

Used drive : LITE-ON DVD+RW SOHW-802S Adapter: 1 ID: 1

Read mode : Secure
Utilize accurate stream : Yes
Defeat audio cache : Yes
Make use of C2 pointers : No

Read offset correction : 12
Overread into Lead-In and Lead-Out : No
Fill up missing offset samples with silence : Yes
Delete leading and trailing silent blocks : No
Null samples used in CRC calculations : Yes
Used interface : Native Win32 interface for Win NT & 2000
Gap handling : Appended to previous track

Used output format : User Defined Encoder
Selected bitrate : 1024 kBit/s
Quality : High
Add ID3 tag : No
Command line compressor : C:Program FilesFLACflac.exe
Additional command line options : -8 -V -T "ARTIST=%artist%" -T "TITLE=%title%" -T "ALBUM=%albumtitle%" -T "DATE=%year%" -T "TRACKNUMBER=%tracknr%" -T "GENRE=%genre%" -T "PERFORMER=%albuminterpret%" -T "COMPOSER=%composer%" %haslyrics%–tag-from-file=LYRICS="%lyricsfile%"%haslyrics% -T "ALBUMARTIST=%albumartist%" -T "DISCNUMBER=%cdnumber%" -T "TOTALDISCS=%totalcds%" -T "TOTALTRACKS=%numtracks%" -T "COMMENT=%comment%" %source% -o %dest%

TOC of the extracted CD

Track | Start | Length | Start sector | End sector
––––––––––––––––––––––––––––-
1 | 0:00.00 | 4:34.01 | 0 | 20550
2 | 4:34.01 | 2:02.02 | 20551 | 29702
3 | 6:36.03 | 3:07.09 | 29703 | 43736
4 | 9:43.12 | 3:01.23 | 43737 | 57334
5 | 12:44.35 | 2:07.45 | 57335 | 66904
6 | 14:52.05 | 3:55.47 | 66905 | 84576
7 | 18:47.52 | 4:56.03 | 84577 | 106779
8 | 23:43.55 | 2:11.73 | 106780 | 116677
9 | 25:55.53 | 5:27.26 | 116678 | 141228
10 | 31:23.04 | 9:13.05 | 141229 | 182708

Track 1

Filename C:UserskqwietDesktopMusic Conversions1 – Broke Down And Busted.wav

Pre-gap length 0:00:02.00

Peak level 94.4 %
Extraction speed 2.5 X
Track quality 100.0 %
Test CRC 733022A8
Copy CRC 733022A8
Track not present in AccurateRip database
Copy OK

Track 2

Filename C:UserskqwietDesktopMusic Conversions2 – Believe In Me.wav

Peak level 91.8 %
Extraction speed 2.4 X
Track quality 100.0 %
Test CRC 2A13D8FA
Copy CRC 2A13D8FA
Track not present in AccurateRip database
Copy OK

Track 3

Filename C:UserskqwietDesktopMusic Conversions3 – We Gotta Get You A Woman.wav

Peak level 94.5 %
Extraction speed 2.5 X
Track quality 100.0 %
Test CRC 3FEEB3AF
Copy CRC 3FEEB3AF
Track not present in AccurateRip database
Copy OK

Track 4

Filename C:UserskqwietDesktopMusic Conversions4 – Who’s That Man.wav

Peak level 94.5 %
Extraction speed 2.5 X
Track quality 100.0 %
Test CRC 9D422179
Copy CRC 9D422179
Track not present in AccurateRip database
Copy OK

Track 5

Filename C:UserskqwietDesktopMusic Conversions5 – Once Burned.wav

Peak level 94.4 %
Extraction speed 2.6 X
Track quality 100.0 %
Test CRC 1A3F2176
Copy CRC 1A3F2176
Track not present in AccurateRip database
Copy OK

Track 6

Filename C:UserskqwietDesktopMusic Conversions6 – Devil’s Bite.wav

Peak level 94.5 %
Extraction speed 2.8 X
Track quality 100.0 %
Test CRC 87E3BCB1
Copy CRC 87E3BCB1
Track not present in AccurateRip database
Copy OK

Track 7

Filename C:UserskqwietDesktopMusic Conversions7 – I’m In The Clique.wav

Peak level 94.5 %
Extraction speed 3.0 X
Track quality 100.0 %
Test CRC E6D22695
Copy CRC E6D22695
Track not present in AccurateRip database
Copy OK

Track 8

Filename C:UserskqwietDesktopMusic Conversions8 – There Are No Words.wav

Peak level 94.4 %
Extraction speed 3.1 X
Track quality 100.0 %
Test CRC A690A304
Copy CRC A690A304
Track not present in AccurateRip database
Copy OK

Track 9

Filename C:UserskqwietDesktopMusic Conversions9 – (a) Baby Let’s Swing (b) The Last Thing You Said © Don’t Tie My Hands.wav

Peak level 94.5 %
Extraction speed 3.3 X
Track quality 99.9 %
Test CRC 02C37064
Copy CRC 02C37064
Track not present in AccurateRip database
Copy OK

Track 10

Filename C:UserskqwietDesktopMusic Conversions10 – Birthday Carol.wav

Peak level 94.6 %
Extraction speed 3.2 X
Track quality 100.0 %
Test CRC 4542A152
Copy CRC 4542A152
Track not present in AccurateRip database
Copy OK

None of the tracks are present in the AccurateRip database

No errors occurred

End of status report

–– CUETools DB Plugin V2.1.6

[CTDB TOCID: B.Ju0e_kjnxAhlVD_9rZndASgPs-] database access error: The remote name could not be resolved: ‘db.cuetools.net’

==== Log checksum 2F50B3A6754C3E9D6D8C32A7A426397C6CC0D9AD08D9D757BC1940CC0738587E ====

Todd Rundgren - The Complete Bearsville Album Collection (2016) [13 CD Box Set]

Tracklist Disc 2: Runt: The Ballad of Todd Rundgren (1971)

01 – Long Flowing Robe
02 – The Ballad (Denny And Jean)
03 – Bleeding
04 – Wailing Wall
05 – The Range War
06 – Chain Letter
07 – A Long Time, A Long Way To Go
08 – Boat On The Charles
09 – Be Nice To Me
10 – Hope I’m Around
11 – Parole
12 – Remember Me

EAC Log
Exact Audio Copy V1.0 beta 6 from 9. April 2015

EAC extraction logfile from 21. March 2016, 18:54

Todd Rundgren / The Complete Bearsville Album Collection (Disc 2)

Used drive : LITE-ON DVD+RW SOHW-802S Adapter: 1 ID: 1

Read mode : Secure
Utilize accurate stream : Yes
Defeat audio cache : Yes
Make use of C2 pointers : No

Read offset correction : 12
Overread into Lead-In and Lead-Out : No
Fill up missing offset samples with silence : Yes
Delete leading and trailing silent blocks : No
Null samples used in CRC calculations : Yes
Used interface : Native Win32 interface for Win NT & 2000
Gap handling : Appended to previous track

Used output format : User Defined Encoder
Selected bitrate : 1024 kBit/s
Quality : High
Add ID3 tag : No
Command line compressor : C:Program FilesFLACflac.exe
Additional command line options : -8 -V -T "ARTIST=%artist%" -T "TITLE=%title%" -T "ALBUM=%albumtitle%" -T "DATE=%year%" -T "TRACKNUMBER=%tracknr%" -T "GENRE=%genre%" -T "PERFORMER=%albuminterpret%" -T "COMPOSER=%composer%" %haslyrics%–tag-from-file=LYRICS="%lyricsfile%"%haslyrics% -T "ALBUMARTIST=%albumartist%" -T "DISCNUMBER=%cdnumber%" -T "TOTALDISCS=%totalcds%" -T "TOTALTRACKS=%numtracks%" -T "COMMENT=%comment%" %source% -o %dest%

TOC of the extracted CD

Track | Start | Length | Start sector | End sector
––––––––––––––––––––––––––––-
1 | 0:00.00 | 3:25.23 | 0 | 15397
2 | 3:25.23 | 3:05.58 | 15398 | 29330
3 | 6:31.06 | 4:02.69 | 29331 | 47549
4 | 10:34.00 | 3:05.74 | 47550 | 61498
5 | 13:39.74 | 2:37.51 | 61499 | 73324
6 | 16:17.50 | 5:06.22 | 73325 | 96296
7 | 21:23.72 | 2:13.56 | 96297 | 106327
8 | 23:37.53 | 4:27.00 | 106328 | 126352
9 | 28:04.53 | 3:26.03 | 126353 | 141805
10 | 31:30.56 | 4:55.59 | 141806 | 163989
11 | 36:26.40 | 4:20.05 | 163990 | 183494
12 | 40:46.45 | 0:51.49 | 183495 | 187368

Track 1

Filename C:UserskqwietDesktopMusic Conversions1 – Long Flowing Robe.wav

Pre-gap length 0:00:02.00

Peak level 94.5 %
Extraction speed 2.8 X
Track quality 100.0 %
Test CRC C8C7F87C
Copy CRC C8C7F87C
Track not present in AccurateRip database
Copy OK

Track 2

Filename C:UserskqwietDesktopMusic Conversions2 – The Ballad (Denny & Jean).wav

Peak level 94.4 %
Extraction speed 2.9 X
Track quality 100.0 %
Test CRC 9DE658A7
Copy CRC 9DE658A7
Track not present in AccurateRip database
Copy OK

Track 3

Filename C:UserskqwietDesktopMusic Conversions3 – Bleeding.wav

Peak level 94.5 %
Extraction speed 2.6 X
Track quality 100.0 %
Test CRC 69C71C65
Copy CRC 69C71C65
Track not present in AccurateRip database
Copy OK

Track 4

Filename C:UserskqwietDesktopMusic Conversions4 – Wailing Wall.wav

Peak level 94.4 %
Extraction speed 2.6 X
Track quality 100.0 %
Test CRC F269A24E
Copy CRC F269A24E
Track not present in AccurateRip database
Copy OK

Track 5

Filename C:UserskqwietDesktopMusic Conversions5 – The Range War.wav

Peak level 94.5 %
Extraction speed 2.8 X
Track quality 99.9 %
Test CRC 9A651B0E
Copy CRC 9A651B0E
Track not present in AccurateRip database
Copy OK

Track 6

Filename C:UserskqwietDesktopMusic Conversions6 – Chain Letter.wav

Peak level 94.5 %
Extraction speed 2.9 X
Track quality 100.0 %
Test CRC 5CFF1570
Copy CRC 5CFF1570
Track not present in AccurateRip database
Copy OK

Track 7

Filename C:UserskqwietDesktopMusic Conversions7 – A Long Time, A Long Way To Go.wav

Peak level 94.2 %
Extraction speed 3.0 X
Track quality 99.9 %
Test CRC B2C40E83
Copy CRC B2C40E83
Track not present in AccurateRip database
Copy OK

Track 8

Filename C:UserskqwietDesktopMusic Conversions8 – Boat On The Charles.wav

Peak level 94.5 %
Extraction speed 3.1 X
Track quality 100.0 %
Test CRC 60FB2D7A
Copy CRC 60FB2D7A
Track not present in AccurateRip database
Copy OK

Track 9

Filename C:UserskqwietDesktopMusic Conversions9 – Be Nice To Me.wav

Peak level 94.3 %
Extraction speed 3.3 X
Track quality 100.0 %
Test CRC 04B7A950
Copy CRC 04B7A950
Track not present in AccurateRip database
Copy OK

Track 10

Filename C:UserskqwietDesktopMusic Conversions10 – Hope I’m Around.wav

Peak level 94.6 %
Extraction speed 3.4 X
Track quality 99.9 %
Test CRC F6E1CE61
Copy CRC F6E1CE61
Track not present in AccurateRip database
Copy OK

Track 11

Filename C:UserskqwietDesktopMusic Conversions11 – Parole.wav

Peak level 94.5 %
Extraction speed 3.6 X
Track quality 100.0 %
Test CRC AF9DF016
Copy CRC AF9DF016
Track not present in AccurateRip database
Copy OK

Track 12

Filename C:UserskqwietDesktopMusic Conversions12 – Remember Me.wav

Peak level 71.9 %
Extraction speed 1.8 X
Track quality 100.0 %
Test CRC 95B50D39
Copy CRC 95B50D39
Track not present in AccurateRip database
Copy OK

None of the tracks are present in the AccurateRip database

No errors occurred

End of status report

–– CUETools DB Plugin V2.1.6

[CTDB TOCID: V7UpNsv6tK5fC13PlreNWaddZ6I-] database access error: The remote name could not be resolved: ‘db.cuetools.net’

==== Log checksum 08154851603AFFA49E4A99BED5EFD4618AE3A28CDB11630A159BBD024CCC5D65 ====

Todd Rundgren - The Complete Bearsville Album Collection (2016) [13 CD Box Set]

Tracklist Disc 3: Something / Anything? (1972)

01 – I Saw The Light
02 – It Wouldn’t Have Made Any Difference
03 – Wolfman Jack
04 – Cold Morning Light
05 – It Takes Two To Tango (This Is For The Girls)
06 – Sweeter Memories
07 – Intro
08 – Breathless
09 – The Night The Carousel Burned Down
10 – Saving Grace
11 – Marlene
12 – Song Of The Viking
13 – I Went To The Mirror

EAC Log
Exact Audio Copy V1.0 beta 6 from 9. April 2015

EAC extraction logfile from 21. March 2016, 19:26

Todd Rundgren / The Complete Bearsville Album Collection (Disc 3)

Used drive : LITE-ON DVD+RW SOHW-802S Adapter: 1 ID: 1

Read mode : Secure
Utilize accurate stream : Yes
Defeat audio cache : Yes
Make use of C2 pointers : No

Read offset correction : 12
Overread into Lead-In and Lead-Out : No
Fill up missing offset samples with silence : Yes
Delete leading and trailing silent blocks : No
Null samples used in CRC calculations : Yes
Used interface : Native Win32 interface for Win NT & 2000
Gap handling : Appended to previous track

Used output format : User Defined Encoder
Selected bitrate : 1024 kBit/s
Quality : High
Add ID3 tag : No
Command line compressor : C:Program FilesFLACflac.exe
Additional command line options : -8 -V -T "ARTIST=%artist%" -T "TITLE=%title%" -T "ALBUM=%albumtitle%" -T "DATE=%year%" -T "TRACKNUMBER=%tracknr%" -T "GENRE=%genre%" -T "PERFORMER=%albuminterpret%" -T "COMPOSER=%composer%" %haslyrics%–tag-from-file=LYRICS="%lyricsfile%"%haslyrics% -T "ALBUMARTIST=%albumartist%" -T "DISCNUMBER=%cdnumber%" -T "TOTALDISCS=%totalcds%" -T "TOTALTRACKS=%numtracks%" -T "COMMENT=%comment%" %source% -o %dest%

TOC of the extracted CD

Track | Start | Length | Start sector | End sector
––––––––––––––––––––––––––––-
1 | 0:00.00 | 3:00.21 | 0 | 13520
2 | 3:00.21 | 3:50.03 | 13521 | 30773
3 | 6:50.24 | 2:56.35 | 30774 | 44008
4 | 9:46.59 | 3:34.53 | 44009 | 60111
5 | 13:21.37 | 2:41.33 | 60112 | 72219
6 | 16:02.70 | 3:35.43 | 72220 | 88387
7 | 19:38.38 | 1:11.36 | 88388 | 93748
8 | 20:49.74 | 3:15.23 | 93749 | 108396
9 | 24:05.22 | 4:29.10 | 108397 | 128581
10 | 28:34.32 | 4:12.21 | 128582 | 147502
11 | 32:46.53 | 3:54.18 | 147503 | 165070
12 | 36:40.71 | 2:35.46 | 165071 | 176741
13 | 39:16.42 | 4:06.74 | 176742 | 195265

Track 1

Filename C:UserskqwietDesktopMusic Conversions1 – I Saw The Light.wav

Pre-gap length 0:00:02.00

Peak level 93.7 %
Extraction speed 2.7 X
Track quality 99.9 %
Test CRC 40483A62
Copy CRC 40483A62
Track not present in AccurateRip database
Copy OK

Track 2

Filename C:UserskqwietDesktopMusic Conversions2 – It Wouldn’t Have Made Any Difference.wav

Peak level 94.7 %
Extraction speed 2.9 X
Track quality 99.9 %
Test CRC A2C9AAB3
Copy CRC A2C9AAB3
Track not present in AccurateRip database
Copy OK

Track 3

Filename C:UserskqwietDesktopMusic Conversions3 – Wolfman Jack.wav

Peak level 94.4 %
Extraction speed 2.7 X
Track quality 100.0 %
Test CRC CBA414EF
Copy CRC CBA414EF
Track not present in AccurateRip database
Copy OK

Track 4

Filename C:UserskqwietDesktopMusic Conversions4 – Cold Morning Light.wav

Peak level 94.5 %
Extraction speed 2.7 X
Track quality 100.0 %
Test CRC 48E099FE
Copy CRC 48E099FE
Track not present in AccurateRip database
Copy OK

Track 5

Filename C:UserskqwietDesktopMusic Conversions5 – It Takes Two To Tango (This Is For The Girls).wav

Peak level 94.2 %
Extraction speed 2.7 X
Track quality 100.0 %
Test CRC 1EDFAB7F
Copy CRC 1EDFAB7F
Track not present in AccurateRip database
Copy OK

Track 6

Filename C:UserskqwietDesktopMusic Conversions6 – Sweeter Memories.wav

Peak level 94.4 %
Extraction speed 2.8 X
Track quality 100.0 %
Test CRC ECE775DB
Copy CRC ECE775DB
Track not present in AccurateRip database
Copy OK

Track 7

Filename C:UserskqwietDesktopMusic Conversions7 – Intro.wav

Peak level 94.2 %
Extraction speed 2.8 X
Track quality 100.0 %
Test CRC 8C2B54E6
Copy CRC 8C2B54E6
Track not present in AccurateRip database
Copy OK

Track 8

Filename C:UserskqwietDesktopMusic Conversions8 – Breathless.wav

Peak level 77.9 %
Extraction speed 3.0 X
Track quality 100.0 %
Test CRC 020C812F
Copy CRC 020C812F
Track not present in AccurateRip database
Copy OK

Track 9

Filename C:UserskqwietDesktopMusic Conversions9 – The Night The Carousel Burnt Down.wav

Peak level 94.5 %
Extraction speed 3.2 X
Track quality 100.0 %
Test CRC AE14F949
Copy CRC AE14F949
Track not present in AccurateRip database
Copy OK

Track 10

Filename C:UserskqwietDesktopMusic Conversions10 – Saving Grace.wav

Peak level 94.5 %
Extraction speed 3.3 X
Track quality 100.0 %
Test CRC AD98B6E0
Copy CRC AD98B6E0
Track not present in AccurateRip database
Copy OK

Track 11

Filename C:UserskqwietDesktopMusic Conversions11 – Marlene.wav

Peak level 93.9 %
Extraction speed 3.4 X
Track quality 100.0 %
Test CRC 1CFEE6B9
Copy CRC 1CFEE6B9
Track not present in AccurateRip database
Copy OK

Track 12

Filename C:UserskqwietDesktopMusic Conversions12 – Song Of The Viking.wav

Peak level 89.6 %
Extraction speed 3.5 X
Track quality 100.0 %
Test CRC 1AB63B29
Copy CRC 1AB63B29
Track not present in AccurateRip database
Copy OK

Track 13

Filename C:UserskqwietDesktopMusic Conversions13 – I Went To The Mirror.wav

Peak level 94.4 %
Extraction speed 2.0 X
Track quality 99.9 %
Test CRC CB69A42A
Copy CRC CB69A42A
Track not present in AccurateRip database
Copy OK

None of the tracks are present in the AccurateRip database

No errors occurred

End of status report

–– CUETools DB Plugin V2.1.6

[CTDB TOCID: d3W8WzVVtCU6DgQsrNx_RGuERhk-] database access error: The remote name could not be resolved: ‘db.cuetools.net’

==== Log checksum 0D2F4C157FAA276AD23CC4CC6483A4DDAF8717C9FFBA31A2BB82166ADD031674 ====

Tracklist Disc 4: Something / Anything? (1972)

01 – Black Maria
02 – One More Day (No Word)
03 – Couldn’t I Just Tell You
04 – Torch Song
05 – Little Red Lights
06 – Overture – My Roots: Money / Messin’ With The Kid
07 – Dust In The Wind
08 – Piss Aaron
09 – Hello It’s Me
10 – Some Folks Is Even Whiter Than Me
11 – You Left Me Sore
12 – Slut

EAC Log
Exact Audio Copy V1.0 beta 6 from 9. April 2015

EAC extraction logfile from 21. March 2016, 20:03

Todd Rundgren / The Complete Bearsville Album Collection (Disc 4)

Used drive : LITE-ON DVD+RW SOHW-802S Adapter: 1 ID: 1

Read mode : Secure
Utilize accurate stream : Yes
Defeat audio cache : Yes
Make use of C2 pointers : No

Read offset correction : 12
Overread into Lead-In and Lead-Out : No
Fill up missing offset samples with silence : Yes
Delete leading and trailing silent blocks : No
Null samples used in CRC calculations : Yes
Used interface : Native Win32 interface for Win NT & 2000
Gap handling : Appended to previous track

Used output format : User Defined Encoder
Selected bitrate : 1024 kBit/s
Quality : High
Add ID3 tag : No
Command line compressor : C:Program FilesFLACflac.exe
Additional command line options : -8 -V -T "ARTIST=%artist%" -T "TITLE=%title%" -T "ALBUM=%albumtitle%" -T "DATE=%year%" -T "TRACKNUMBER=%tracknr%" -T "GENRE=%genre%" -T "PERFORMER=%albuminterpret%" -T "COMPOSER=%composer%" %haslyrics%–tag-from-file=LYRICS="%lyricsfile%"%haslyrics% -T "ALBUMARTIST=%albumartist%" -T "DISCNUMBER=%cdnumber%" -T "TOTALDISCS=%totalcds%" -T "TOTALTRACKS=%numtracks%" -T "COMMENT=%comment%" %source% -o %dest%

TOC of the extracted CD

Track | Start | Length | Start sector | End sector
––––––––––––––––––––––––––––-
1 | 0:00.00 | 5:19.64 | 0 | 23988
2 | 5:19.64 | 3:42.64 | 23989 | 40702
3 | 9:02.53 | 3:33.71 | 40703 | 56748
4 | 12:36.49 | 2:53.27 | 56749 | 69750
5 | 15:30.01 | 4:52.04 | 69751 | 91654
6 | 20:22.05 | 2:28.62 | 91655 | 102816
7 | 22:50.67 | 3:49.23 | 102817 | 120014
8 | 26:40.15 | 3:26.58 | 120015 | 135522
9 | 30:06.73 | 4:37.70 | 135523 | 156367
10 | 34:44.68 | 4:00.05 | 156368 | 174372
11 | 38:44.73 | 3:13.50 | 174373 | 188897
12 | 41:58.48 | 4:03.02 | 188898 | 207124

Track 1

Filename C:UserskqwietDesktopMusic Conversions1 – Black Maria.wav

Pre-gap length 0:00:02.00

Peak level 94.4 %
Extraction speed 2.7 X
Track quality 100.0 %
Test CRC 791A1D2E
Copy CRC 791A1D2E
Track not present in AccurateRip database
Copy OK

Track 2

Filename C:UserskqwietDesktopMusic Conversions2 – One More Day (No Word).wav

Peak level 94.4 %
Extraction speed 2.7 X
Track quality 100.0 %
Test CRC 85CAFA67
Copy CRC 85CAFA67
Track not present in AccurateRip database
Copy OK

Track 3

Filename C:UserskqwietDesktopMusic Conversions3 – Couldn’t I Just Tell You.wav

Peak level 94.6 %
Extraction speed 2.8 X
Track quality 100.0 %
Test CRC 57948E43
Copy CRC 57948E43
Track not present in AccurateRip database
Copy OK

Track 4

Filename C:UserskqwietDesktopMusic Conversions4 – Torch Song.wav

Peak level 94.1 %
Extraction speed 2.6 X
Track quality 100.0 %
Test CRC 24716ABC
Copy CRC 24716ABC
Track not present in AccurateRip database
Copy OK

Track 5

Filename C:UserskqwietDesktopMusic Conversions5 – Little Red Lights.wav

Peak level 94.6 %
Extraction speed 2.9 X
Track quality 100.0 %
Test CRC CDE51D79
Copy CRC CDE51D79
Track not present in AccurateRip database
Copy OK

Track 6

Filename C:UserskqwietDesktopMusic Conversions6 – Overture – My Roots- Money (That’s What I Want) – Messin’ With The Kid.wav

Peak level 94.3 %
Extraction speed 2.9 X
Track quality 100.0 %
Test CRC FBF94580
Copy CRC FBF94580
Track not present in AccurateRip database
Copy OK

Track 7

Filename C:UserskqwietDesktopMusic Conversions7 – Dust In The Wind.wav

Peak level 94.4 %
Extraction speed 3.1 X
Track quality 100.0 %
Test CRC 5C56402B
Copy CRC 5C56402B
Track not present in AccurateRip database
Copy OK

Track 8

Filename C:UserskqwietDesktopMusic Conversions8 – Piss Aaron.wav

Peak level 94.6 %
Extraction speed 3.2 X
Track quality 100.0 %
Test CRC D9A10EDF
Copy CRC D9A10EDF
Track not present in AccurateRip database
Copy OK

Track 9

Filename C:UserskqwietDesktopMusic Conversions9 – Hello It’s Me.wav

Peak level 95.0 %
Extraction speed 3.4 X
Track quality 100.0 %
Test CRC B0F19960
Copy CRC B0F19960
Track not present in AccurateRip database
Copy OK

Track 10

Filename C:UserskqwietDesktopMusic Conversions10 – Some Folks Is Even Whiter Than Me.wav

Peak level 94.4 %
Extraction speed 3.5 X
Track quality 100.0 %
Test CRC 63C6E88F
Copy CRC 63C6E88F
Track not present in AccurateRip database
Copy OK

Track 11

Filename C:UserskqwietDesktopMusic Conversions11 – You Left Me Sore.wav

Peak level 94.4 %
Extraction speed 3.6 X
Track quality 100.0 %
Test CRC 04737E93
Copy CRC 04737E93
Track not present in AccurateRip database
Copy OK

Track 12

Filename C:UserskqwietDesktopMusic Conversions12 – Slut.wav

Peak level 94.5 %
Extraction speed 2.1 X
Track quality 99.9 %
Test CRC 7D4C3EAE
Copy CRC 7D4C3EAE
Track not present in AccurateRip database
Copy OK

None of the tracks are present in the AccurateRip database

No errors occurred

End of status report

–– CUETools DB Plugin V2.1.6

[CTDB TOCID: UrsP4n9rkw057.4OIml57V0LcdQ-] database access error: The remote name could not be resolved: ‘db.cuetools.net’

==== Log checksum B7ABA4D53EEC296993965033BC671FB715BBEECEE446BC92859155319941B483 ====

Todd Rundgren - The Complete Bearsville Album Collection (2016) [13 CD Box Set]

Tracklist Disc 5: A Wizard, A True Star (1973)

01 – International Feel
02 – Never, Never Land
03 – Tic Tic Tic It Wears Off
04 – You Need Your Head
05 – Rock And Roll Pussy
06 – Dogfight Giggle
07 – You Don’t Have To Camp Around
08 – Flamingo
09 – Zen Archer
10 – Just Another Onionhead / Da Do Dali
11 – When The Shit Hits The Fan / Sunset Blvd.
12 – La Feel Internacionale
13 – Sometimes I Don’t Know What To Feel
14 – Does Anybody Love You?
15 – Medley: I’m So Proud / Ooh Baby Baby / La La Means I Love You / Cool Jerk
16 – Hungry For Love
17 – I Don’t Want To Tie You Down
18 – Is It My Name?
19 – Just One Victory

EAC Log
Exact Audio Copy V1.0 beta 6 from 9. April 2015

EAC extraction logfile from 21. March 2016, 20:42

Todd Rundgren / The Complete Bearsville Album Collection (Disc 5)

Used drive : LITE-ON DVD+RW SOHW-802S Adapter: 1 ID: 1

Read mode : Secure
Utilize accurate stream : Yes
Defeat audio cache : Yes
Make use of C2 pointers : No

Read offset correction : 12
Overread into Lead-In and Lead-Out : No
Fill up missing offset samples with silence : Yes
Delete leading and trailing silent blocks : No
Null samples used in CRC calculations : Yes
Used interface : Native Win32 interface for Win NT & 2000
Gap handling : Appended to previous track

Used output format : User Defined Encoder
Selected bitrate : 1024 kBit/s
Quality : High
Add ID3 tag : No
Command line compressor : C:Program FilesFLACflac.exe
Additional command line options : -8 -V -T "ARTIST=%artist%" -T "TITLE=%title%" -T "ALBUM=%albumtitle%" -T "DATE=%year%" -T "TRACKNUMBER=%tracknr%" -T "GENRE=%genre%" -T "PERFORMER=%albuminterpret%" -T "COMPOSER=%composer%" %haslyrics%–tag-from-file=LYRICS="%lyricsfile%"%haslyrics% -T "ALBUMARTIST=%albumartist%" -T "DISCNUMBER=%cdnumber%" -T "TOTALDISCS=%totalcds%" -T "TOTALTRACKS=%numtracks%" -T "COMMENT=%comment%" %source% -o %dest%

TOC of the extracted CD

Track | Start | Length | Start sector | End sector
––––––––––––––––––––––––––––-
1 | 0:00.00 | 2:50.10 | 0 | 12759
2 | 2:50.10 | 1:34.38 | 12760 | 19847
3 | 4:24.48 | 1:14.11 | 19848 | 25408
4 | 5:38.59 | 1:02.09 | 25409 | 30067
5 | 6:40.68 | 1:08.37 | 30068 | 35204
6 | 7:49.30 | 1:04.72 | 35205 | 40076
7 | 8:54.27 | 1:03.02 | 40077 | 44803
8 | 9:57.29 | 2:34.42 | 44804 | 56395
9 | 12:31.71 | 5:35.25 | 56396 | 81545
10 | 18:07.21 | 2:23.43 | 81546 | 92313
11 | 20:30.64 | 4:02.35 | 92314 | 110498
12 | 24:33.24 | 1:52.40 | 110499 | 118938
13 | 26:25.64 | 4:15.37 | 118939 | 138100
14 | 30:41.26 | 1:31.02 | 138101 | 144927
15 | 32:12.28 | 10:33.71 | 144928 | 192473
16 | 42:46.24 | 2:18.17 | 192474 | 202840
17 | 45:04.41 | 1:56.24 | 202841 | 211564
18 | 47:00.65 | 4:01.12 | 211565 | 229651
19 | 51:02.02 | 4:59.10 | 229652 | 252086

Track 1

Filename C:UserskqwietDesktopMusic Conversions1 – International Feel.wav

Pre-gap length 0:00:02.00

Peak level 92.1 %
Extraction speed 2.5 X
Track quality 100.0 %
Test CRC 31AD0B9B
Copy CRC 31AD0B9B
Track not present in AccurateRip database
Copy OK

Track 2

Filename C:UserskqwietDesktopMusic Conversions2 – Never Never Land.wav

Peak level 86.7 %
Extraction speed 2.2 X
Track quality 100.0 %
Test CRC B7A952F6
Copy CRC B7A952F6
Track not present in AccurateRip database
Copy OK

Track 3

Filename C:UserskqwietDesktopMusic Conversions3 – Tic Tic Tic It Wears Off.wav

Peak level 94.6 %
Extraction speed 2.2 X
Track quality 100.0 %
Test CRC 96E88DC7
Copy CRC 96E88DC7
Track not present in AccurateRip database
Copy OK

Track 4

Filename C:UserskqwietDesktopMusic Conversions4 – You Need Your Head.wav

Peak level 94.3 %
Extraction speed 2.4 X
Track quality 100.0 %
Test CRC 97D73634
Copy CRC 97D73634
Track not present in AccurateRip database
Copy OK

Track 5

Filename C:UserskqwietDesktopMusic Conversions5 – Rock And Roll Pussy.wav

Peak level 89.6 %
Extraction speed 2.2 X
Track quality 100.0 %
Test CRC 2BDD3A13
Copy CRC 2BDD3A13
Track not present in AccurateRip database
Copy OK

Track 6

Filename C:UserskqwietDesktopMusic Conversions6 – Dogfight Giggle.wav

Peak level 91.2 %
Extraction speed 2.3 X
Track quality 100.0 %
Test CRC 77FA146A
Copy CRC 77FA146A
Track not present in AccurateRip database
Copy OK

Track 7

Filename C:UserskqwietDesktopMusic Conversions7 – You Don’t Have To Camp Around.wav

Peak level 94.4 %
Extraction speed 2.4 X
Track quality 100.0 %
Test CRC 24AD6C56
Copy CRC 24AD6C56
Track not present in AccurateRip database
Copy OK

Track 8

Filename C:UserskqwietDesktopMusic Conversions8 – Flamingo.wav

Peak level 94.4 %
Extraction speed 2.5 X
Track quality 100.0 %
Test CRC B1A696A8
Copy CRC B1A696A8
Track not present in AccurateRip database
Copy OK

Track 9

Filename C:UserskqwietDesktopMusic Conversions9 – Zen Archer.wav

Peak level 94.3 %
Extraction speed 2.9 X
Track quality 99.9 %
Test CRC 22BDCF82
Copy CRC 22BDCF82
Track not present in AccurateRip database
Copy OK

Track 10

Filename C:UserskqwietDesktopMusic Conversions10 – Just Another Onionhead,DaDa Dali.wav

Peak level 94.4 %
Extraction speed 2.8 X
Track quality 100.0 %
Test CRC F52E6856
Copy CRC F52E6856
Track not present in AccurateRip database
Copy OK

Track 11

Filename C:UserskqwietDesktopMusic Conversions11 – When The Shit Hits The Fan,Sunset Blvd.wav

Peak level 94.5 %
Extraction speed 3.1 X
Track quality 100.0 %
Test CRC E83EE377
Copy CRC E83EE377
Track not present in AccurateRip database
Copy OK

Track 12

Filename C:UserskqwietDesktopMusic Conversions12 – Le Feel Internacionale.wav

Peak level 94.4 %
Extraction speed 3.2 X
Track quality 99.9 %
Test CRC C1C6F5E6
Copy CRC C1C6F5E6
Track not present in AccurateRip database
Copy OK

Track 13

Filename C:UserskqwietDesktopMusic Conversions13 – Sometimes I Don’t Know What To Feel.wav

Peak level 94.5 %
Extraction speed 3.3 X
Track quality 100.0 %
Test CRC C863907C
Copy CRC C863907C
Track not present in AccurateRip database
Copy OK

Track 14

Filename C:UserskqwietDesktopMusic Conversions14 – Does Anybody Love You.wav

Peak level 94.3 %
Extraction speed 3.2 X
Track quality 100.0 %
Test CRC 305FDF55
Copy CRC 305FDF55
Track not present in AccurateRip database
Copy OK

Track 15

Filename C:UserskqwietDesktopMusic Conversions15 – Medley- I’m So Proud,Ooh Baby Baby,La La Means I Love You,Cool Jerk.wav

Peak level 94.4 %
Extraction speed 3.6 X
Track quality 100.0 %
Test CRC DDF377B1
Copy CRC DDF377B1
Track not present in AccurateRip database
Copy OK

Track 16

Filename C:UserskqwietDesktopMusic Conversions16 – Hungry For Love.wav

Peak level 94.2 %
Extraction speed 3.7 X
Track quality 100.0 %
Test CRC C6C647BA
Copy CRC C6C647BA
Track not present in AccurateRip database
Copy OK

Track 17

Filename C:UserskqwietDesktopMusic Conversions17 – I Don’t Want To Tie You Down.wav

Peak level 75.6 %
Extraction speed 3.7 X
Track quality 100.0 %
Test CRC 2FD76C1D
Copy CRC 2FD76C1D
Track not present in AccurateRip database
Copy OK

Track 18

Filename C:UserskqwietDesktopMusic Conversions18 – Is It My Name.wav

Peak level 93.0 %
Extraction speed 3.9 X
Track quality 100.0 %
Test CRC 92B816A4
Copy CRC 92B816A4
Track not present in AccurateRip database
Copy OK

Track 19

Filename C:UserskqwietDesktopMusic Conversions19 – Just One Victory.wav

Peak level 84.5 %
Extraction speed 2.4 X
Track quality 99.9 %
Test CRC CAA8FFA6
Copy CRC CAA8FFA6
Track not present in AccurateRip database
Copy OK

None of the tracks are present in the AccurateRip database

No errors occurred

End of status report

–– CUETools DB Plugin V2.1.6

[CTDB TOCID: NypSrYOEwqsVAOBek.zTW4V0nM4-] database access error: The remote name could not be resolved: ‘db.cuetools.net’

==== Log checksum BC9589FA74F23DC6CAE19E9183CA48A3B9EE11C6C84E7E3ADCACC144BE47C36C ====

Todd Rundgren - The Complete Bearsville Album Collection (2016) [13 CD Box Set]

Tracklist Disc 6: Todd (1974)

01 – How About A Little Fanfare?
02 – I Think You Know
03 – The Spark Of Life
04 – An Elpee’s Worth Of Toons
05 – A Dream Goes On Forever
06 – Lord Chancellor’s Nightmare Song
07 – Drunken Blue Rooster
08 – The Last Ride
09 – Everybody’s Going To Heaven / King Kong Reggae
10 – Number 1 Lowest Common Denominator
11 – Useless Begging
12 – Sidewalk Cafe
13 – Izzat Love?
14 – Heavy Metal Kids
15 – In And Out The Chakras We Go (Formerly: Shaft Goes To Outer Space)
16 – Don’t You Ever Learn?
17 – Sons Of 1984

EAC Log
Exact Audio Copy V1.0 beta 6 from 9. April 2015

EAC extraction logfile from 21. March 2016, 21:36

Todd Rundgren / The Complete Bearsville Album Collection (Disc 6)

Used drive : LITE-ON DVD+RW SOHW-802S Adapter: 1 ID: 1

Read mode : Secure
Utilize accurate stream : Yes
Defeat audio cache : Yes
Make use of C2 pointers : No

Read offset correction : 12
Overread into Lead-In and Lead-Out : No
Fill up missing offset samples with silence : Yes
Delete leading and trailing silent blocks : No
Null samples used in CRC calculations : Yes
Used interface : Native Win32 interface for Win NT & 2000
Gap handling : Appended to previous track

Used output format : User Defined Encoder
Selected bitrate : 1024 kBit/s
Quality : High
Add ID3 tag : No
Command line compressor : C:Program FilesFLACflac.exe
Additional command line options : -8 -V -T "ARTIST=%artist%" -T "TITLE=%title%" -T "ALBUM=%albumtitle%" -T "DATE=%year%" -T "TRACKNUMBER=%tracknr%" -T "GENRE=%genre%" -T "PERFORMER=%albuminterpret%" -T "COMPOSER=%composer%" %haslyrics%–tag-from-file=LYRICS="%lyricsfile%"%haslyrics% -T "ALBUMARTIST=%albumartist%" -T "DISCNUMBER=%cdnumber%" -T "TOTALDISCS=%totalcds%" -T "TOTALTRACKS=%numtracks%" -T "COMMENT=%comment%" %source% -o %dest%

TOC of the extracted CD

Track | Start | Length | Start sector | End sector
––––––––––––––––––––––––––––-
1 | 0:00.00 | 1:03.00 | 0 | 4724
2 | 1:03.00 | 3:04.59 | 4725 | 18583
3 | 4:07.59 | 6:23.29 | 18584 | 47337
4 | 10:31.13 | 2:09.03 | 47338 | 57015
5 | 12:40.16 | 2:21.14 | 57016 | 67604
6 | 15:01.30 | 3:32.11 | 67605 | 83515
7 | 18:33.41 | 3:00.55 | 83516 | 97070
8 | 21:34.21 | 4:48.39 | 97071 | 118709
9 | 26:22.60 | 6:38.12 | 118710 | 148571
10 | 33:00.72 | 5:12.41 | 148572 | 172012
11 | 38:13.38 | 3:39.72 | 172013 | 188509
12 | 41:53.35 | 2:15.36 | 188510 | 198670
13 | 44:08.71 | 1:55.13 | 198671 | 207308
14 | 46:04.09 | 4:17.29 | 207309 | 226612
15 | 50:21.38 | 5:48.11 | 226613 | 252723
16 | 56:09.49 | 6:06.37 | 252724 | 280210
17 | 62:16.11 | 4:34.29 | 280211 | 300789

Track 1

Filename C:UserskqwietDesktopMusic Conversions1 – How About A Little Fanfare.wav

Pre-gap length 0:00:02.00

Peak level 93.4 %
Extraction speed 2.1 X
Track quality 100.0 %
Test CRC FB9EB792
Copy CRC FB9EB792
Track not present in AccurateRip database
Copy OK

Track 2

Filename C:UserskqwietDesktopMusic Conversions2 – I Think You Know.wav

Peak level 92.8 %
Extraction speed 2.4 X
Track quality 100.0 %
Test CRC 029F42FF
Copy CRC 029F42FF
Track not present in AccurateRip database
Copy OK

Track 3

Filename C:UserskqwietDesktopMusic Conversions3 – The Spark Of Life.wav

Peak level 93.4 %
Extraction speed 2.6 X
Track quality 100.0 %
Test CRC 1E572208
Copy CRC 1E572208
Track not present in AccurateRip database
Copy OK

Track 4

Filename C:UserskqwietDesktopMusic Conversions4 – An Elpee’s Worth Of Toons.wav

Peak level 93.3 %
Extraction speed 2.8 X
Track quality 100.0 %
Test CRC 30855404
Copy CRC 30855404
Track not present in AccurateRip database
Copy OK

Track 5

Filename C:UserskqwietDesktopMusic Conversions5 – A Dream Goes On Forever.wav

Peak level 93.4 %
Extraction speed 2.9 X
Track quality 100.0 %
Test CRC 47F5CB38
Copy CRC 47F5CB38
Track not present in AccurateRip database
Copy OK

Track 6

Filename C:UserskqwietDesktopMusic Conversions6 – Lord Chancellor’s Nightmare Song.wav

Peak level 81.6 %
Extraction speed 3.1 X
Track quality 99.9 %
Test CRC 5F5ABA8B
Copy CRC 5F5ABA8B
Track not present in AccurateRip database
Copy OK

Track 7

Filename C:UserskqwietDesktopMusic Conversions7 – Drunken Blue Rooster.wav

Peak level 93.0 %
Extraction speed 3.1 X
Track quality 100.0 %
Test CRC 28580521
Copy CRC 28580521
Track not present in AccurateRip database
Copy OK

Track 8

Filename C:UserskqwietDesktopMusic Conversions8 – The Last Ride.wav

Peak level 92.6 %
Extraction speed 3.3 X
Track quality 99.9 %
Test CRC 8357BDCF
Copy CRC 8357BDCF
Track not present in AccurateRip database
Copy OK

Track 9

Filename C:UserskqwietDesktopMusic Conversions9 – Everybody’s Going To Heaven , King Kong Reggae.wav

Peak level 93.1 %
Extraction speed 3.6 X
Track quality 100.0 %
Test CRC 8F980092
Copy CRC 8F980092
Track not present in AccurateRip database
Copy OK

Track 10

Filename C:UserskqwietDesktopMusic Conversions10 – Number 1 Lowest Common Denominator.wav

Peak level 93.8 %
Extraction speed 3.7 X
Track quality 100.0 %
Test CRC 98646D94
Copy CRC 98646D94
Track not present in AccurateRip database
Copy OK

Track 11

Filename C:UserskqwietDesktopMusic Conversions11 – Useless Begging.wav

Peak level 93.3 %
Extraction speed 3.9 X
Track quality 100.0 %
Test CRC F1EB61F3
Copy CRC F1EB61F3
Track not present in AccurateRip database
Copy OK

Track 12

Filename C:UserskqwietDesktopMusic Conversions12 – Sidewalk Cafe.wav

Peak level 93.5 %
Extraction speed 4.0 X
Track quality 100.0 %
Test CRC BF283C8C
Copy CRC BF283C8C
Track not present in AccurateRip database
Copy OK

Track 13

Filename C:UserskqwietDesktopMusic Conversions13 – Izzat Love.wav

Peak level 97.7 %
Extraction speed 3.7 X
Track quality 99.9 %
Test CRC 1D811023
Copy CRC 1D811023
Track not present in AccurateRip database
Copy OK

Track 14

Filename C:UserskqwietDesktopMusic Conversions14 – Heavy Metal Kids.wav

Peak level 93.3 %
Extraction speed 4.3 X
Track quality 100.0 %
Test CRC CE29C30A
Copy CRC CE29C30A
Track not present in AccurateRip database
Copy OK

Track 15

Filename C:UserskqwietDesktopMusic Conversions15 – In And Out The Chakras We Go.wav

Peak level 96.9 %
Extraction speed 4.4 X
Track quality 100.0 %
Test CRC 089CB44F
Copy CRC 089CB44F
Track not present in AccurateRip database
Copy OK

Track 16

Filename C:UserskqwietDesktopMusic Conversions16 – Don’t You Ever Learn.wav

Peak level 92.1 %
Extraction speed 4.6 X
Track quality 99.9 %
Test CRC 5766A148
Copy CRC 5766A148
Track not present in AccurateRip database
Copy OK

Track 17

Filename C:UserskqwietDesktopMusic Conversions17 – Sons Of 1984.wav

Peak level 95.7 %
Extraction speed 4.0 X
Track quality 100.0 %
Test CRC 7BBA5955
Copy CRC 7BBA5955
Track not present in AccurateRip database
Copy OK

None of the tracks are present in the AccurateRip database

No errors occurred

End of status report

–– CUETools DB Plugin V2.1.6

[CTDB TOCID: C_FahRU6dElTWeG2YdMFkawuego-] database access error: The remote name could not be resolved: ‘db.cuetools.net’

==== Log checksum 3627F9E25B98E7E517DE1DFDF0B8B347ED1E6030CD73D7B8B62D4111BD75A599 ====

Todd Rundgren - The Complete Bearsville Album Collection (2016) [13 CD Box Set]

Tracklist Disc 7: Initiation (1975)

01 – Real Man
02 – Born To Synthesize
03 – The Death Of Rock And Roll
04 – Eastern Intrigue
05 – Initiation
06 – Fair Warning
07 – A Treatise On Cosmic Fire – Intro-Prana
08 – A Treatise On Cosmic Fire II – The Fire Of Mind Or Solar Fire
09 – A Treatise On Cosmic Fire III – The Fire Of Spirit Or Electric Fire
10 – A Treatise On Cosmic Fire I – The Internal Fire Or Fire By Friction / Outro-Prana

EAC Log
Exact Audio Copy V1.0 beta 6 from 9. April 2015

EAC extraction logfile from 21. March 2016, 22:33

Todd Rundgren / The Complete Bearsville Album Collection (Disc 7)

Used drive : LITE-ON DVD+RW SOHW-802S Adapter: 1 ID: 1

Read mode : Secure
Utilize accurate stream : Yes
Defeat audio cache : Yes
Make use of C2 pointers : No

Read offset correction : 12
Overread into Lead-In and Lead-Out : No
Fill up missing offset samples with silence : Yes
Delete leading and trailing silent blocks : No
Null samples used in CRC calculations : Yes
Used interface : Native Win32 interface for Win NT & 2000
Gap handling : Appended to previous track

Used output format : User Defined Encoder
Selected bitrate : 1024 kBit/s
Quality : High
Add ID3 tag : No
Command line compressor : C:Program FilesFLACflac.exe
Additional command line options : -8 -V -T "ARTIST=%artist%" -T "TITLE=%title%" -T "ALBUM=%albumtitle%" -T "DATE=%year%" -T "TRACKNUMBER=%tracknr%" -T "GENRE=%genre%" -T "PERFORMER=%albuminterpret%" -T "COMPOSER=%composer%" %haslyrics%–tag-from-file=LYRICS="%lyricsfile%"%haslyrics% -T "ALBUMARTIST=%albumartist%" -T "DISCNUMBER=%cdnumber%" -T "TOTALDISCS=%totalcds%" -T "TOTALTRACKS=%numtracks%" -T "COMMENT=%comment%" %source% -o %dest%

TOC of the extracted CD

Track | Start | Length | Start sector | End sector
––––––––––––––––––––––––––––-
1 | 0:00.00 | 4:24.56 | 0 | 19855
2 | 4:24.56 | 3:43.39 | 19856 | 36619
3 | 8:08.20 | 3:48.34 | 36620 | 53753
4 | 11:56.54 | 5:04.14 | 53754 | 76567
5 | 17:00.68 | 7:04.14 | 76568 | 108381
6 | 24:05.07 | 7:59.54 | 108382 | 144360
7 | 32:04.61 | 4:20.48 | 144361 | 163908
8 | 36:25.34 | 3:49.68 | 163909 | 181151
9 | 40:15.27 | 7:32.26 | 181152 | 215077
10 | 47:47.53 | 19:34.22 | 215078 | 303149

Track 1

Filename C:UserskqwietDesktopMusic Conversions1 – Real Man.wav

Pre-gap length 0:00:02.00

Peak level 94.4 %
Extraction speed 2.4 X
Track quality 100.0 %
Test CRC 21D1E2BE
Copy CRC 21D1E2BE
Track not present in AccurateRip database
Copy OK

Track 2

Filename C:UserskqwietDesktopMusic Conversions2 – Born To Synthesize.wav

Peak level 94.3 %
Extraction speed 2.6 X
Track quality 100.0 %
Test CRC 05DB9C11
Copy CRC 05DB9C11
Track not present in AccurateRip database
Copy OK

Track 3

Filename C:UserskqwietDesktopMusic Conversions3 – The Death Of Rock And Roll.wav

Peak level 91.8 %
Extraction speed 2.8 X
Track quality 100.0 %
Test CRC DC75ADA1
Copy CRC DC75ADA1
Track not present in AccurateRip database
Copy OK

Track 4

Filename C:UserskqwietDesktopMusic Conversions4 – Eastern Intrigue.wav

Peak level 88.3 %
Extraction speed 3.0 X
Track quality 100.0 %
Test CRC 7C330E5D
Copy CRC 7C330E5D
Track not present in AccurateRip database
Copy OK

Track 5

Filename C:UserskqwietDesktopMusic Conversions5 – Initiation.wav

Peak level 94.4 %
Extraction speed 3.2 X
Track quality 100.0 %
Test CRC C38A0E4C
Copy CRC C38A0E4C
Track not present in AccurateRip database
Copy OK

Track 6

Filename C:UserskqwietDesktopMusic Conversions6 – Fair Warning.wav

Peak level 92.2 %
Extraction speed 3.6 X
Track quality 99.9 %
Test CRC F6747EFF
Copy CRC F6747EFF
Track not present in AccurateRip database
Copy OK

Track 7

Filename C:UserskqwietDesktopMusic Conversions7 – A Treatise On Cosmic Fire – Intro-Prana.wav

Peak level 89.2 %
Extraction speed 3.7 X
Track quality 100.0 %
Test CRC 80358997
Copy CRC 80358997
Track not present in AccurateRip database
Copy OK

Track 8

Filename C:UserskqwietDesktopMusic Conversions8 – A Treatise On Cosmic Fire II – The Fire Of Mind Or Solar Fire.wav

Peak level 90.1 %
Extraction speed 3.8 X
Track quality 100.0 %
Test CRC D7EFF3BA
Copy CRC D7EFF3BA
Track not present in AccurateRip database
Copy OK

Track 9

Filename C:UserskqwietDesktopMusic Conversions9 – A Treatise On Cosmic Fire III – The Fire Of Spirit Or Electric Fire.wav

Peak level 94.4 %
Extraction speed 4.2 X
Track quality 100.0 %
Test CRC 6595006A
Copy CRC 6595006A
Track not present in AccurateRip database
Copy OK

Track 10

Filename C:UserskqwietDesktopMusic Conversions10 – A Treatise On Cosmic Fire I – The Infernal Fire Or Fire By Friction – Outro-Prana.wav

Peak level 94.6 %
Extraction speed 3.7 X
Track quality 99.9 %
Test CRC 209A8FF4
Copy CRC 209A8FF4
Track not present in AccurateRip database
Copy OK

None of the tracks are present in the AccurateRip database

No errors occurred

End of status report

–– CUETools DB Plugin V2.1.6

[CTDB TOCID: QOs2U7DfaHC6k5KXe74WttdRk2o-] database access error: The remote name could not be resolved: ‘db.cuetools.net’

==== Log checksum 9D2554BE021B924B3160A160235B581801D56F44090E5C7C6B201F765C674B2F ====

Todd Rundgren - The Complete Bearsville Album Collection (2016) [13 CD Box Set]

Tracklist Disc 8: Faithful (1976)

01 – Happenings Ten Years Time Ago
02 – Good Vibrations
03 – Rain
04 – Most Likely You Go Your Way And I’ll Go Mine
05 – If Six Was Nine
06 – Strawberry Fields Forever
07 – Black And White
08 – Love Of The Common Man
09 – When I Pray
10 – Chiche
11 – The Verb "To Love"
12 – Boogies (Hamburger Hell)

EAC Log
Exact Audio Copy V1.0 beta 6 from 9. April 2015

EAC extraction logfile from 21. March 2016, 23:05

Todd Rundgren / The Complete Bearsville Album Collection (Disc 8)

Used drive : LITE-ON DVD+RW SOHW-802S Adapter: 1 ID: 1

Read mode : Secure
Utilize accurate stream : Yes
Defeat audio cache : Yes
Make use of C2 pointers : No

Read offset correction : 12
Overread into Lead-In and Lead-Out : No
Fill up missing offset samples with silence : Yes
Delete leading and trailing silent blocks : No
Null samples used in CRC calculations : Yes
Used interface : Native Win32 interface for Win NT & 2000
Gap handling : Appended to previous track

Used output format : User Defined Encoder
Selected bitrate : 1024 kBit/s
Quality : High
Add ID3 tag : No
Command line compressor : C:Program FilesFLACflac.exe
Additional command line options : -8 -V -T "ARTIST=%artist%" -T "TITLE=%title%" -T "ALBUM=%albumtitle%" -T "DATE=%year%" -T "TRACKNUMBER=%tracknr%" -T "GENRE=%genre%" -T "PERFORMER=%albuminterpret%" -T "COMPOSER=%composer%" %haslyrics%–tag-from-file=LYRICS="%lyricsfile%"%haslyrics% -T "ALBUMARTIST=%albumartist%" -T "DISCNUMBER=%cdnumber%" -T "TOTALDISCS=%totalcds%" -T "TOTALTRACKS=%numtracks%" -T "COMMENT=%comment%" %source% -o %dest%

TOC of the extracted CD

Track | Start | Length | Start sector | End sector
––––––––––––––––––––––––––––-
1 | 0:00.00 | 3:12.63 | 0 | 14462
2 | 3:12.63 | 3:43.51 | 14463 | 31238
3 | 6:56.39 | 3:17.42 | 31239 | 46055
4 | 10:14.06 | 3:26.60 | 46056 | 61565
5 | 13:40.66 | 4:55.29 | 61566 | 83719
6 | 18:36.20 | 3:52.07 | 83720 | 101126
7 | 22:28.27 | 4:43.58 | 101127 | 122409
8 | 27:12.10 | 3:36.11 | 122410 | 138620
9 | 30:48.21 | 2:58.46 | 138621 | 152016
10 | 33:46.67 | 4:01.08 | 152017 | 170099
11 | 37:48.00 | 7:24.67 | 170100 | 203466
12 | 45:12.67 | 5:05.22 | 203467 | 226363

Track 1

Filename C:UserskqwietDesktopMusic Conversions1 – Happenings Ten Years Time Ago.wav

Pre-gap length 0:00:02.00

Peak level 94.4 %
Extraction speed 2.6 X
Track quality 100.0 %
Test CRC F963EA62
Copy CRC F963EA62
Track not present in AccurateRip database
Copy OK

Track 2

Filename C:UserskqwietDesktopMusic Conversions2 – Good Vibrations.wav

Peak level 94.4 %
Extraction speed 2.8 X
Track quality 100.0 %
Test CRC B8AB337C
Copy CRC B8AB337C
Track not present in AccurateRip database
Copy OK

Track 3

Filename C:UserskqwietDesktopMusic Conversions3 – Rain.wav

Peak level 94.6 %
Extraction speed 2.6 X
Track quality 99.9 %
Test CRC C908702D
Copy CRC C908702D
Track not present in AccurateRip database
Copy OK

Track 4

Filename C:UserskqwietDesktopMusic Conversions4 – Maybe You’ll Go Your Way And I’ll Go Mine.wav

Peak level 94.5 %
Extraction speed 2.9 X
Track quality 99.9 %
Test CRC 590E09DE
Copy CRC 590E09DE
Track not present in AccurateRip database
Copy OK

Track 5

Filename C:UserskqwietDesktopMusic Conversions5 – If Six Was Nine.wav

Peak level 94.4 %
Extraction speed 2.8 X
Track quality 100.0 %
Test CRC 0B878394
Copy CRC 0B878394
Track not present in AccurateRip database
Copy OK

Track 6

Filename C:UserskqwietDesktopMusic Conversions6 – Strawberry Fields Forever.wav

Peak level 94.4 %
Extraction speed 3.1 X
Track quality 99.9 %
Test CRC 03395B7B
Copy CRC 03395B7B
Track not present in AccurateRip database
Copy OK

Track 7

Filename C:UserskqwietDesktopMusic Conversions7 – Black And White.wav

Peak level 94.6 %
Extraction speed 3.1 X
Track quality 100.0 %
Test CRC B5E42EDB
Copy CRC B5E42EDB
Track not present in AccurateRip database
Copy OK

Track 8

Filename C:UserskqwietDesktopMusic Conversions8 – Love Of The Common Man.wav

Peak level 94.5 %
Extraction speed 3.4 X
Track quality 99.9 %
Test CRC B758B690
Copy CRC B758B690
Track not present in AccurateRip database
Copy OK

Track 9

Filename C:UserskqwietDesktopMusic Conversions9 – When I Pray.wav

Peak level 94.8 %
Extraction speed 3.5 X
Track quality 99.9 %
Test CRC BEF65158
Copy CRC BEF65158
Track not present in AccurateRip database
Copy OK

Track 10

Filename C:UserskqwietDesktopMusic Conversions10 – Cliche.wav

Peak level 94.9 %
Extraction speed 3.5 X
Track quality 100.0 %
Test CRC 492D6DCB
Copy CRC 492D6DCB
Track not present in AccurateRip database
Copy OK

Track 11

Filename C:UserskqwietDesktopMusic Conversions11 – The Verb ”To Love”.wav

Peak level 94.9 %
Extraction speed 3.8 X
Track quality 99.9 %
Test CRC 9A7B49C6
Copy CRC 9A7B49C6
Track not present in AccurateRip database
Copy OK

Track 12

Filename C:UserskqwietDesktopMusic Conversions12 – Boogies (Hamburger Hell).wav

Peak level 94.5 %
Extraction speed 3.4 X
Track quality 100.0 %
Test CRC 431FE291
Copy CRC 431FE291
Track not present in AccurateRip database
Copy OK

None of the tracks are present in the AccurateRip database

No errors occurred

End of status report

–– CUETools DB Plugin V2.1.6

[CTDB TOCID: HT63T_ZPLfnUE7nODwgAj4xD6yc-] database access error: The remote name could not be resolved: ‘db.cuetools.net’

==== Log checksum EE8721FEA4FA5CEC0CFCDDB683AA75072E8D28FF47DBFBBE00712A957116B181 ====

Todd Rundgren - The Complete Bearsville Album Collection (2016) [13 CD Box Set]

Tracklist Disc 9: Back to the Bars (1978)

01 – Real Man
02 – Love Of The Common Man
03 – The Verb "To Love"
04 – Love In Action
05 – A Dream Goes On Forever
06 – Sometimes I Don’t Know What To Feel
07 – The Range War
08 – Black And White
09 – The Last Ride
10 – Cliche
11 – Don’t You Ever Learn?

EAC Log
Exact Audio Copy V1.0 beta 6 from 9. April 2015

EAC extraction logfile from 21. March 2016, 23:47

Todd Rundgren / The Complete Bearsville Album Collection (Disc 9)

Used drive : LITE-ON DVD+RW SOHW-802S Adapter: 1 ID: 1

Read mode : Secure
Utilize accurate stream : Yes
Defeat audio cache : Yes
Make use of C2 pointers : No

Read offset correction : 12
Overread into Lead-In and Lead-Out : No
Fill up missing offset samples with silence : Yes
Delete leading and trailing silent blocks : No
Null samples used in CRC calculations : Yes
Used interface : Native Win32 interface for Win NT & 2000
Gap handling : Appended to previous track

Used output format : User Defined Encoder
Selected bitrate : 1024 kBit/s
Quality : High
Add ID3 tag : No
Command line compressor : C:Program FilesFLACflac.exe
Additional command line options : -8 -V -T "ARTIST=%artist%" -T "TITLE=%title%" -T "ALBUM=%albumtitle%" -T "DATE=%year%" -T "TRACKNUMBER=%tracknr%" -T "GENRE=%genre%" -T "PERFORMER=%albuminterpret%" -T "COMPOSER=%composer%" %haslyrics%–tag-from-file=LYRICS="%lyricsfile%"%haslyrics% -T "ALBUMARTIST=%albumartist%" -T "DISCNUMBER=%cdnumber%" -T "TOTALDISCS=%totalcds%" -T "TOTALTRACKS=%numtracks%" -T "COMMENT=%comment%" %source% -o %dest%

TOC of the extracted CD

Track | Start | Length | Start sector | End sector
––––––––––––––––––––––––––––-
1 | 0:00.00 | 4:48.28 | 0 | 21627
2 | 4:48.28 | 4:25.55 | 21628 | 41557
3 | 9:14.08 | 8:01.19 | 41558 | 77651
4 | 17:15.27 | 3:44.52 | 77652 | 94503
5 | 21:00.04 | 2:33.03 | 94504 | 105981
6 | 23:33.07 | 4:23.07 | 105982 | 125713
7 | 27:56.14 | 2:46.50 | 125714 | 138213
8 | 30:42.64 | 5:34.14 | 138214 | 163277
9 | 36:17.03 | 6:04.15 | 163278 | 190592
10 | 42:21.18 | 4:13.22 | 190593 | 209589
11 | 46:34.40 | 5:51.60 | 209590 | 235974

Track 1

Filename C:UserskqwietDesktopMusic Conversions1 – Real Man.wav

Pre-gap length 0:00:02.00

Peak level 96.3 %
Extraction speed 2.8 X
Track quality 100.0 %
Test CRC F787C868
Copy CRC F787C868
Track not present in AccurateRip database
Copy OK

Track 2

Filename C:UserskqwietDesktopMusic Conversions2 – Love Of The Common Man.wav

Peak level 95.7 %
Extraction speed 2.7 X
Track quality 100.0 %
Test CRC 35167E28
Copy CRC 35167E28
Track not present in AccurateRip database
Copy OK

Track 3

Filename C:UserskqwietDesktopMusic Conversions3 – The Verb ”To Love”.wav

Peak level 97.0 %
Extraction speed 2.8 X
Track quality 100.0 %
Test CRC 06C7DF70
Copy CRC 06C7DF70
Track not present in AccurateRip database
Copy OK

Track 4

Filename C:UserskqwietDesktopMusic Conversions4 – Love In Action.wav

Peak level 96.5 %
Extraction speed 2.9 X
Track quality 100.0 %
Test CRC DB047861
Copy CRC DB047861
Track not present in AccurateRip database
Copy OK

Track 5

Filename C:UserskqwietDesktopMusic Conversions5 – A Dream Goes On Forever.wav

Peak level 64.5 %
Extraction speed 3.0 X
Track quality 99.9 %
Test CRC 339BE76B
Copy CRC 339BE76B
Track not present in AccurateRip database
Copy OK

Track 6

Filename C:UserskqwietDesktopMusic Conversions6 – Sometimes I Don’t Know What To Feel.wav

Peak level 96.6 %
Extraction speed 3.2 X
Track quality 100.0 %
Test CRC 73EBD804
Copy CRC 73EBD804
Track not present in AccurateRip database
Copy OK

Track 7

Filename C:UserskqwietDesktopMusic Conversions7 – The Range War.wav

Peak level 96.5 %
Extraction speed 3.4 X
Track quality 99.9 %
Test CRC FFBC3120
Copy CRC FFBC3120
Track not present in AccurateRip database
Copy OK

Track 8

Filename C:UserskqwietDesktopMusic Conversions8 – Black And White.wav

Peak level 96.7 %
Extraction speed 3.4 X
Track quality 100.0 %
Test CRC 2911803E
Copy CRC 2911803E
Track not present in AccurateRip database
Copy OK

Track 9

Filename C:UserskqwietDesktopMusic Conversions9 – The Last Ride.wav

Peak level 96.4 %
Extraction speed 3.6 X
Track quality 99.9 %
Test CRC 28AC0887
Copy CRC 28AC0887
Track not present in AccurateRip database
Copy OK

Track 10

Filename C:UserskqwietDesktopMusic Conversions10 – Cliche’.wav

Peak level 71.6 %
Extraction speed 3.7 X
Track quality 99.9 %
Test CRC 35D50717
Copy CRC 35D50717
Track not present in AccurateRip database
Copy OK

Track 11

Filename C:UserskqwietDesktopMusic Conversions11 – Don’t You Ever Learn.wav

Peak level 96.0 %
Extraction speed 3.5 X
Track quality 100.0 %
Test CRC 523D22C0
Copy CRC 523D22C0
Track not present in AccurateRip database
Copy OK

None of the tracks are present in the AccurateRip database

No errors occurred

End of status report

–– CUETools DB Plugin V2.1.6

[CTDB TOCID: OCLhddqFb4jkDHuq4f0VbmvsTYU-] database access error: The remote name could not be resolved: ‘db.cuetools.net’

==== Log checksum 0625E83FCBCD1CDEE104C4DCEF040884F5FE4608EC59FB9C29918EDE1B00EFB2 ====

Tracklist Disc 10: Back to the Bars (1978)

01 – Never, Never Land
02 – Black Maria
03 – Zen Archer
04 – Medley: I’m So Proud / Ooh Baby Baby / La La Means I Love You / I Saw The Light
05 – It Wouldn’t Have Made Any Difference
06 – Eastern Intrigue
07 – Initiation
08 – Couldn’t I Just Tell You
09 – Hello It’s Me

EAC Log
Exact Audio Copy V1.0 beta 6 from 9. April 2015

EAC extraction logfile from 22. March 2016, 0:22

Todd Rundgren / The Complete Bearsville Album Collection (Disc 10)

Used drive : LITE-ON DVD+RW SOHW-802S Adapter: 1 ID: 1

Read mode : Secure
Utilize accurate stream : Yes
Defeat audio cache : Yes
Make use of C2 pointers : No

Read offset correction : 12
Overread into Lead-In and Lead-Out : No
Fill up missing offset samples with silence : Yes
Delete leading and trailing silent blocks : No
Null samples used in CRC calculations : Yes
Used interface : Native Win32 interface for Win NT & 2000
Gap handling : Appended to previous track

Used output format : User Defined Encoder
Selected bitrate : 1024 kBit/s
Quality : High
Add ID3 tag : No
Command line compressor : C:Program FilesFLACflac.exe
Additional command line options : -8 -V -T "ARTIST=%artist%" -T "TITLE=%title%" -T "ALBUM=%albumtitle%" -T "DATE=%year%" -T "TRACKNUMBER=%tracknr%" -T "GENRE=%genre%" -T "PERFORMER=%albuminterpret%" -T "COMPOSER=%composer%" %haslyrics%–tag-from-file=LYRICS="%lyricsfile%"%haslyrics% -T "ALBUMARTIST=%albumartist%" -T "DISCNUMBER=%cdnumber%" -T "TOTALDISCS=%totalcds%" -T "TOTALTRACKS=%numtracks%" -T "COMMENT=%comment%" %source% -o %dest%

TOC of the extracted CD

Track | Start | Length | Start sector | End sector
––––––––––––––––––––––––––––-
1 | 0:00.00 | 2:49.63 | 0 | 12737
2 | 2:49.63 | 5:42.25 | 12738 | 38412
3 | 8:32.13 | 5:44.14 | 38413 | 64226
4 | 14:16.27 | 10:59.62 | 64227 | 113713
5 | 25:16.14 | 4:28.68 | 113714 | 133881
6 | 29:45.07 | 5:58.54 | 133882 | 160785
7 | 35:43.61 | 6:35.53 | 160786 | 190463
8 | 42:19.39 | 4:05.64 | 190464 | 208902
9 | 46:25.28 | 4:26.52 | 208903 | 228904

Track 1

Filename C:UserskqwietDesktopMusic Conversions1 – Never Never Land.wav

Pre-gap length 0:00:02.00

Peak level 79.0 %
Extraction speed 2.9 X
Track quality 100.0 %
Test CRC 46FBEAEA
Copy CRC 46FBEAEA
Track not present in AccurateRip database
Copy OK

Track 2

Filename C:UserskqwietDesktopMusic Conversions2 – Black Maria.wav

Peak level 96.6 %
Extraction speed 3.0 X
Track quality 100.0 %
Test CRC 37846DB6
Copy CRC 37846DB6
Track not present in AccurateRip database
Copy OK

Track 3

Filename C:UserskqwietDesktopMusic Conversions3 – Zen Archer.wav

Peak level 89.7 %
Extraction speed 2.7 X
Track quality 100.0 %
Test CRC AD89F6D6
Copy CRC AD89F6D6
Track not present in AccurateRip database
Copy OK

Track 4

Filename C:UserskqwietDesktopMusic Conversions4 – Medley- I’m So Proud , Ooh Baby Baby , La La Means I Love You , I Saw The Light.wav

Peak level 96.6 %
Extraction speed 2.9 X
Track quality 100.0 %
Test CRC 463C1F2E
Copy CRC 463C1F2E
Track not present in AccurateRip database
Copy OK

Track 5

Filename C:UserskqwietDesktopMusic Conversions5 – It Wouldn’t Have Made Any Difference.wav

Peak level 96.5 %
Extraction speed 3.3 X
Track quality 99.9 %
Test CRC 7D635929
Copy CRC 7D635929
Track not present in AccurateRip database
Copy OK

Track 6

Filename C:UserskqwietDesktopMusic Conversions6 – Eastern Intrigue.wav

Peak level 96.6 %
Extraction speed 3.4 X
Track quality 100.0 %
Test CRC A368B15F
Copy CRC A368B15F
Track not present in AccurateRip database
Copy OK

Track 7

Filename C:UserskqwietDesktopMusic Conversions7 – Initiation.wav

Peak level 96.6 %
Extraction speed 3.7 X
Track quality 99.9 %
Test CRC 33B631C3
Copy CRC 33B631C3
Track not present in AccurateRip database
Copy OK

Track 8

Filename C:UserskqwietDesktopMusic Conversions8 – Couldn’t I Just Tell You.wav

Peak level 96.8 %
Extraction speed 3.8 X
Track quality 100.0 %
Test CRC B208FA25
Copy CRC B208FA25
Track not present in AccurateRip database
Copy OK

Track 9

Filename C:UserskqwietDesktopMusic Conversions9 – Hello It’s Me.wav

Peak level 96.6 %
Extraction speed 3.3 X
Track quality 100.0 %
Test CRC 3441A57E
Copy CRC 3441A57E
Track not present in AccurateRip database
Copy OK

None of the tracks are present in the AccurateRip database

No errors occurred

End of status report

–– CUETools DB Plugin V2.1.6

[CTDB TOCID: 8XRC1rwblHcL7fWEjnOWCmuAhRg-] database access error: The remote name could not be resolved: ‘db.cuetools.net’

==== Log checksum 9BB2D1C0F81DC8E1894DEB3868ABECAEA90971BA74D1C7413577DAF768F33B03 ====

Todd Rundgren - The Complete Bearsville Album Collection (2016) [13 CD Box Set]

Tracklist Disc 11: Hermit of Mink Hollow (1978)

01 – All The Children Sing
02 – Can We Still Be Friends
03 – Hurting For You
04 – Too Far Gone
05 – Onomatopoeia
06 – Determination
07 – Bread
08 – Bag Lady
09 – You Cried Wolf
10 – Lucky Guy
11 – Out Of Control
12 – Fade Away

EAC Log
Exact Audio Copy V1.0 beta 6 from 9. April 2015

EAC extraction logfile from 22. March 2016, 0:48

Todd Rundgren / The Complete Bearsville Album Collection (Disc 11)

Used drive : LITE-ON DVD+RW SOHW-802S Adapter: 1 ID: 1

Read mode : Secure
Utilize accurate stream : Yes
Defeat audio cache : Yes
Make use of C2 pointers : No

Read offset correction : 12
Overread into Lead-In and Lead-Out : No
Fill up missing offset samples with silence : Yes
Delete leading and trailing silent blocks : No
Null samples used in CRC calculations : Yes
Used interface : Native Win32 interface for Win NT & 2000
Gap handling : Appended to previous track

Used output format : User Defined Encoder
Selected bitrate : 1024 kBit/s
Quality : High
Add ID3 tag : No
Command line compressor : C:Program FilesFLACflac.exe
Additional command line options : -8 -V -T "ARTIST=%artist%" -T "TITLE=%title%" -T "ALBUM=%albumtitle%" -T "DATE=%year%" -T "TRACKNUMBER=%tracknr%" -T "GENRE=%genre%" -T "PERFORMER=%albuminterpret%" -T "COMPOSER=%composer%" %haslyrics%–tag-from-file=LYRICS="%lyricsfile%"%haslyrics% -T "ALBUMARTIST=%albumartist%" -T "DISCNUMBER=%cdnumber%" -T "TOTALDISCS=%totalcds%" -T "TOTALTRACKS=%numtracks%" -T "COMMENT=%comment%" %source% -o %dest%

TOC of the extracted CD

Track | Start | Length | Start sector | End sector
––––––––––––––––––––––––––––-
1 | 0:00.00 | 3:11.53 | 0 | 14377
2 | 3:11.53 | 3:37.52 | 14378 | 30704
3 | 6:49.30 | 3:23.16 | 30705 | 45945
4 | 10:12.46 | 2:39.63 | 45946 | 57933
5 | 12:52.34 | 1:35.25 | 57934 | 65083
6 | 14:27.59 | 3:12.18 | 65084 | 79501
7 | 17:40.02 | 2:51.33 | 79502 | 92359
8 | 20:31.35 | 3:16.64 | 92360 | 107123
9 | 23:48.24 | 2:33.35 | 107124 | 118633
10 | 26:21.59 | 2:07.70 | 118634 | 128228
11 | 28:29.54 | 3:59.07 | 128229 | 146160
12 | 32:28.61 | 3:04.74 | 146161 | 160034

Track 1

Filename C:UserskqwietDesktopMusic Conversions1 – All The Children Sing.wav

Pre-gap length 0:00:02.00

Peak level 93.1 %
Extraction speed 2.8 X
Track quality 100.0 %
Test CRC 2A487F97
Copy CRC 2A487F97
Track not present in AccurateRip database
Copy OK

Track 2

Filename C:UserskqwietDesktopMusic Conversions2 – Can We Still Be Friends.wav

Peak level 93.6 %
Extraction speed 2.9 X
Track quality 100.0 %
Test CRC 14634041
Copy CRC 14634041
Track not present in AccurateRip database
Copy OK

Track 3

Filename C:UserskqwietDesktopMusic Conversions3 – Hurting For You.wav

Peak level 97.2 %
Extraction speed 2.9 X
Track quality 100.0 %
Test CRC 5FD14A86
Copy CRC 5FD14A86
Track not present in AccurateRip database
Copy OK

Track 4

Filename C:UserskqwietDesktopMusic Conversions4 – Too Far Gone.wav

Peak level 94.2 %
Extraction speed 2.6 X
Track quality 100.0 %
Test CRC 5D58B955
Copy CRC 5D58B955
Track not present in AccurateRip database
Copy OK

Track 5

Filename C:UserskqwietDesktopMusic Conversions5 – Onomatopoeia.wav

Peak level 93.6 %
Extraction speed 2.6 X
Track quality 100.0 %
Test CRC 51AF4C43
Copy CRC 51AF4C43
Track not present in AccurateRip database
Copy OK

Track 6

Filename C:UserskqwietDesktopMusic Conversions6 – Determination.wav

Peak level 94.4 %
Extraction speed 2.8 X
Track quality 99.9 %
Test CRC 1A21152D
Copy CRC 1A21152D
Track not present in AccurateRip database
Copy OK

Track 7

Filename C:UserskqwietDesktopMusic Conversions7 – Bread.wav

Peak level 94.3 %
Extraction speed 2.9 X
Track quality 100.0 %
Test CRC A98F6143
Copy CRC A98F6143
Track not present in AccurateRip database
Copy OK

Track 8

Filename C:UserskqwietDesktopMusic Conversions8 – Bag Lady.wav

Peak level 80.3 %
Extraction speed 3.1 X
Track quality 99.9 %
Test CRC BECE9024
Copy CRC BECE9024
Track not present in AccurateRip database
Copy OK

Track 9

Filename C:UserskqwietDesktopMusic Conversions9 – You Cried Wolf.wav

Peak level 94.8 %
Extraction speed 3.0 X
Track quality 100.0 %
Test CRC 0326BBAC
Copy CRC 0326BBAC
Track not present in AccurateRip database
Copy OK

Track 10

Filename C:UserskqwietDesktopMusic Conversions10 – Lucky Guy.wav

Peak level 86.9 %
Extraction speed 3.2 X
Track quality 100.0 %
Test CRC 081749E6
Copy CRC 081749E6
Track not present in AccurateRip database
Copy OK

Track 11

Filename C:UserskqwietDesktopMusic Conversions11 – Out Of Control.wav

Peak level 94.5 %
Extraction speed 3.3 X
Track quality 100.0 %
Test CRC 80C4ED38
Copy CRC 80C4ED38
Track not present in AccurateRip database
Copy OK

Track 12

Filename C:UserskqwietDesktopMusic Conversions12 – Fade Away.wav

Peak level 94.4 %
Extraction speed 2.7 X
Track quality 100.0 %
Test CRC A8D2D199
Copy CRC A8D2D199
Track not present in AccurateRip database
Copy OK

None of the tracks are present in the AccurateRip database

No errors occurred

End of status report

–– CUETools DB Plugin V2.1.6

[CTDB TOCID: SULBxgxJHwitPrAYKMgDpxm4Fx8-] database access error: The remote name could not be resolved: ‘db.cuetools.net’

==== Log checksum 82DD70011BDBE6C083E73EB1EC6A0E4307116C9A6ED4D01F465D0B16F6572A82 ====

Todd Rundgren - The Complete Bearsville Album Collection (2016) [13 CD Box Set]

Tracklist Disc 12: Healing (1981)

01 – Healer
02 – Pulse
03 – Flesh
04 – Golden Goose
05 – Compassion
06 – Shine
07 – Healing Part I
08 – Healing Part II
09 – Healing Part III
10 – Time Heals
11 – Tiny Demons

EAC Log
Exact Audio Copy V1.0 beta 6 from 9. April 2015

EAC extraction logfile from 22. March 2016, 1:23

Todd Rundgren / The Complete Bearsville Album Collection (Disc 12)

Used drive : LITE-ON DVD+RW SOHW-802S Adapter: 1 ID: 1

Read mode : Secure
Utilize accurate stream : Yes
Defeat audio cache : Yes
Make use of C2 pointers : No

Read offset correction : 12
Overread into Lead-In and Lead-Out : No
Fill up missing offset samples with silence : Yes
Delete leading and trailing silent blocks : No
Null samples used in CRC calculations : Yes
Used interface : Native Win32 interface for Win NT & 2000
Gap handling : Appended to previous track

Used output format : User Defined Encoder
Selected bitrate : 1024 kBit/s
Quality : High
Add ID3 tag : No
Command line compressor : C:Program FilesFLACflac.exe
Additional command line options : -8 -V -T "ARTIST=%artist%" -T "TITLE=%title%" -T "ALBUM=%albumtitle%" -T "DATE=%year%" -T "TRACKNUMBER=%tracknr%" -T "GENRE=%genre%" -T "PERFORMER=%albuminterpret%" -T "COMPOSER=%composer%" %haslyrics%–tag-from-file=LYRICS="%lyricsfile%"%haslyrics% -T "ALBUMARTIST=%albumartist%" -T "DISCNUMBER=%cdnumber%" -T "TOTALDISCS=%totalcds%" -T "TOTALTRACKS=%numtracks%" -T "COMMENT=%comment%" %source% -o %dest%

TOC of the extracted CD

Track | Start | Length | Start sector | End sector
––––––––––––––––––––––––––––-
1 | 0:00.00 | 3:42.04 | 0 | 16653
2 | 3:42.04 | 3:10.13 | 16654 | 30916
3 | 6:52.17 | 4:01.45 | 30917 | 49036
4 | 10:53.62 | 3:19.29 | 49037 | 63990
5 | 14:13.16 | 4:49.34 | 63991 | 85699
6 | 19:02.50 | 8:19.35 | 85700 | 123159
7 | 27:22.10 | 7:28.74 | 123160 | 156833
8 | 34:51.09 | 7:52.49 | 156834 | 192282
9 | 42:43.58 | 4:39.32 | 192283 | 213239
10 | 47:23.15 | 3:34.33 | 213240 | 229322
11 | 50:57.48 | 3:09.63 | 229323 | 243560

Track 1

Filename C:UserskqwietDesktopMusic Conversions1 – Healer.wav

Pre-gap length 0:00:02.00

Peak level 94.4 %
Extraction speed 2.8 X
Track quality 100.0 %
Test CRC 6E4F9D8C
Copy CRC 6E4F9D8C
Track not present in AccurateRip database
Copy OK

Track 2

Filename C:UserskqwietDesktopMusic Conversions2 – Pulse.wav

Peak level 94.3 %
Extraction speed 2.9 X
Track quality 100.0 %
Test CRC ABF56398
Copy CRC ABF56398
Track not present in AccurateRip database
Copy OK

Track 3

Filename C:UserskqwietDesktopMusic Conversions3 – Flesh.wav

Peak level 94.4 %
Extraction speed 2.6 X
Track quality 100.0 %
Test CRC EA1B3112
Copy CRC EA1B3112
Track not present in AccurateRip database
Copy OK

Track 4

Filename C:UserskqwietDesktopMusic Conversions4 – Golden Goose.wav

Peak level 95.1 %
Extraction speed 2.6 X
Track quality 100.0 %
Test CRC 6ACA8BAD
Copy CRC 6ACA8BAD
Track not present in AccurateRip database
Copy OK

Track 5

Filename C:UserskqwietDesktopMusic Conversions5 – Compassion.wav

Peak level 94.4 %
Extraction speed 2.8 X
Track quality 100.0 %
Test CRC F95FA0C8
Copy CRC F95FA0C8
Track not present in AccurateRip database
Copy OK

Track 6

Filename C:UserskqwietDesktopMusic Conversions6 – Shine.wav

Peak level 96.0 %
Extraction speed 3.1 X
Track quality 100.0 %
Test CRC F166092D
Copy CRC F166092D
Track not present in AccurateRip database
Copy OK

Track 7

Filename C:UserskqwietDesktopMusic Conversions7 – Healing Part I.wav

Peak level 83.0 %
Extraction speed 3.4 X
Track quality 100.0 %
Test CRC 86ECBF94
Copy CRC 86ECBF94
Track not present in AccurateRip database
Copy OK

Track 8

Filename C:UserskqwietDesktopMusic Conversions8 – Healing Part II.wav

Peak level 94.4 %
Extraction speed 3.6 X
Track quality 100.0 %
Test CRC 1DFE54AB
Copy CRC 1DFE54AB
Track not present in AccurateRip database
Copy OK

Track 9

Filename C:UserskqwietDesktopMusic Conversions9 – Healing Part III.wav

Peak level 94.6 %
Extraction speed 3.8 X
Track quality 100.0 %
Test CRC E1D65473
Copy CRC E1D65473
Track not present in AccurateRip database
Copy OK

Track 10

Filename C:UserskqwietDesktopMusic Conversions10 – Time Heals.wav

Peak level 94.5 %
Extraction speed 4.2 X
Track quality 99.9 %
Test CRC 5A803FBD
Copy CRC 5A803FBD
Track not present in AccurateRip database
Copy OK

Track 11

Filename C:UserskqwietDesktopMusic Conversions11 – Tiny Demons.wav

Peak level 94.4 %
Extraction speed 3.3 X
Track quality 100.0 %
Test CRC 76A72FB2
Copy CRC 76A72FB2
Track not present in AccurateRip database
Copy OK

None of the tracks are present in the AccurateRip database

No errors occurred

End of status report

–– CUETools DB Plugin V2.1.6

[CTDB TOCID: rjMhEYTX8GWncu3ymeU99w0sVlw-] database access error: The remote name could not be resolved: ‘db.cuetools.net’

==== Log checksum 509778A6F6C1FFD50AE92B39610776F7AA0578A08B1F22FFB0A2BEDB7CB144BC ====

Todd Rundgren - The Complete Bearsville Album Collection (2016) [13 CD Box Set]

Tracklist Disc 13: The Ever Popular Tortured Artist Effect (1982)

01 – Hideaway
02 – Influenza
03 – Don’t Hurt Yourself
04 – There Goes Your Baybay
05 – Tin Soldier
06 – Emperor Of The Highway
07 – Bang The Drum All Day
08 – Drive
09 – Chant

EAC Log
Exact Audio Copy V1.0 beta 6 from 9. April 2015

EAC extraction logfile from 22. March 2016, 1:50

Todd Rundgren / The Complete Bearsville Album Collection (Disc 13)

Used drive : LITE-ON DVD+RW SOHW-802S Adapter: 1 ID: 1

Read mode : Secure
Utilize accurate stream : Yes
Defeat audio cache : Yes
Make use of C2 pointers : No

Read offset correction : 12
Overread into Lead-In and Lead-Out : No
Fill up missing offset samples with silence : Yes
Delete leading and trailing silent blocks : No
Null samples used in CRC calculations : Yes
Used interface : Native Win32 interface for Win NT & 2000
Gap handling : Appended to previous track

Used output format : User Defined Encoder
Selected bitrate : 1024 kBit/s
Quality : High
Add ID3 tag : No
Command line compressor : C:Program FilesFLACflac.exe
Additional command line options : -8 -V -T "ARTIST=%artist%" -T "TITLE=%title%" -T "ALBUM=%albumtitle%" -T "DATE=%year%" -T "TRACKNUMBER=%tracknr%" -T "GENRE=%genre%" -T "PERFORMER=%albuminterpret%" -T "COMPOSER=%composer%" %haslyrics%–tag-from-file=LYRICS="%lyricsfile%"%haslyrics% -T "ALBUMARTIST=%albumartist%" -T "DISCNUMBER=%cdnumber%" -T "TOTALDISCS=%totalcds%" -T "TOTALTRACKS=%numtracks%" -T "COMMENT=%comment%" %source% -o %dest%

TOC of the extracted CD

Track | Start | Length | Start sector | End sector
––––––––––––––––––––––––––––-
1 | 0:00.00 | 5:00.70 | 0 | 22569
2 | 5:00.70 | 4:31.01 | 22570 | 42895
3 | 9:31.71 | 3:45.15 | 42896 | 59785
4 | 13:17.11 | 3:54.32 | 59786 | 77367
5 | 17:11.43 | 3:13.43 | 77368 | 91885
6 | 20:25.11 | 1:41.52 | 91886 | 99512
7 | 22:06.63 | 3:38.57 | 99513 | 115919
8 | 25:45.45 | 5:29.10 | 115920 | 140604
9 | 31:14.55 | 4:24.39 | 140605 | 160443

Track 1

Filename C:UserskqwietDesktopMusic Conversions1 – Hideway.wav

Pre-gap length 0:00:02.00

Peak level 94.5 %
Extraction speed 2.8 X
Track quality 100.0 %
Test CRC 201C5DC7
Copy CRC 201C5DC7
Track not present in AccurateRip database
Copy OK

Track 2

Filename C:UserskqwietDesktopMusic Conversions2 – Influenza.wav

Peak level 94.5 %
Extraction speed 2.8 X
Track quality 100.0 %
Test CRC 77982B09
Copy CRC 77982B09
Track not present in AccurateRip database
Copy OK

Track 3

Filename C:UserskqwietDesktopMusic Conversions3 – Don’t Hurt Yourself.wav

Peak level 94.5 %
Extraction speed 2.7 X
Track quality 100.0 %
Test CRC 837E0B3C
Copy CRC 837E0B3C
Track not present in AccurateRip database
Copy OK

Track 4

Filename C:UserskqwietDesktopMusic Conversions4 – There Goes Your Baybay.wav

Peak level 94.5 %
Extraction speed 2.7 X
Track quality 100.0 %
Test CRC C2A72870
Copy CRC C2A72870
Track not present in AccurateRip database
Copy OK

Track 5

Filename C:UserskqwietDesktopMusic Conversions5 – Tin Soldier.wav

Peak level 94.5 %
Extraction speed 2.9 X
Track quality 100.0 %
Test CRC 690A6D6C
Copy CRC 690A6D6C
Track not present in AccurateRip database
Copy OK

Track 6

Filename C:UserskqwietDesktopMusic Conversions6 – Emperor Of The Highway.wav

Peak level 94.4 %
Extraction speed 3.0 X
Track quality 100.0 %
Test CRC 0243E1A3
Copy CRC 0243E1A3
Track not present in AccurateRip database
Copy OK

Track 7

Filename C:UserskqwietDesktopMusic Conversions7 – Bang The Drum All Day.wav

Peak level 94.4 %
Extraction speed 3.2 X
Track quality 99.9 %
Test CRC 1DAE9308
Copy CRC 1DAE9308
Track not present in AccurateRip database
Copy OK

Track 8

Filename C:UserskqwietDesktopMusic Conversions8 – Drive.wav

Peak level 94.7 %
Extraction speed 3.3 X
Track quality 100.0 %
Test CRC 93580CC1
Copy CRC 93580CC1
Track not present in AccurateRip database
Copy OK

Track 9

Filename C:UserskqwietDesktopMusic Conversions9 – Chant.wav

Peak level 94.8 %
Extraction speed 2.9 X
Track quality 100.0 %
Test CRC 96A01DC3
Copy CRC 96A01DC3
Track not present in AccurateRip database
Copy OK

None of the tracks are present in the AccurateRip database

No errors occurred

End of status report

–– CUETools DB Plugin V2.1.6

[CTDB TOCID: g4TQK.e3BBL1khRDRhXDPHyornQ-] database access error: The remote name could not be resolved: ‘db.cuetools.net’

==== Log checksum 1158C626A582D141744E76CC580EFA0B4D90D83569538F8FEC3D495D22672E39 ====

Todd Rundgren - The Complete Bearsville Album Collection (2016) [13 CD Box Set]
Thanks to the Original customer.
My Blog mp3, flac & HDtracks

Todd Rundgren – The Complete Bearsville Album Collection (2016) [13 CD Box Set] Download, Warez, DDL, Free, Full Album, Torrent, Legal.

Download