Tigran Mansurian – Requiem (2017)

Download
Tigran Mansurian - Requiem (2017)

Tigran Mansurian – Requiem
EAC Rip | FLAC (tracks)+cue, log, m3u, artwork | 45:19 min | 324 MB
Label: ECM New Series – 2508 | Tracks: 08 | Rls.date: 2017
Classical, Choral, Vocal

Tigran Mansurian has created a Requiem dedicated to the memory of the victims of the Armenian Genocide that occurred in Turkey from 1915 to 1917 – which affected members of the composer’s own family in the most direct way. It reconciles the sound and sensibility of his country’s traditions with the Latin Requiem text in a profoundly moving contemporary composition, illuminated by the "glow of Armenian modality," as Paul Griffiths puts it in his booklet essay. The work is a milestone for Mansurian, widely acknowledged as Armenia’s greatest composer. The Los Angeles Times has described his music as that "in which deep cultural pain is quieted through an eerily calm, heart-wrenching beauty." The Requiem was co-commissioned by the Munich Chamber Orchestra and RIAS Chamber Choir Berlin and first performed by them in Berlin and Munich in 2011 and receives its premiere recording here. This album is the sixth to appear in ECM’s documentation of Mansurian’s work, a series that began with the scene-setting ‘Hayren: Music of Komitas And Tigran Mansurian’ in 2003 and includes recordings by violinists Leonidas Kavakos and Patricia Kopatchinskaja, cellist Anja Lechner and the Amsterdam Sinfonietta, Jan Garbarek and The Hilliard Ensemble, and the Armenian Chamber Choir.

Tigran Mansurian - Requiem (2017)

TRACKLIST
01. I. Requiem aeternam (8:23)
02. II. Kyrie (6:07)
03. III. Dies irae (2:46)
04. IV. Tuba mirum (5:07)
05. V. Lacrimosa (5:52)
06. VI. Domine Jesu Christe (8:05)
07. VII. Sanctus (5:22)
08. VIII. Agnus Dei (3:42)

PERSONNEL
Anja Petersen (soprano),
Andrew Redmond (bass),
RIAS Chamber Choir Berlin,
Munich Chamber Orchestra
Alexander Liebreich (conductor)

EAC Log
Exact Audio Copy V1.0 beta 3 from 29. August 2011

EAC extraction logfile from 26. June 2017, 21:13

Tigran Mansurian / Requiem [ECM New Series 2508]

Used drive : ASUS DRW-24F1ST a Adapter: 0 ID: 0

Read mode : Secure
Utilize accurate stream : Yes
Defeat audio cache : Yes
Make use of C2 pointers : No

Read offset correction : 6
Overread into Lead-In and Lead-Out : No
Fill up missing offset samples with silence : Yes
Delete leading and trailing silent blocks : No
Null samples used in CRC calculations : Yes
Used interface : Native Win32 interface for Win NT & 2000
Gap handling : Appended to previous track

Used output format : User Defined Encoder
Selected bitrate : 128 kBit/s
Quality : High
Add ID3 tag : No
Command line compressor : C:Program Files (x86)Exact Audio CopyFLACFLAC.EXE
Additional command line options : -8 -V -T "ARTIST=%artist%" -T "TITLE=%title%" -T "ALBUM=%albumtitle%" -T "DATE=%year%" -T "TRACKNUMBER=%tracknr%" -T "TOTALTRACKS=%numtracks%" -T "GENRE=%genre%" -T "ALBUMARTIST=%albumartist%" -T "ALBUM ARTIST=%albumartist%" -T "COMMENT=EAC Secure Mode, Test & Copy, AccurateRip, FLAC -8" %source%

TOC of the extracted CD

Track | Start | Length | Start sector | End sector
––––––––––––––––––––––––––––-
1 | 0:00.00 | 8:22.71 | 0 | 37720
2 | 8:22.71 | 6:06.62 | 37721 | 65232
3 | 14:29.58 | 2:46.25 | 65233 | 77707
4 | 17:16.08 | 5:07.28 | 77708 | 100760
5 | 22:23.36 | 5:51.64 | 100761 | 127149
6 | 28:15.25 | 8:04.46 | 127150 | 163495
7 | 36:19.71 | 5:22.16 | 163496 | 187661
8 | 41:42.12 | 3:41.41 | 187662 | 204277

Track 1

Filename K:EAC1 – Requiem Aeternam.wav

Pre-gap length 0:00:02.00

Peak level 59.3 %
Extraction speed 4.7 X
Track quality 99.9 %
Test CRC 7ED4C39E
Copy CRC 7ED4C39E
Track not present in AccurateRip database
Copy OK

Track 2

Filename K:EAC2 – Kyrie.wav

Peak level 97.2 %
Extraction speed 5.1 X
Track quality 99.9 %
Test CRC 3B38A25D
Copy CRC 3B38A25D
Track not present in AccurateRip database
Copy OK

Track 3

Filename K:EAC3 – Dies Irae.wav

Peak level 96.8 %
Extraction speed 4.5 X
Track quality 99.9 %
Test CRC C0F8960A
Copy CRC C0F8960A
Track not present in AccurateRip database
Copy OK

Track 4

Filename K:EAC4 – Tuba Mirum.wav

Peak level 95.6 %
Extraction speed 6.2 X
Track quality 100.0 %
Test CRC 4998A61A
Copy CRC 4998A61A
Track not present in AccurateRip database
Copy OK

Track 5

Filename K:EAC5 – Lacrimosa.wav

Peak level 62.4 %
Extraction speed 6.8 X
Track quality 100.0 %
Test CRC CF2BA416
Copy CRC CF2BA416
Track not present in AccurateRip database
Copy OK

Track 6

Filename K:EAC6 – Domine Jesu Christe.wav

Peak level 92.6 %
Extraction speed 7.6 X
Track quality 100.0 %
Test CRC 93C162ED
Copy CRC 93C162ED
Track not present in AccurateRip database
Copy OK

Track 7

Filename K:EAC7 – Sanctus.wav

Peak level 82.3 %
Extraction speed 7.7 X
Track quality 100.0 %
Test CRC E7239DB7
Copy CRC E7239DB7
Track not present in AccurateRip database
Copy OK

Track 8

Filename K:EAC8 – Agnus Dei.wav

Peak level 12.6 %
Extraction speed 7.7 X
Track quality 100.0 %
Test CRC 1A9B4565
Copy CRC 1A9B4565
Track not present in AccurateRip database
Copy OK

None of the tracks are present in the AccurateRip database

No errors occurred

End of status report

==== Log checksum 6BE1A463AA3E9DFCC6AA35CA132F1E3135087A70E15124178F109F46237FE98F ====

Tigran Mansurian - Requiem (2017)
Thanks to the Original customer.

Tigran Mansurian – Requiem (2017) Download, Warez, DDL, Free, Full Album, Torrent, Legal.

Download