Thomas Zehetmair, Philharmonia Orchestra – Mozart: The Violin Concertos (1991) [Reissue 2007]

Download
Thomas Zehetmair, Philharmonia Orchestra - Mozart: The Violin Concertos (1991) [Reissue 2007]

Thomas Zehetmair, Philharmonia Orchestra – Mozart: The Violin Concertos (1991) [Reissue 2007]
EAC | FLAC (log,tracks+cue) -> 623 Mb (5% Rec.) | Mp3 CBR320 Kbps -> 316 Mb (5% Rec.) | Scans -> 29 Mb
Classical | Label: Teldec / Worner Classic / Apex, #:2564 64329-2 | 2007 | 02:19:33

Austrian Thomas Zehetmair recorded this series as soloist and director of the Philharmonia in 1990 and 1991 at Aldeburgh. As an exceptional Mozart interpreter he provides a compelling blend of artistry and elegance in performances that are admirable in all respects. The interpretations with their endearing understated quality are distinguished by a most agreeable blend of timbre, impeccable ensemble and clean and highly polished articulation. I was especially impressed by Zehetmair’s unforced selection of tempi and the amount of charm and poetry in evidence.

Included in this set is the contentious sixth Violin Concerto in the key of D major bearing the Köchel catalogue number K271a. This is a rarely heard Mozart work of doubtful authenticity and one that remains the topic of much discussion. I have seen separate dates of 1775 and 1777 attributed to the D major score. Among the various explanations put forward is that it was possibly sketched out by Mozart and completed by Sauzay or Baillot or that it could be a copy by Mozart of another composer’s concerto. The controversial score, infused with pizzicato effects for the soloist and orchestra in the Andante, does come across as different in character to the Violin Concertos 1-5; feeling weightier with a highly distinctive style. –Michael Cookson

Tracklist:

CD 1:
1. Violin Concerto No.1 in B flat major K207: I. Allegro moderato 07:01
2. Violin Concerto No.1 in B flat major K207: II. Adagio 07:21
3. Violin Concerto No.1 in B flat major K207: III. Presto 05:18
4. Violin Concerto No.2 in D major K211: I. Allegro moderato 08:01
5. Violin Concerto No.2 in D major K211: II. Andante 05:50
6. Violin Concerto No.2 in D major K211: III. Rondeau – Allegro 04:03
7. Violin Concerto No.3 in G major K216: I. Allegro 08:30
8. Violin Concerto No.3 in G major K216: II. Adagio 06:52
9. Violin Concerto No.3 in G major K216: III. Rondeau – Allegro 06:23

CD 2:
1. Violin Concerto No.4 in D major K218: I. Allegro 08:10
2. Violin Concerto No.4 in D major K218: II. Andante cantabile 06:14
3. Violin Concerto No.4 in D major K218: III. Rondeau – Andante grazioso 06:55
4. Violin Concerto No.5 in A major K219: I. Allegro aperto 08:35
5. Violin Concerto No.5 in A major K219: II. Adagio 09:18
6. Violin Concerto No.5 in A major K219: III. Rondeau – Tempo di menuetto 08:09
7. Violin Concerto in D major K217a: I. Allegro maestoso 10:22
8. Violin Concerto in D major K217a: II. Andante 07:06
9. Violin Concerto in D major K217a: III. Rondo – Allegro 08:26

Musicians:
Thomas Zehetmair – Violin & Conductor
Philharmonia Orchestra

Wolfgang Amadeus Mozart (1756-1791) – Composer

EAC_log_CD1
Exact Audio Copy V0.99 prebeta 4 from 23. January 2008

EAC extraction logfile from 29. September 2010, 23:26

Thomas Zehetmair, Philharmonia Orchestra / W.A.Mozart – Violin Concertos CD1

Used drive : PIONEER DVD-RW DVR-112D Adapter: 0 ID: 0

Read mode : Secure
Utilize accurate stream : Yes
Defeat audio cache : Yes
Make use of C2 pointers : No

Read offset correction : 48
Overread into Lead-In and Lead-Out : No
Fill up missing offset samples with silence : Yes
Delete leading and trailing silent blocks : No
Null samples used in CRC calculations : Yes
Used interface : Native Win32 interface for Win NT & 2000
Gap handling : Appended to previous track

Used output format : User Defined Encoder
Selected bitrate : 768 kBit/s
Quality : High
Add ID3 tag : No
Command line compressor : C:Program FilesExact Audio CopyFLACFLAC.EXE
Additional command line options : -6 -V -T "ARTIST=%a" -T "TITLE=%t" -T "ALBUM=%g" -T "DATE=%y" -T "TRACKNUMBER=%n" -T "GENRE=%m" -T "COMMENT=%e" %s -o %d

TOC of the extracted CD

Track | Start | Length | Start sector | End sector
––––––––––––––––––––––––––––-
1 | 0:00.00 | 7:02.62 | 0 | 31711
2 | 7:02.62 | 7:20.38 | 31712 | 64749
3 | 14:23.25 | 5:27.00 | 64750 | 89274
4 | 19:50.25 | 8:01.07 | 89275 | 125356
5 | 27:51.32 | 5:53.08 | 125357 | 151839
6 | 33:44.40 | 4:15.55 | 151840 | 171019
7 | 38:00.20 | 8:32.42 | 171020 | 209461
8 | 46:32.62 | 6:52.58 | 209462 | 240419
9 | 53:25.45 | 6:24.30 | 240420 | 269249

Track 1

Filename N:MOZART, WOLFGANG AMADEUSViolin concertosW.A.Mozart – 6 Violin Concertos – Thomas Zehetmair, Philharmonia OrchestraCD 11 – Violinkonzert Nr. 1 B-dur KV 207 1.Allegro moderato – Thomas Zehetmair, Philharmonia Orchestra.wav

Pre-gap length 0:00:02.00

Peak level 87.4 %
Track quality 100.0 %
Copy CRC 00D76711
Accurately ripped (confidence 2) [6B84BE0F]
Copy OK

Track 2

Filename N:MOZART, WOLFGANG AMADEUSViolin concertosW.A.Mozart – 6 Violin Concertos – Thomas Zehetmair, Philharmonia OrchestraCD 12 – Violinkonzert Nr. 1 B-dur KV 207 2.Adagio – Thomas Zehetmair, Philharmonia Orchestra.wav

Pre-gap length 0:00:02.25

Peak level 89.5 %
Track quality 100.0 %
Copy CRC 59CF4260
Accurately ripped (confidence 2) [228F2C0B]
Copy OK

Track 3

Filename N:MOZART, WOLFGANG AMADEUSViolin concertosW.A.Mozart – 6 Violin Concertos – Thomas Zehetmair, Philharmonia OrchestraCD 13 – Violinkonzert Nr. 1 B-dur KV 207 3.Presto – Thomas Zehetmair, Philharmonia Orchestra.wav

Peak level 82.0 %
Track quality 99.9 %
Copy CRC 8BC1B170
Accurately ripped (confidence 2) [129D8FE7]
Copy OK

Track 4

Filename N:MOZART, WOLFGANG AMADEUSViolin concertosW.A.Mozart – 6 Violin Concertos – Thomas Zehetmair, Philharmonia OrchestraCD 14 – Violinkonzert Nr. 2 D-dur KV 211 1.Allegro moderato – Thomas Zehetmair, Philharmonia Orchestra.wav

Pre-gap length 0:00:09.13

Peak level 97.7 %
Track quality 100.0 %
Copy CRC 9FBF9FE7
Accurately ripped (confidence 2) [57D7DA4E]
Copy OK

Track 5

Filename N:MOZART, WOLFGANG AMADEUSViolin concertosW.A.Mozart – 6 Violin Concertos – Thomas Zehetmair, Philharmonia OrchestraCD 15 – Violinkonzert Nr. 2 D-dur KV 211 2.Andante – Thomas Zehetmair, Philharmonia Orchestra.wav

Peak level 66.5 %
Track quality 100.0 %
Copy CRC F077AF93
Accurately ripped (confidence 2) [B46DE5F0]
Copy OK

Track 6

Filename N:MOZART, WOLFGANG AMADEUSViolin concertosW.A.Mozart – 6 Violin Concertos – Thomas Zehetmair, Philharmonia OrchestraCD 16 – Violinkonzert Nr. 2 D-dur KV 211 3.Rondeau- Allegro – Thomas Zehetmair, Philharmonia Orchestra.wav

Pre-gap length 0:00:01.50

Peak level 93.4 %
Track quality 100.0 %
Copy CRC B0C75530
Accurately ripped (confidence 2) [114F464C]
Copy OK

Track 7

Filename N:MOZART, WOLFGANG AMADEUSViolin concertosW.A.Mozart – 6 Violin Concertos – Thomas Zehetmair, Philharmonia OrchestraCD 17 – Violinkonzert Nr. 3 G-dur KV 216 1.Allegro – Thomas Zehetmair, Philharmonia Orchestra.wav

Pre-gap length 0:00:11.48

Peak level 95.3 %
Track quality 100.0 %
Copy CRC 23C664EE
Accurately ripped (confidence 2) [6D584BBF]
Copy OK

Track 8

Filename N:MOZART, WOLFGANG AMADEUSViolin concertosW.A.Mozart – 6 Violin Concertos – Thomas Zehetmair, Philharmonia OrchestraCD 18 – Violinkonzert Nr. 3 G-dur KV 216 2.Adagio – Thomas Zehetmair, Philharmonia Orchestra.wav

Pre-gap length 0:00:01.62

Peak level 51.1 %
Track quality 100.0 %
Copy CRC 57C79789
Accurately ripped (confidence 2) [755658EA]
Copy OK

Track 9

Filename N:MOZART, WOLFGANG AMADEUSViolin concertosW.A.Mozart – 6 Violin Concertos – Thomas Zehetmair, Philharmonia OrchestraCD 19 – Violinkonzert Nr. 3 G-dur KV 216 3.Rondeau- Allegro – Thomas Zehetmair, Philharmonia Orchestra.wav

Pre-gap length 0:00:01.03

Peak level 90.2 %
Track quality 100.0 %
Copy CRC 569EB7D2
Accurately ripped (confidence 2) [CA022D32]
Copy OK

All tracks accurately ripped

No errors occurred

End of status report

Dynamic_Range_log_CD1
foobar2000 1.3.6 / Dynamic Range Meter 1.1.1
log date: 2017-02-11 21:48:14

––––––––––––––––––––––––––––––––––––––––
Analyzed: Thomas Zehetmair, Philharmonia Orchestra / W.A.Mozart – Violin Concertos CD1
––––––––––––––––––––––––––––––––––––––––

DR Peak RMS Duration Track
––––––––––––––––––––––––––––––––––––––––
DR13 -1.17 dB -21.13 dB 7:03 01-Violinkonzert Nr. 1 B-dur KV 207 1.Allegro moderato
DR14 -0.96 dB -21.05 dB 7:21 02-Violinkonzert Nr. 1 B-dur KV 207 2.Adagio
DR12 -1.72 dB -20.72 dB 5:27 03-Violinkonzert Nr. 1 B-dur KV 207 3.Presto
DR14 -0.20 dB -21.33 dB 8:01 04-Violinkonzert Nr. 2 D-dur KV 211 1.Allegro moderato
DR12 -3.54 dB -22.96 dB 5:53 05-Violinkonzert Nr. 2 D-dur KV 211 2.Andante
DR14 -0.59 dB -21.57 dB 4:16 06-Violinkonzert Nr. 2 D-dur KV 211 3.Rondeau: Allegro
DR13 -0.41 dB -20.36 dB 8:33 07-Violinkonzert Nr. 3 G-dur KV 216 1.Allegro
DR13 -5.83 dB -25.41 dB 6:53 08-Violinkonzert Nr. 3 G-dur KV 216 2.Adagio
DR14 -0.89 dB -22.02 dB 6:24 09-Violinkonzert Nr. 3 G-dur KV 216 3.Rondeau: Allegro
––––––––––––––––––––––––––––––––––––––––

Number of tracks: 9
Official DR value: DR13

Samplerate: 44100 Hz
Channels: 2
Bits per sample: 16
Bitrate: 603 kbps
Codec: FLAC
================================================================================

EAC_log_CD2
Exact Audio Copy V0.99 prebeta 4 from 23. January 2008

EAC extraction logfile from 29. September 2010, 23:42

Thomas Zehetmair, Philharmonia Orchestra / W.A.Mozart – Violin Concertos CD2

Used drive : PIONEER DVD-RW DVR-112D Adapter: 0 ID: 0

Read mode : Secure
Utilize accurate stream : Yes
Defeat audio cache : Yes
Make use of C2 pointers : No

Read offset correction : 48
Overread into Lead-In and Lead-Out : No
Fill up missing offset samples with silence : Yes
Delete leading and trailing silent blocks : No
Null samples used in CRC calculations : Yes
Used interface : Native Win32 interface for Win NT & 2000
Gap handling : Appended to previous track

Used output format : User Defined Encoder
Selected bitrate : 768 kBit/s
Quality : High
Add ID3 tag : No
Command line compressor : C:Program FilesExact Audio CopyFLACFLAC.EXE
Additional command line options : -6 -V -T "ARTIST=%a" -T "TITLE=%t" -T "ALBUM=%g" -T "DATE=%y" -T "TRACKNUMBER=%n" -T "GENRE=%m" -T "COMMENT=%e" %s -o %d

TOC of the extracted CD

Track | Start | Length | Start sector | End sector
––––––––––––––––––––––––––––-
1 | 0:00.00 | 8:12.37 | 0 | 36936
2 | 8:12.37 | 6:14.00 | 36937 | 64986
3 | 14:26.37 | 7:05.30 | 64987 | 96891
4 | 21:31.67 | 8:36.43 | 96892 | 135634
5 | 30:08.35 | 9:18.70 | 135635 | 177554
6 | 39:27.30 | 8:18.32 | 177555 | 214936
7 | 47:45.62 | 10:22.50 | 214937 | 261636
8 | 58:08.37 | 7:07.40 | 261637 | 293701
9 | 65:16.02 | 8:25.73 | 293702 | 331649

Track 1

Filename N:MOZART, WOLFGANG AMADEUSViolin concertosW.A.Mozart – 6 Violin Concertos – Thomas Zehetmair, Philharmonia OrchestraCD 21 – Violin Concerto No. 4 in D major, K.218 – 1.Allegro – Thomas Zehetmair, Philharmonia Orchestra.wav

Pre-gap length 0:00:02.00

Peak level 94.1 %
Track quality 100.0 %
Copy CRC 7C2FB1D3
Accurately ripped (confidence 2) [F3D463CA]
Copy OK

Track 2

Filename N:MOZART, WOLFGANG AMADEUSViolin concertosW.A.Mozart – 6 Violin Concertos – Thomas Zehetmair, Philharmonia OrchestraCD 22 – Violin Concerto No. 4 in D major, K.218 – 2.Andante cantabile – Thomas Zehetmair, Philharmonia Orchestra.wav

Pre-gap length 0:00:01.50

Peak level 93.8 %
Track quality 100.0 %
Copy CRC 7E5BC810
Accurately ripped (confidence 2) [932B6C14]
Copy OK

Track 3

Filename N:MOZART, WOLFGANG AMADEUSViolin concertosW.A.Mozart – 6 Violin Concertos – Thomas Zehetmair, Philharmonia OrchestraCD 23 – Violin Concerto No. 4 in D major, K.218 – 3.Rondeau- andante grazioso – Thomas Zehetmair, Philharmonia Orchestra.

Peak level 98.7 %
Track quality 100.0 %
Copy CRC CD7DA14A
Accurately ripped (confidence 2) [6A3D4694]
Copy OK

Track 4

Filename N:MOZART, WOLFGANG AMADEUSViolin concertosW.A.Mozart – 6 Violin Concertos – Thomas Zehetmair, Philharmonia OrchestraCD 24 – Violin Concerto No. 5 in A major, K.219 – 1.Allegro aperto – Thomas Zehetmair, Philharmonia Orchestra.wav

Pre-gap length 0:00:11.00

Peak level 81.8 %
Track quality 100.0 %
Copy CRC 6E84E78E
Accurately ripped (confidence 2) [28996050]
Copy OK

Track 5

Filename N:MOZART, WOLFGANG AMADEUSViolin concertosW.A.Mozart – 6 Violin Concertos – Thomas Zehetmair, Philharmonia OrchestraCD 25 – Violin Concerto No. 5 in A major, K.219 – 2.Adagio – Thomas Zehetmair, Philharmonia Orchestra.wav

Pre-gap length 0:00:01.08

Peak level 72.3 %
Track quality 100.0 %
Copy CRC 3737AB7D
Accurately ripped (confidence 2) [C21E81B2]
Copy OK

Track 6

Filename N:MOZART, WOLFGANG AMADEUSViolin concertosW.A.Mozart – 6 Violin Concertos – Thomas Zehetmair, Philharmonia OrchestraCD 26 – Violin Concerto No. 5 in A major, K.219 – 3.Rondeau- tempo di menuetto – Thomas Zehetmair, Philharmonia Orchestra

Peak level 87.0 %
Track quality 99.9 %
Copy CRC EE6A184B
Accurately ripped (confidence 2) [CA4EDEF8]
Copy OK

Track 7

Filename N:MOZART, WOLFGANG AMADEUSViolin concertosW.A.Mozart – 6 Violin Concertos – Thomas Zehetmair, Philharmonia OrchestraCD 27 – Violin Concerto in D major, K.271A – 1.Allegro maestoso – Thomas Zehetmair, Philharmonia Orchestra.wav

Pre-gap length 0:00:09.12

Peak level 82.6 %
Track quality 100.0 %
Copy CRC BAE31925
Accurately ripped (confidence 2) [A71DD6C1]
Copy OK

Track 8

Filename N:MOZART, WOLFGANG AMADEUSViolin concertosW.A.Mozart – 6 Violin Concertos – Thomas Zehetmair, Philharmonia OrchestraCD 28 – Violin Concerto in D major, K.271A – 2.Andante – Thomas Zehetmair, Philharmonia Orchestra.wav

Pre-gap length 0:00:01.00

Peak level 79.9 %
Track quality 100.0 %
Copy CRC F647022E
Accurately ripped (confidence 2) [5F86420E]
Copy OK

Track 9

Filename N:MOZART, WOLFGANG AMADEUSViolin concertosW.A.Mozart – 6 Violin Concertos – Thomas Zehetmair, Philharmonia OrchestraCD 29 – Violin Concerto in D major, K.271A – 3.Rondo- Allegro – Thomas Zehetmair, Philharmonia Orchestra.wav

Pre-gap length 0:00:01.00

Peak level 91.8 %
Track quality 100.0 %
Copy CRC 31FE59FD
Accurately ripped (confidence 2) [C9B70727]
Copy OK

All tracks accurately ripped

No errors occurred

End of status report

Dynamic_Range_log_CD2
foobar2000 1.3.6 / Dynamic Range Meter 1.1.1
log date: 2017-02-11 21:48:57

––––––––––––––––––––––––––––––––––––––––
Analyzed: Thomas Zehetmair, Philharmonia Orchestra / W.A.Mozart – Violin Concertos CD2
––––––––––––––––––––––––––––––––––––––––

DR Peak RMS Duration Track
––––––––––––––––––––––––––––––––––––––––
DR14 -0.52 dB -21.17 dB 8:12 01-Violin Concerto No. 4 in D major, K.218 – 1.Allegro
DR13 -0.56 dB -20.56 dB 6:14 02-Violin Concerto No. 4 in D major, K.218 – 2.Andante cantabile
DR15 -0.11 dB -22.35 dB 7:05 03-Violin Concerto No. 4 in D major, K.218 – 3.Rondeau: andante grazioso
DR13 -1.74 dB -20.22 dB 8:37 04-Violin Concerto No. 5 in A major, K.219 – 1.Allegro aperto
DR13 -2.81 dB -22.22 dB 9:19 05-Violin Concerto No. 5 in A major, K.219 – 2.Adagio
DR13 -1.21 dB -20.76 dB 8:18 06-Violin Concerto No. 5 in A major, K.219 – 3.Rondeau: tempo di menuetto
DR14 -1.65 dB -20.80 dB 10:23 07-Violin Concerto in D major, K.271A – 1.Allegro maestoso
DR14 -1.94 dB -22.46 dB 7:08 08-Violin Concerto in D major, K.271A – 2.Andante
DR15 -0.74 dB -20.75 dB 8:26 09-Violin Concerto in D major, K.271A – 3.Rondo: Allegro
––––––––––––––––––––––––––––––––––––––––

Number of tracks: 9
Official DR value: DR14

Samplerate: 44100 Hz
Channels: 2
Bits per sample: 16
Bitrate: 655 kbps
Codec: FLAC
================================================================================

Thanks to the original releaser

Thomas Zehetmair, Philharmonia Orchestra – Mozart: The Violin Concertos (1991) [Reissue 2007] Download, Warez, DDL, Free, Full Album, Torrent, Legal.

Download