Thomas Wynn and the Believers – Wade Waist Deep (2017)

Download
Thomas Wynn and the Believers - Wade Waist Deep (2017)

Thomas Wynn and the Believers – Wade Waist Deep (2017)
EAC Rip | FLAC (Tracks) +cue, log – 342 MB | MP3 CBR 320 kbps – 117 MB | 00:50:15
Indie Rock, Folk Rock | Label: Mascot Records

Meet Thomas Wynn & The Believers, an American band with a striking new organic rock record about building a better life, a life you really believe in. Named #1 Rock Band and #1 Country/Folk Band in the city for seven consecutive years by the Orlando Weekly, Thomas Wynn & The Believers are breaking beyond the Southern rock scene with the release of their new album, Wade Waist Deep, their Mascot Label Group debut. The record is packed with the facts that make American music timeless the deep Southern heat of the guitars, the complex, pulsing rhythms, and the male-female vocal harmonies that sound like only a brother and sister can. Breathtakingly in-sync with his vocalist sister, Olivia Wynn Roche, Thomas Wynn sings about overcoming fear to become the person you were meant to be. Wynn, who fell in love with The Band’s first album Music from Big Pink in his early teens, while his peers were into Green Day, brings classic country rock and soul into the new century with tunes that evoke the best of CSNY, Levon Helm, and John Prine.

TRACKLIST

01. Man Out Of Time
02. Wade Waist Deep
03. Heartbreak Alley
04. My Eyes Won’t Be Open
05. Thin Love
06. I Don’t Regret
07. You Can’t Hurt Me
08. Mountain Fog
09. Burn As One
10. Feel The Good
11. We Could All Die Screaming
12. Turn It Into Gold

EAC
Exact Audio Copy V1.1 from 23. June 2015

EAC extraction logfile from 1. June 2017, 15:29

Thomas Wynn and the Believers / Wade Waist Deep

Used drive : HL-DT-STDVD-RAM GH70N Adapter: 1 ID: 0

Read mode : Secure
Utilize accurate stream : Yes
Defeat audio cache : Yes
Make use of C2 pointers : No

Read offset correction : 667
Overread into Lead-In and Lead-Out : No
Fill up missing offset samples with silence : Yes
Delete leading and trailing silent blocks : No
Null samples used in CRC calculations : Yes
Used interface : Native Win32 interface for Win NT & 2000
Gap handling : Appended to previous track

Used output format : User Defined Encoder
Selected bitrate : 128 kBit/s
Quality : High
Add ID3 tag : No
Command line compressor : C:Program Files (x86)Exact Audio CopyFlacflac.exe
Additional command line options : -8 -e -V -T "ARTIST=%artist%" -T "TITLE=%title%" -T "ALBUM=%albumtitle%" -T "DATE=%year%" -T "TRACKNUMBER=%tracknr%" -T "GENRE=%genre%" -T "PERFORMER=%albuminterpret%" -T "COMPOSER=%composer%" %haslyrics%–tag-from-file=LYRICS="%lyricsfile%"%haslyrics% -T "ALBUMARTIST=%albumartist%" -T "DISCNUMBER=%cdnumber%" -T "TOTALDISCS=%totalcds%" -T "TOTALTRACKS=%numtracks%" -T "COMMENT=%comment%" %source% -o %dest%

TOC of the extracted CD

Track | Start | Length | Start sector | End sector
––––––––––––––––––––––––––––-
1 | 0:00.00 | 3:44.13 | 0 | 16812
2 | 3:44.13 | 3:31.44 | 16813 | 32681
3 | 7:15.57 | 4:06.17 | 32682 | 51148
4 | 11:21.74 | 4:44.25 | 51149 | 72473
5 | 16:06.24 | 3:47.46 | 72474 | 89544
6 | 19:53.70 | 4:28.07 | 89545 | 109651
7 | 24:22.02 | 3:18.52 | 109652 | 124553
8 | 27:40.54 | 4:02.67 | 124554 | 142770
9 | 31:43.46 | 2:49.59 | 142771 | 155504
10 | 34:33.30 | 4:09.16 | 155505 | 174195
11 | 38:42.46 | 4:02.12 | 174196 | 192357
12 | 42:44.58 | 7:30.23 | 192358 | 226130

Track 1

Filename O:My MusicThomas Wynn and the Believers1 Man Out Of Time.wav

Pre-gap length 0:00:02.00

Peak level 100.0 %
Extraction speed 3.6 X
Track quality 100.0 %
Test CRC B1A4B259
Copy CRC B1A4B259
Track not present in AccurateRip database
Copy OK

Track 2

Filename O:My MusicThomas Wynn and the Believers2 Wade Waist Deep.wav

Peak level 100.0 %
Extraction speed 3.9 X
Track quality 100.0 %
Test CRC 5D4E2F50
Copy CRC 5D4E2F50
Track not present in AccurateRip database
Copy OK

Track 3

Filename O:My MusicThomas Wynn and the Believers3 Heartbreak Alley.wav

Peak level 100.0 %
Extraction speed 4.2 X
Track quality 100.0 %
Test CRC 04973CAE
Copy CRC 04973CAE
Track not present in AccurateRip database
Copy OK

Track 4

Filename O:My MusicThomas Wynn and the Believers4 My Eyes Won’t Be Open.wav

Peak level 100.0 %
Extraction speed 4.8 X
Track quality 100.0 %
Test CRC 2A5FC55D
Copy CRC 2A5FC55D
Track not present in AccurateRip database
Copy OK

Track 5

Filename O:My MusicThomas Wynn and the Believers5 Thin Love.wav

Peak level 100.0 %
Extraction speed 4.8 X
Track quality 100.0 %
Test CRC EFB360CB
Copy CRC EFB360CB
Track not present in AccurateRip database
Copy OK

Track 6

Filename O:My MusicThomas Wynn and the Believers6 I Don’t Regret.wav

Peak level 100.0 %
Extraction speed 5.1 X
Track quality 100.0 %
Test CRC FDDEDD41
Copy CRC FDDEDD41
Track not present in AccurateRip database
Copy OK

Track 7

Filename O:My MusicThomas Wynn and the Believers7 You Can’t Hurt Me.wav

Peak level 100.0 %
Extraction speed 5.4 X
Track quality 100.0 %
Test CRC CB61314F
Copy CRC CB61314F
Track not present in AccurateRip database
Copy OK

Track 8

Filename O:My MusicThomas Wynn and the Believers8 Mountain Fog.wav

Peak level 100.0 %
Extraction speed 5.5 X
Track quality 100.0 %
Test CRC F0B605A4
Copy CRC F0B605A4
Track not present in AccurateRip database
Copy OK

Track 9

Filename O:My MusicThomas Wynn and the Believers9 Burn As One.wav

Peak level 100.0 %
Extraction speed 5.6 X
Track quality 100.0 %
Test CRC A72E963D
Copy CRC A72E963D
Track not present in AccurateRip database
Copy OK

Track 10

Filename O:My MusicThomas Wynn and the Believers10 Feel The Good.wav

Peak level 100.0 %
Extraction speed 5.8 X
Track quality 100.0 %
Test CRC 49C21639
Copy CRC 49C21639
Track not present in AccurateRip database
Copy OK

Track 11

Filename O:My MusicThomas Wynn and the Believers11 We Could All Die Screaming.wav

Peak level 100.0 %
Extraction speed 6.1 X
Track quality 100.0 %
Test CRC E6239B75
Copy CRC E6239B75
Track not present in AccurateRip database
Copy OK

Track 12

Filename O:My MusicThomas Wynn and the Believers12 Turn It Into Gold.wav

Peak level 100.0 %
Extraction speed 6.9 X
Track quality 100.0 %
Test CRC C8E71AE9
Copy CRC C8E71AE9
Track not present in AccurateRip database
Copy OK

None of the tracks are present in the AccurateRip database

No errors occurred

End of status report

–– CUETools DB Plugin V2.1.6

[CTDB TOCID: wHhbuu8hQwOuvwRZwc6xLZPg__4-] disk not present in database
Submit result: wHhbuu8hQwOuvwRZwc6xLZPg__4- has been uploaded

==== Log checksum B1A7FE112A7FC50F83EEA8F4BBCB4D77243BBE5CCE0F2F0606CC51FCBFCC8175 ====

All thanks go to the original releaser

Thomas Wynn and the Believers – Wade Waist Deep (2017) Download, Warez, DDL, Free, Full Album, Torrent, Legal.

Download