Thievery Corporation – Temple of I & I (2017)

Download
Thievery Corporation - Temple of I & I (2017)

Thievery Corporation – Temple of I & I (2017)
EAC Rip | FLAC (Img) + Cue + Log ~ 386 Mb | Scans Included (JPG, 600 dpi) | RAR 5% Recovery
Electronic, Reggae, Downtempo, Dub, Trip-Hop | ESL Music #esl 222

"The innovation, spirit and power of Jamaican music is a constant source of creative manna for us," explains Eric Hilton of DC-based electronic band THIEVERY CORPORATION about their new album THE TEMPLE OF I & I. "On the musical map, Jamaica is an entire continent. Frankly, we could have spent a year there, soaking up the vibes in the air and the strength and resilience resonating from the people. And for us, the only way to connect with this rich source of inspiration was to work in that environment – to feel the pulse of the place."

Infused with the culture and rhythm of Jamaica, The Temple of I & I is an extension of the dub ethos and aesthetic that they’ve harbored since their debut EP Sounds from Thievery Hi-Fi, except this time, they dove headfirst into the rich and warm musical environs of Port Antonio, Jamaica and surrounded themselves with the island’s magic. Kicking off in February 2015, Hilton, Rob Garza and their DC-based live rhythm section settled into the deep part of Jamaica – Port Antonio – and began recording in Geejam Studios. "People couldn’t believe Robbie Myers, our guitarist, wasn’t Jamaican," laughs Hilton. "I think they’re used to people coming down from London or LA to record rock and pop records, and they were thrilled that we had such a handle on their sound. It felt like the respect was mutual. It was beyond gratifying. High Grade ganja and bottles of Appleton rum started to show up on the reg."

Rife with inspired sounds of the island, The Temple of I & I kicks off with "Thief Rockers", easing the listener into a reverb-heavy tropical sway that introduces Kingston-newcomer, vocalist Racquel Jones. "I met her on my first trip to Port Antonio and she played some demos at Geejam. She had actually used Thievery Corporation as her demo backing track, and it was a perfect match when I heard it. We’ve been waiting years to find a conscious, brilliant, female Jamaican singer and MC. As a model and former Miss Jamaica contestant, you’d never expect the pure lyrical fire and tough delivery could come out of her. It’s impressive," explains Hilton.

Official Website | Wiki | Discogs | All Music

***************

Thievery Corporation - Temple of I & I (2017)

Track List:

01. Thief Rockers (feat. Zee) [3:29]
02. Letter To The Editor (feat. Racquel Jones) [3:54]
03. Strike The Root (feat. Notch) [3:32]
04. Ghetto Matrix (feat. Mr. Lif) [3:47]
05. True Sons Of Zion (feat. Notch) [4:05]
06. The Temple Of I&I [4:19]
07. Time + Space (feat. Lou Lou Ghelichkhani) [4:33]
08. Love Has No Heart (feat. Shana Halligan) [4:25]
09. Lose To Find (feat. Elin Melgarejo) [3:17]
10. Let The Chalice Blaze [4:44]
11. Weapons Of Distraction (feat. Notch) [5:07]
12. Road Block (feat. Racquel Jones) [3:37]
13. Fight To Survive (feat. Mr. Lif) [3:57]
14. Babylon Falling (feat. Puma) [3:56]
15. Drop Your Guns (feat. Notch) [3:44]

EAC Log
Exact Audio Copy V1.1 from 23. June 2015

EAC extraction logfile from 10. February 2017, 17:29

Thievery Corporation / The Temple Of I&I

Used drive : Pioneer BDR-S09XLT Adapter: 0 ID: 0

Read mode : Secure
Utilize accurate stream : Yes
Defeat audio cache : Yes
Make use of C2 pointers : No

Read offset correction : 6
Overread into Lead-In and Lead-Out : No
Fill up missing offset samples with silence : Yes
Delete leading and trailing silent blocks : No
Null samples used in CRC calculations : Yes
Used interface : Installed external ASPI interface

Used output format : Internal WAV Routines
Sample format : 44.100 Hz; 16 Bit; Stereo

TOC of the extracted CD

Track | Start | Length | Start sector | End sector
––––––––––––––––––––––––––––-
1 | 0:00.00 | 3:28.50 | 0 | 15649
2 | 3:28.50 | 3:53.38 | 15650 | 33162
3 | 7:22.13 | 3:31.73 | 33163 | 49060
4 | 10:54.11 | 3:46.39 | 49061 | 66049
5 | 14:40.50 | 4:04.54 | 66050 | 84403
6 | 18:45.29 | 4:18.65 | 84404 | 103818
7 | 23:04.19 | 4:32.55 | 103819 | 124273
8 | 27:36.74 | 4:24.61 | 124274 | 144134
9 | 32:01.60 | 3:17.14 | 144135 | 158923
10 | 35:18.74 | 4:44.02 | 158924 | 180225
11 | 40:03.01 | 5:06.64 | 180226 | 203239
12 | 45:09.65 | 3:36.39 | 203240 | 219478
13 | 48:46.29 | 3:56.60 | 219479 | 237238
14 | 52:43.14 | 3:56.11 | 237239 | 254949
15 | 56:39.25 | 3:44.04 | 254950 | 271753

Range status and errors

Selected range

Filename A:SpotsEACThievery Cor. – Temple Of I&IThievery Corporation – The Temple Of I&I.wav

Peak level 99.7 %
Extraction speed 7.2 X
Range quality 100.0 %
Test CRC 8ACBEC31
Copy CRC 8ACBEC31
Copy OK

No errors occurred

AccurateRip summary

Track 1 not present in database
Track 2 not present in database
Track 3 not present in database
Track 4 not present in database
Track 5 not present in database
Track 6 not present in database
Track 7 not present in database
Track 8 not present in database
Track 9 not present in database
Track 10 not present in database
Track 11 not present in database
Track 12 not present in database
Track 13 not present in database
Track 14 not present in database
Track 15 not present in database

None of the tracks are present in the AccurateRip database

End of status report

DR Log
foobar2000 1.2.6 / Dynamic Range Meter 1.1.1
log date: 2017-02-11 04:21:49

––––––––––––––––––––––––––––––––––––––––
Analyzed: Thievery Corporation / Temple of I & I
––––––––––––––––––––––––––––––––––––––––

DR Peak RMS Duration Track
––––––––––––––––––––––––––––––––––––––––
DR6 -0.02 dB -7.94 dB 3:29 01-Thief Rockers (feat. Zee)
DR6 -0.02 dB -8.28 dB 3:54 02-Letter To The Editor (feat. Racquel Jones)
DR7 -0.02 dB -8.36 dB 3:32 03-Strike The Root (feat. Notch)
DR7 -0.02 dB -8.35 dB 3:47 04-Ghetto Matrix (feat. Mr. Lif)
DR7 -0.02 dB -8.56 dB 4:05 05-True Sons Of Zion (feat. Notch)
DR7 -0.02 dB -8.71 dB 4:19 06-The Temple Of I&I
DR7 -0.02 dB -7.90 dB 4:33 07-Time + Space (feat. Lou Lou Ghelichkhani)
DR10 -0.02 dB -11.64 dB 4:25 08-Love Has No Heart (feat. Shana Halligan)
DR8 -0.02 dB -9.25 dB 3:17 09-Lose To Find (feat. Elin Melgarejo)
DR8 -0.02 dB -9.63 dB 4:44 10-Let The Chalice Blaze
DR8 -0.02 dB -9.40 dB 5:07 11-Weapons Of Distraction (feat. Notch)
DR7 -0.02 dB -9.17 dB 3:37 12-Road Block (feat. Racquel Jones)
DR6 -0.02 dB -8.04 dB 3:57 13-Fight To Survive (feat. Mr. Lif)
DR7 -0.02 dB -8.41 dB 3:56 14-Babylon Falling (feat. Puma)
DR9 -0.02 dB -11.28 dB 3:44 15-Drop Your Guns (feat. Notch)
––––––––––––––––––––––––––––––––––––––––

Number of tracks: 15
Official DR value: DR7

Samplerate: 44100 Hz
Channels: 2
Bits per sample: 16
Bitrate: 815 kbps
Codec: FLAC
================================================================================

CUETools Log
[CUETools log; Date: 11.02.2017 4:21:59; Version: 2.1.5]
[CTDB TOCID: qrbHhbwDuNcy_XtHP3EuoVpQnhw-] found.
Track | CTDB Status
1 | (5/5) Accurately ripped
2 | (5/5) Accurately ripped
3 | (5/5) Accurately ripped
4 | (5/5) Accurately ripped
5 | (5/5) Accurately ripped
6 | (5/5) Accurately ripped
7 | (5/5) Accurately ripped
8 | (5/5) Accurately ripped
9 | (5/5) Accurately ripped
10 | (5/5) Accurately ripped
11 | (5/5) Accurately ripped
12 | (5/5) Accurately ripped
13 | (5/5) Accurately ripped
14 | (5/5) Accurately ripped
15 | (5/5) Accurately ripped
[AccurateRip ID: 0020c040-017670cd-bb0e270f] disk not present in database.

Track Peak [ CRC32 ] [W/O NULL] [ LOG ]
– 99,7 [8ACBEC31] [8FCD337D] CRC32
01 99,7 [EC3D4E2A] [379A9630]
02 99,7 [BBD25210] [77FEC662]
03 99,7 [82C573E1] [4A17A851]
04 99,7 [8684DEB4] [2A5BB221]
05 99,7 [471A2CB7] [FCDF25C9]
06 99,7 [10835877] [132BE981]
07 99,7 [BEDDDA4C] [D0B81522]
08 99,7 [A9E1D426] [16FD6809]
09 99,7 [0CDD84EC] [6A6855EB]
10 99,7 [81758F49] [FDD93904]
11 99,7 [8F749E90] [004DD700]
12 99,7 [C1A9255C] [7612D814]
13 99,7 [61EB69DA] [96AE1314]
14 99,7 [BDACA876] [D1D7AC77]
15 99,7 [6E7853D3] [BE165217]

Thievery Corporation - Temple of I & I (2017)

Thievery Corporation - Temple of I & I (2017)

All thanks go to the original ripper(s) …

> Visit my blog <

Thievery Corporation – Temple of I & I (2017) Download, Warez, DDL, Free, Full Album, Torrent, Legal.

Tags:

  • THIEVERY CORPORATION Temple Of I & I
  • thievery corporation the temple of i & i rar
Download