Thelma Houston & Pressure Cooker – I've Got The Music In Me (1975) {1989 Sheffield Lab} **[RE-UP]**

Download
Thelma Houston & Pressure Cooker - I've Got The Music In Me (1975) {1989 Sheffield Lab} **[RE-UP]**

Thelma Houston & Pressure Cooker – I’ve Got The Music In Me (1975) {1989 Sheffield Lab}
EAC Rip | FLAC with CUE and log | scans | 187 mb
MP3 CBR 320kbps | RAR | 81 mb
Genre: R&B, soul, vocal jazz

I’ve Got The Music In Me was an album by singer Thelma Houston and a band from the Sheffield Lab label, who called themselves Pressure Cooker. Originally released in 1975, this CD was released in 1989.

According to the liner notes, I’ve Got The Music In Me "was the most successful audiophile release of all time (up to 1989), having sold more than a quarter of a million copies and exhausting the production capacity of the direct disc."

Thelma Houston is best known for her disco hit "Don’t Leave Me This Way".

Thelma Houston & Pressure Cooker - I've Got The Music In Me (1975) {1989 Sheffield Lab} **[RE-UP]**

1. I’ve Got The Music In Me
2. Reggae Tune (Instrumental)
3. To Know You Is To Love You
4. Pressure Cooker (Instrumental)
5. Don’t Misunderstand
6. Step in Time (Instrumental)
7. Dish Rag (Instrumental)
8. Got To Get You Into My Life/I’ve Got The Music In Me (Reprise)

–-
Performance Credits
Vocals-Thelma Houston
Keyboards-Larry Knetchel, Lincoln Mayorga, Mike Melvoin, Michael Omaritan
Guitars-Larry Carlton, Dean Parks
Bass-Reinie Press
Drums-Jim Gordon, Jim Keltner
Percussion-Gary Coleman, Victor Feldman
Trumpets-Chuck Findley, Paul Hibinon
Trombone & bass trombone-Dick Hyde, Lew McCreary
Saxophones (& flutes)-Jim Horn, Tom Scott
French horn-Richard Preissi
Singers-Morgan Ames, Jim Gilstrap, Myrna Matthews, Marti McCall, Lisa Roberts, Jackie Ward

Production Credits
Imprimatur: Lincoln Mayorga
Executive Producers: Doug Sax & Lincoln Mayorga
Producer and Engineer: Bill Schnee

EAC Log
EAC extraction logfile from 24. June 2006, 11:23 for CD
Thelma Houston & Pressure Cooker / I’ve Got The Music In Me

Used drive : LITE-ON DVDRW SOHW-1633S Adapter: 0 ID: 0
Read mode : Secure with NO C2, accurate stream, disable cache
Read offset correction : 12
Overread into Lead-In and Lead-Out : No

Used output format : Internal WAV Routines
44.100 Hz; 16 Bit; Stereo

Other options :
Fill up missing offset samples with silence : Yes
Delete leading and trailing silent blocks : No
Installed external ASPI interface

Track 1
Filename D:FLACThelma Houston & Pressure Cooker – I’ve Got The Music In Me (1975) [FLAC] {1989 Sheffield Lab}1 – I’ve Got The Music In Me.wav

Pre-gap length 0:00:02.00

Peak level 81.2 %
Track quality 100.0 %
Test CRC 02901936
Copy CRC 02901936
Copy OK

Track 2
Filename D:FLACThelma Houston & Pressure Cooker – I’ve Got The Music In Me (1975) [FLAC] {1989 Sheffield Lab}2 – Reggae Tune (Instrumental).wav

Pre-gap length 0:00:03.16

Peak level 86.1 %
Track quality 100.0 %
Test CRC 1E95F7BA
Copy CRC 1E95F7BA
Copy OK

Track 3
Filename D:FLACThelma Houston & Pressure Cooker – I’ve Got The Music In Me (1975) [FLAC] {1989 Sheffield Lab}3 – To Know You Is To Love You.wav

Pre-gap length 0:00:03.37

Peak level 77.3 %
Track quality 100.0 %
Test CRC C0C09E9B
Copy CRC C0C09E9B
Copy OK

Track 4
Filename D:FLACThelma Houston & Pressure Cooker – I’ve Got The Music In Me (1975) [FLAC] {1989 Sheffield Lab}4 – Pressure Cooker (Instrumental).wav

Pre-gap length 0:00:04.20

Peak level 97.0 %
Track quality 100.0 %
Test CRC BB2BE64B
Copy CRC BB2BE64B
Copy OK

Track 5
Filename D:FLACThelma Houston & Pressure Cooker – I’ve Got The Music In Me (1975) [FLAC] {1989 Sheffield Lab}5 – Don’t Misunderstand.wav

Pre-gap length 0:00:04.06

Peak level 73.5 %
Track quality 100.0 %
Test CRC 3EF88437
Copy CRC 3EF88437
Copy OK

Track 6
Filename D:FLACThelma Houston & Pressure Cooker – I’ve Got The Music In Me (1975) [FLAC] {1989 Sheffield Lab}6 – Step in Time (Instrumental).wav

Pre-gap length 0:00:04.00

Peak level 100.0 %
Track quality 100.0 %
Test CRC 8FE2E24D
Copy CRC 8FE2E24D
Copy OK

Track 7
Filename D:FLACThelma Houston & Pressure Cooker – I’ve Got The Music In Me (1975) [FLAC] {1989 Sheffield Lab}7 – Dish Rag (Instrumental).wav

Pre-gap length 0:00:02.64

Peak level 97.0 %
Track quality 100.0 %
Test CRC 8779FEC0
Copy CRC 8779FEC0
Copy OK

Track 8
Filename D:FLACThelma Houston & Pressure Cooker – I’ve Got The Music In Me (1975) [FLAC] {1989 Sheffield Lab}8 – Got To Get You Into My Life. I’ve Got The Music In Me (Reprise).wav

Pre-gap length 0:00:04.33

Peak level 84.2 %
Track quality 100.0 %
Test CRC CD680A50
Copy CRC CD680A50
Copy OK

No errors occured

End of status report

Thelma Houston & Pressure Cooker - I've Got The Music In Me (1975) {1989 Sheffield Lab} **[RE-UP]**

Check out other titles in my Avaxhome blog or my personal blog.

Thelma Houston & Pressure Cooker – I've Got The Music In Me (1975) {1989 Sheffield Lab} **[RE-UP]** Download, Warez, DDL, Free, Full Album, Torrent, Legal.

Download