The Ventures – The Ventures' Christmas Album (1965)

Download
The Ventures - The Ventures' Christmas Album (1965)

The Ventures – The Ventures’ Christmas Album (1965)
Rock | 1cd | EAC Rip | Flac + Cue + Log | covers
Razor & Tie, RE 2085 | rel: 1995 | 250Mb

Originally issued on Dolton, this instrumental classic was reissued briefly in 1990 on CD by EMI. The Ventures have a blast with unique covers of secular Christmas songs: each instrumental borrows riffs from popular mid-’60s hits, incorporating them into their twangy guitar yule melodies. "Sleigh Ride" uses the Ventures’ own hit "Walk, Don’t Run," while other selections borrow from hits of other artists. It’s a gas to hear "Frosty the Snowman" set to the Champs’ "Tequila." ~Allmusic

Track listing
01. Sleigh Ride (2:19)
02. Snow Flakes (2:18)
03. Santa Claus Is Coming To Town (2:09)
04. Jingle Bells (1:58)
05. Jingle Bell Rock (1:54)
06. Silver Bells (2:29)
07. Rudolph, The Red-Nosed Reindeer (1:48)
08. Frosty The Snowman (2:01)
09. Scrooge (2:02)
10. Blue Christmas (2:22)
11. We Wish You A Merry Christmas (1:57)
12. White Christmas (2:52)

eac log:
Exact Audio Copy V0.99 prebeta 3 from 28. July 2007

Отчёт EAC об извлечении, выполненном 6. октября 2010, 16:44

The Ventures / The Ventures’ Christmas Album

Дисковод: Optiarc DVD RW AD-7241S Adapter: 3 ID: 0

Режим чтения : Достоверность
Использование точного потока : Да
Отключение кэша аудио : Да
Использование указателей C2 : Нет

Коррекция смещения при чтении : 48
Способность читать области Lead-in и Lead-out : Нет
Заполнение пропущенных сэмплов тишиной : Да
Удаление блоков с тишиной в начале и конце : Нет
При вычислениях CRC использовались нулевые сэмплы : Да
Интерфейс : Встроенный Win32-интерфейс для Win NT/2000
Обработка зазоров : Добавлено к предыдущему треку

Выходной формат : Пользовательский кодировщик
Выбранный битрейт : 768 kBit/s
Качество : Высокий
Добавление ID3-тэга : Нет
Утилита сжатия : C:Program Files (x86)Exact Audio CopyFLACFLAC.EXE
Дополнительные параметры : -6 -V -T "ARTIST=%a" -T "TITLE=%t" -T "ALBUM=%g" -T "DATE=%y" -T "TRACKNUMBER=%n" -T "GENRE=%m" -T "COMMENT=%e" %s -o %d

TOC извлечённого CD

Трек | Старт | Длительность | Начальный сектор | Конечный сектор
––––––––––––––––––––––––––––––––––-
1 | 0:00.00 | 2:22.20 | 0 | 10669
2 | 2:22.20 | 2:21.02 | 10670 | 21246
3 | 4:43.22 | 2:12.08 | 21247 | 31154
4 | 6:55.30 | 2:01.52 | 31155 | 40281
5 | 8:57.07 | 1:56.58 | 40282 | 49039
6 | 10:53.65 | 2:31.62 | 49040 | 60426
7 | 13:25.52 | 1:50.38 | 60427 | 68714
8 | 15:16.15 | 2:03.25 | 68715 | 77964
9 | 17:19.40 | 2:04.42 | 77965 | 87306
10 | 19:24.07 | 2:25.00 | 87307 | 98181
11 | 21:49.07 | 2:00.05 | 98182 | 107186
12 | 23:49.12 | 2:52.60 | 107187 | 120146

Трек 1

Имя файла K:My Torrents1965.11 · The Ventures’ Christmas Album1 · Sleigh Ride.wav

Длина предзазора 0:00:02.00

Пиковый уровень 100.0 %
Качество трека 100.0 %
CRC теста AFA0202D
CRC копии AFA0202D
Точное извлечение (достоверность 7) [4F7AA71B]
Копирование… OK

Трек 2

Имя файла K:My Torrents1965.11 · The Ventures’ Christmas Album2 · Snow Flakes.wav

Длина предзазора 0:00:02.55

Пиковый уровень 97.6 %
Качество трека 100.0 %
CRC теста C71EF434
CRC копии C71EF434
Точное извлечение (достоверность 7) [EE0CB8A5]
Копирование… OK

Трек 3

Имя файла K:My Torrents1965.11 · The Ventures’ Christmas Album3 · Santa Claus Is Coming To Town.wav

Длина предзазора 0:00:02.67

Пиковый уровень 99.9 %
Качество трека 100.0 %
CRC теста D23DFA8F
CRC копии D23DFA8F
Точное извлечение (достоверность 7) [F92590E6]
Копирование… OK

Трек 4

Имя файла K:My Torrents1965.11 · The Ventures’ Christmas Album4 · Jingle Bells.wav

Длина предзазора 0:00:02.38

Пиковый уровень 99.9 %
Качество трека 100.0 %
CRC теста F9B6F301
CRC копии F9B6F301
Точное извлечение (достоверность 7) [EC41C51A]
Копирование… OK

Трек 5

Имя файла K:My Torrents1965.11 · The Ventures’ Christmas Album5 · Jingle Bell Rock.wav

Длина предзазора 0:00:02.67

Пиковый уровень 99.9 %
Качество трека 100.0 %
CRC теста D2F6BB67
CRC копии D2F6BB67
Точное извлечение (достоверность 7) [B44E5627]
Копирование… OK

Трек 6

Имя файла K:My Torrents1965.11 · The Ventures’ Christmas Album6 · Silver Bells.wav

Длина предзазора 0:00:02.50

Пиковый уровень 87.8 %
Качество трека 100.0 %
CRC теста EBAFD892
CRC копии EBAFD892
Точное извлечение (достоверность 7) [78868435]
Копирование… OK

Трек 7

Имя файла K:My Torrents1965.11 · The Ventures’ Christmas Album7 · Rudolph, The Red-Nosed Reindeer.wav

Длина предзазора 0:00:02.15

Пиковый уровень 100.0 %
Качество трека 100.0 %
CRC теста D0A90998
CRC копии D0A90998
Точное извлечение (достоверность 7) [94CC7831]
Копирование… OK

Трек 8

Имя файла K:My Torrents1965.11 · The Ventures’ Christmas Album8 · Frosty The Snowman.wav

Длина предзазора 0:00:01.64

Пиковый уровень 100.0 %
Качество трека 100.0 %
CRC теста E8375DF6
CRC копии E8375DF6
Точное извлечение (достоверность 7) [1D0DFA02]
Копирование… OK

Трек 9

Имя файла K:My Torrents1965.11 · The Ventures’ Christmas Album9 · Scrooge.wav

Длина предзазора 0:00:02.03

Пиковый уровень 97.2 %
Качество трека 100.0 %
CRC теста FEDC3443
CRC копии FEDC3443
Точное извлечение (достоверность 7) [0F0E1A7A]
Копирование… OK

Трек 10

Имя файла K:My Torrents1965.11 · The Ventures’ Christmas Album10 · Blue Christmas.wav

Длина предзазора 0:00:01.72

Пиковый уровень 96.8 %
Качество трека 100.0 %
CRC теста C77A793C
CRC копии C77A793C
Точное извлечение (достоверность 7) [ABDF913A]
Копирование… OK

Трек 11

Имя файла K:My Torrents1965.11 · The Ventures’ Christmas Album11 · We Wish You A Merry Christmas.wav

Длина предзазора 0:00:02.52

Пиковый уровень 100.0 %
Качество трека 100.0 %
CRC теста C6089835
CRC копии C6089835
Точное извлечение (достоверность 7) [72F20C1B]
Копирование… OK

Трек 12

Имя файла K:My Torrents1965.11 · The Ventures’ Christmas Album12 · White Christmas.wav

Длина предзазора 0:00:02.37

Пиковый уровень 99.9 %
Качество трека 100.0 %
CRC теста 6C99ADB9
CRC копии 6C99ADB9
Точное извлечение (достоверность 7) [953BACA4]
Копирование… OK

Все треки извлечены точно

Ошибок не произошло

Конец отчёта

cuetools report:
[CUETools log; Date: 2016. 12. 22. 23:32:43; Version: 2.1.6]
[CTDB TOCID: Fg876JhRK_IT4.g4fBsr_gnlNEY-] found.
Track | CTDB Status
1 | (23/23) Accurately ripped
2 | (23/23) Accurately ripped
3 | (23/23) Accurately ripped
4 | (23/23) Accurately ripped
5 | (23/23) Accurately ripped
6 | (23/23) Accurately ripped
7 | (23/23) Accurately ripped
8 | (23/23) Accurately ripped
9 | (23/23) Accurately ripped
10 | (23/23) Accurately ripped
11 | (23/23) Accurately ripped
12 | (23/23) Accurately ripped
[AccurateRip ID: 000bc8e4-006d92ad-8b06410c] found.
Track [ CRC | V2 ] Status
01 [4f7aa71b|2e715af4] (07+07/46) Accurately ripped
02 [ee0cb8a5|4486f716] (07+06/44) Accurately ripped
03 [f92590e6|96e0e5ac] (07+06/44) Accurately ripped
04 [ec41c51a|efa541a1] (07+06/44) Accurately ripped
05 [b44e5627|a9ddc882] (07+06/44) Accurately ripped
06 [78868435|9776f117] (07+06/44) Accurately ripped
07 [94cc7831|01740659] (07+06/44) Accurately ripped
08 [1d0dfa02|a49e4b77] (07+06/44) Accurately ripped
09 [0f0e1a7a|dbb0977e] (07+06/44) Accurately ripped
10 [abdf913a|a0127095] (07+06/44) Accurately ripped
11 [72f20c1b|b9377ae1] (07+06/44) Accurately ripped
12 [953baca4|80406d02] (07+06/44) Accurately ripped
Offsetted by 664:
01 [5c1a34b3] (21/46) Accurately ripped
02 [e73b4895] (20/44) Accurately ripped
03 [67235bf6] (20/44) Accurately ripped
04 [f625e7ea] (20/44) Accurately ripped
05 [36d28c0f] (20/44) Accurately ripped
06 [5635412d] (20/44) Accurately ripped
07 [4cf12961] (20/44) Accurately ripped
08 [8682cdaa] (20/44) Accurately ripped
09 [2bb7ed4a] (20/44) Accurately ripped
10 [bdea5b72] (20/44) Accurately ripped
11 [395c2df3] (20/44) Accurately ripped
12 [b59d7fd4] (20/44) Accurately ripped

Track Peak [ CRC32 ] [W/O NULL]
– 100,0 [8677171B] [436DD046]
01 100,0 [AFA0202D] [DE1C2AFA]
02 97,6 [C71EF434] [B56DF142]
03 99,9 [D23DFA8F] [79A53B9B]
04 99,9 [F9B6F301] [6977D70F]
05 99,9 [D2F6BB67] [DEE49A88]
06 87,8 [EBAFD892] [B4F9D3B5]
07 100,0 [D0A90998] [E5823DEC]
08 100,0 [E8375DF6] [08E8F350]
09 97,2 [FEDC3443] [BB1F441E]
10 96,8 [C77A793C] [10E2255D]
11 100,0 [C6089835] [AFFE07FD]
12 99,9 [6C99ADB9] [524118AD]

Thx to X_Offender

The Ventures – The Ventures' Christmas Album (1965) Download, Warez, DDL, Free, Full Album, Torrent, Legal.

Download