The Trash Can Sinatras – Albums Collection 1990-2009 [6CD] | ViralVideoPk

Daily Dose of Free Downloads

The Trash Can Sinatras – Albums Collection 1990-2009 [6CD]

Download

The Trash Can Sinatras - Albums Collection 1990-2009 [6CD]

The Trash Can Sinatras – Albums Collection 1990-2009 [6CD]
EAC | FLAC | Tracks (Cue&Log) ~ 1.56 Gb | Mp3 (CBR320) ~ 598 Mb | Scans ~ 850 Mb
Genre: Alternative Rock, Indie Pop, Jangle Pop, College Rock | Time: 04:02:49

Scottish indie pop stalwarts the Trash Can Sinatras were founded outside of Glasgow in 1987 by singer/guitarist Frank Reader (the brother of ex-Fairground Attraction singer Eddi Reader), guitarists John Douglas and Paul Livingston, bassist George McDaid, and drummer Stephen Douglas. Initially formed as a cover band, they were performing in a local bar when they were discovered by Go! Discs label representative Simon Dine; their first single, the superb "Obscurity Knocks," appeared in early 1990, evoking the jangly guitar pop crafted by Scottish bands like Aztec Camera, Orange Juice, and Josef K a decade earlier. A second Trash Can Sinatras single, "Only Tongue Can Tell," preceded the release of the quintet’s debut LP, Cake, which met with a positive response on both sides of the Atlantic; in the U.S., it became a particular favorite on college radio. McDaid left the lineup in 1992, and was replaced by bassist David Hughes; by the time the Trash Can Sinatras’ sophomore effort, I’ve Seen Everything, finally appeared in 1993, however, the ascendance of grunge essentially derailed whatever commercial momentum the group still had left, and 1996’s A Happy Pocket was not even released in America. A new single, "Snow," followed in late 1999. They made a triumphant return to the scene in 2004 with their Spin Art release Weightlifting and a world tour that had them wowing old fans and gaining new ones with their typically wonderful display of melody and emotion. The group followed up the album the next year with Fez, a limited-edition album made up of live acoustic recordings made at New York’s Fez nightclub. After a relatively uneventful couple of years, the band reconvened in late 2007 to beginning recording a new album. The results (which featured Carly Simon singing on a track!) were issued as In the Music by Lo-Five in the summer of 2009.

Jason Ankeny, Allmusic.com

The Trash Can Sinatras - Albums Collection 1990-2009 [6CD]

The Trash Can Sinatras - Albums Collection 1990-2009 [6CD]

Wikipedia
Website

The Trash Can Sinatras - Albums Collection 1990-2009 [6CD]

The Trash Can Sinatras – Cake (1990)
EAC | FLAC | Tracks (Cue&Log) ~ 268 Mb | Mp3 (CBR320) ~ 110 Mb
Label: London Records/Go! Discs | # 828 201-2 | Time: 00:39:58 | Scans ~ 136 Mb

Long before Travis and Coldplay came along, the Trash Can Sinatras enchanted college-aged Anglophiles with their jangly brand of emotive Brit-pop. Seen as musical fluff by fans of early-’90s pre-Nirvana alternative and ignored by fans of mid- to late-’90s post-Nirvana alternative, these five Scottish lads smoothed the edges but sharpened the hooks of a developing genre. The Trash Can Sinatras’ 1990 debut, Cake, mixes intricately intertwined guitars, in the spirit of a more charming, less gritty Johnny Marr, with lush strings and sophisticated harmonies. Touchingly clever wordplay ("You came into my life/Like a brick through a window/And I cracked a smile") abounds, as on "The Best Man’s Fall." The clean production – necessary for such elaborate orchestration – is extremely warm and inviting. Singles like "Obscurity Knocks" and "Only Tongue Will Tell" as well as "Maybe I Should Drive" prove to be the tastiest pieces of pure pop pleasure. But sugar can be bittersweet and laced with longing, as on "Thrupenny Tears" and "You Made Me Feel." Regardless of the relative mood, this debut is noticeably devoid of musical missteps – quite a feat for a new artist. Easy on the ears and palate, Cake is as filling and digestible an album as one could hope. Subsequent Trash Can Sinatras releases reach for the same greatness but ultimately fall a little short. This precursor to early 21st century Brit-pop darkens the occasional used record store bin. And it tastes almost as fresh as the day it was made.

Norm Elrod, Allmusic.com

Tracklist:

01. Obscurity Knocks (04:13)
02. Maybe I Should Drive (03:40)
03. Thrupenny Tears (05:15)
04. Even the Odd (03:25)
05. The Best Man’s Fall (03:43)
06. Circling the Circumference (02:40)
07. Funny (04:16)
08. Only Tongue Can Tell (03:45)
09. You Made Me Feel (04:10)
10. January’s Little Joke (04:47)

EAC log
Exact Audio Copy V1.0 beta 3 from 29. August 2011

EAC extraction logfile from 19. October 2014, 13:38

The Trash Can Sinatras / Cake

Used drive : PIONEER DVD-RW DVR-118L Adapter: 2 ID: 0

Read mode : Secure
Utilize accurate stream : Yes
Defeat audio cache : Yes
Make use of C2 pointers : No

Read offset correction : 6
Overread into Lead-In and Lead-Out : No
Fill up missing offset samples with silence : Yes
Delete leading and trailing silent blocks : No
Null samples used in CRC calculations : Yes
Used interface : Native Win32 interface for Win NT & 2000
Gap handling : Appended to previous track

Used output format : User Defined Encoder
Selected bitrate : 1024 kBit/s
Quality : High
Add ID3 tag : No
Command line compressor : C:Program Files (x86)Exact Audio CopyFlacflac.exe
Additional command line options : -8 -V -T "ARTIST=%artist%" -T "TITLE=%title%" -T "ALBUM=%albumtitle%" -T "DATE=%year%" -T "TRACKNUMBER=%tracknr%" -T "GENRE=%genre%" -T "PERFORMER=%albuminterpret%" -T "COMPOSER=%composer%" %haslyrics%–tag-from-file=LYRICS="%lyricsfile%"%haslyrics% -T "ALBUMARTIST=%albumartist%" -T "DISCNUMBER=%cdnumber%" -T "TOTALDISCS=%totalcds%" -T "TOTALTRACKS=%numtracks%" -T "COMMENT=%comment%" %source% -o %dest%

TOC of the extracted CD

Track | Start | Length | Start sector | End sector
––––––––––––––––––––––––––––-
1 | 0:00.00 | 4:13.22 | 0 | 18996
2 | 4:13.22 | 3:40.00 | 18997 | 35496
3 | 7:53.22 | 5:15.13 | 35497 | 59134
4 | 13:08.35 | 3:25.57 | 59135 | 74566
5 | 16:34.17 | 3:43.43 | 74567 | 91334
6 | 20:17.60 | 2:40.52 | 91335 | 103386
7 | 22:58.37 | 4:16.35 | 103387 | 122621
8 | 27:14.72 | 3:45.30 | 122622 | 139526
9 | 31:00.27 | 4:10.25 | 139527 | 158301
10 | 35:10.52 | 4:47.40 | 158302 | 179866

Track 1

Filename D:CDRip1 – Obscurity Knocks.wav

Pre-gap length 0:00:02.00

Peak level 87.5 %
Extraction speed 0.9 X
Track quality 99.9 %
Test CRC 7725A202
Copy CRC 7725A202
Accurately ripped (confidence 7) [39B3DDC6] (AR v2)
Copy OK

Track 2

Filename D:CDRip2 – Maybe I Should Drive.wav

Pre-gap length 0:00:03.33

Peak level 77.1 %
Extraction speed 1.1 X
Track quality 100.0 %
Test CRC BC0A8E19
Copy CRC BC0A8E19
Accurately ripped (confidence 7) [561EE096] (AR v2)
Copy OK

Track 3

Filename D:CDRip3 – Thrupenny Tears.wav

Pre-gap length 0:00:09.42

Peak level 70.5 %
Extraction speed 1.3 X
Track quality 100.0 %
Test CRC D3E6697C
Copy CRC D3E6697C
Accurately ripped (confidence 7) [0C50F051] (AR v2)
Copy OK

Track 4

Filename D:CDRip4 – Even the Odd.wav

Pre-gap length 0:00:00.04

Peak level 78.2 %
Extraction speed 1.4 X
Track quality 100.0 %
Test CRC F15CC93E
Copy CRC F15CC93E
Accurately ripped (confidence 7) [3BBD1037] (AR v2)
Copy OK

Track 5

Filename D:CDRip5 – The Best Man’s Fall.wav

Pre-gap length 0:00:03.56

Peak level 74.1 %
Extraction speed 1.5 X
Track quality 100.0 %
Test CRC 5FF5638D
Copy CRC 5FF5638D
Accurately ripped (confidence 7) [379B6208] (AR v2)
Copy OK

Track 6

Filename D:CDRip6 – Circling the Circumference.wav

Pre-gap length 0:00:06.13

Peak level 74.7 %
Extraction speed 1.2 X
Track quality 99.9 %
Test CRC DECBAD00
Copy CRC DECBAD00
Accurately ripped (confidence 7) [8DCBC695] (AR v2)
Copy OK

Track 7

Filename D:CDRip7 – Funny.wav

Pre-gap length 0:00:00.02

Peak level 71.1 %
Extraction speed 1.6 X
Track quality 100.0 %
Test CRC E9441521
Copy CRC E9441521
Accurately ripped (confidence 7) [49E49D52] (AR v2)
Copy OK

Track 8

Filename D:CDRip8 – Only Tongue Can Tell.wav

Pre-gap length 0:00:00.02

Peak level 85.8 %
Extraction speed 1.5 X
Track quality 99.9 %
Test CRC 366237C7
Copy CRC 366237C7
Accurately ripped (confidence 7) [98A24E01] (AR v2)
Copy OK

Track 9

Filename D:CDRip9 – You Made Me Feel.wav

Pre-gap length 0:00:01.53

Peak level 75.7 %
Extraction speed 1.6 X
Track quality 99.9 %
Test CRC 93C09DB3
Copy CRC 93C09DB3
Accurately ripped (confidence 7) [A0B01789] (AR v2)
Copy OK

Track 10

Filename D:CDRip10 – January’s Little Joke.wav

Pre-gap length 0:00:01.82

Peak level 71.0 %
Extraction speed 1.7 X
Track quality 99.9 %
Test CRC C9FD8ABC
Copy CRC C9FD8ABC
Accurately ripped (confidence 7) [C37A6518] (AR v2)
Copy OK

All tracks accurately ripped

No errors occurred

End of status report

–– CUETools DB Plugin V2.1.3

[CTDB TOCID: Cl68JBDm9IBcWecmooAVy.cdt2g-] found, Submit result: Cl68JBDm9IBcWecmooAVy.cdt2g- has been confirmed
[1611affa] (34/35) Accurately ripped
[3ed6a8df] (01/35) No match

==== Log checksum 82940F87F86450FDC7B51BE028C8AF7024660A966FEEB405737AB408E6DF7246 ====

DR log
foobar2000 1.2 / Dynamic Range Meter 1.1.1
log date: 2014-10-24 16:31:59

––––––––––––––––––––––––––––––––––––––––
Analyzed: The Trash Can Sinatras / Cake
––––––––––––––––––––––––––––––––––––––––

DR Peak RMS Duration Track
––––––––––––––––––––––––––––––––––––––––
DR10 -1.16 dB -13.13 dB 4:13 01-Obscurity Knocks
DR11 -2.25 dB -15.26 dB 3:40 02-Maybe I Should Drive
DR15 -3.02 dB -23.50 dB 5:15 03-Thrupenny Tears
DR12 -2.13 dB -18.55 dB 3:26 04-Even the Odd
DR13 -2.60 dB -18.84 dB 3:44 05-The Best Man’s Fall
DR12 -2.53 dB -16.55 dB 2:41 06-Circling the Circumference
DR15 -2.96 dB -20.98 dB 4:16 07-Funny
DR13 -1.32 dB -16.91 dB 3:45 08-Only Tongue Can Tell
DR12 -2.41 dB -18.85 dB 4:10 09-You Made Me Feel
DR11 -2.97 dB -17.19 dB 4:48 10-January’s Little Joke
––––––––––––––––––––––––––––––––––––––––

Number of tracks: 10
Official DR value: DR12

Samplerate: 44100 Hz
Channels: 2
Bits per sample: 16
Bitrate: 930 kbps
Codec: FLAC
================================================================================

The Trash Can Sinatras - Albums Collection 1990-2009 [6CD]

The Trash Can Sinatras – I’ve Seen Everything (1993)
EAC | FLAC | Tracks (Cue&Log) ~ 297 Mb | Mp3 (CBR320) ~ 107 Mb
Label: London Records/Go! Discs | # 828 412-2 | Time: 00:44:32 | Scans ~ 151 Mb

The languid title track of I’ve Seen Everything is, like the amazing "Hayfever" single off that LP, no slouch either. So if you don’t have the wonderful LP both A-sides are from, I’ve Seen Everything, here’s another great taste. Of more importance, however, are the three non-LP B-sides found here. In fact, it’s a shame the up-tempo "I’m the One Who Fainted" the equally brisk "Houseproud," and especially the truly delightful "Ask Davy," an outstanding track, from the I’ve Seen Everything EP, didn’t make the LP. These songs are so immediately strong, with some of their most urgently catchy words and tunes, they easily defeat more than half of the tracks that made the LP, particularly the rash of quiet ones in a row in the middle of the album. Perhaps they were recorded after the LP since they’re (very well!) self-produced.

Jack Rabid, Allmusic.com

Tracklist:

01. Easy Read (02:55)
02. Hayfever (03:09)
03. Bloodrush (03:22)
04. Worked a Miracle (03:14)
05. The Perfect Reminder (01:03)
06. Killing the Cabinet (02:44)
07. Orange Fell (04:07)
08. I’m Immortal (03:54)
09. Send for Henny (03:16)
10. Iceberg (01:22)
11. One at a Time (03:45)
12. I’ve Seen Everything (04:02)
13. The Hairy Years (02:49)
14. Earlies (04:43)

EAC log
Exact Audio Copy V1.0 beta 3 from 29. August 2011

EAC extraction logfile from 20. October 2014, 0:41

Trashcan Sinatras / I’ve Seen Everything

Used drive : PIONEER DVD-RW DVR-118L Adapter: 2 ID: 0

Read mode : Secure
Utilize accurate stream : Yes
Defeat audio cache : Yes
Make use of C2 pointers : No

Read offset correction : 6
Overread into Lead-In and Lead-Out : No
Fill up missing offset samples with silence : Yes
Delete leading and trailing silent blocks : No
Null samples used in CRC calculations : Yes
Used interface : Native Win32 interface for Win NT & 2000
Gap handling : Appended to previous track

Used output format : User Defined Encoder
Selected bitrate : 1024 kBit/s
Quality : High
Add ID3 tag : No
Command line compressor : C:Program Files (x86)Exact Audio CopyFlacflac.exe
Additional command line options : -8 -V -T "ARTIST=%artist%" -T "TITLE=%title%" -T "ALBUM=%albumtitle%" -T "DATE=%year%" -T "TRACKNUMBER=%tracknr%" -T "GENRE=%genre%" -T "PERFORMER=%albuminterpret%" -T "COMPOSER=%composer%" %haslyrics%–tag-from-file=LYRICS="%lyricsfile%"%haslyrics% -T "ALBUMARTIST=%albumartist%" -T "DISCNUMBER=%cdnumber%" -T "TOTALDISCS=%totalcds%" -T "TOTALTRACKS=%numtracks%" -T "COMMENT=%comment%" %source% -o %dest%

TOC of the extracted CD

Track | Start | Length | Start sector | End sector
––––––––––––––––––––––––––––-
1 | 0:00.32 | 2:55.43 | 32 | 13199
2 | 2:56.00 | 3:09.02 | 13200 | 27376
3 | 6:05.02 | 3:22.55 | 27377 | 42581
4 | 9:27.57 | 3:14.05 | 42582 | 57136
5 | 12:41.62 | 1:03.48 | 57137 | 61909
6 | 13:45.35 | 2:44.65 | 61910 | 74274
7 | 16:30.25 | 4:07.62 | 74275 | 92861
8 | 20:38.12 | 3:54.10 | 92862 | 110421
9 | 24:32.22 | 3:16.53 | 110422 | 125174
10 | 27:49.00 | 1:22.67 | 125175 | 131391
11 | 29:11.67 | 3:45.40 | 131392 | 148306
12 | 32:57.32 | 4:02.18 | 148307 | 166474
13 | 36:59.50 | 2:49.32 | 166475 | 179181
14 | 39:49.07 | 4:43.28 | 179182 | 200434

Track 1

Filename D:CDRip1 – Easy Read.wav

Pre-gap length 0:00:02.42

Peak level 94.6 %
Extraction speed 1.0 X
Track quality 100.0 %
Test CRC A37A63D9
Copy CRC A37A63D9
Accurately ripped (confidence 11) [89B32D17] (AR v2)
Copy OK

Track 2

Filename D:CDRip2 – Hayfever.wav

Peak level 94.6 %
Extraction speed 1.1 X
Track quality 100.0 %
Test CRC D9D0FB9A
Copy CRC D9D0FB9A
Accurately ripped (confidence 11) [99FE55C8] (AR v2)
Copy OK

Track 3

Filename D:CDRip3 – Bloodrush.wav

Peak level 94.6 %
Extraction speed 1.2 X
Track quality 100.0 %
Test CRC A64E2A67
Copy CRC A64E2A67
Accurately ripped (confidence 11) [4615C174] (AR v2)
Copy OK

Track 4

Filename D:CDRip4 – Worked a Miracle.wav

Pre-gap length 0:00:00.86

Peak level 94.6 %
Extraction speed 1.3 X
Track quality 100.0 %
Test CRC 00131EF1
Copy CRC 00131EF1
Accurately ripped (confidence 11) [B4A1EC90] (AR v2)
Copy OK

Track 5

Filename D:CDRip5 – The Perfect Reminder.wav

Peak level 63.7 %
Extraction speed 1.0 X
Track quality 100.0 %
Test CRC BA6314A4
Copy CRC BA6314A4
Accurately ripped (confidence 11) [888D7744] (AR v2)
Copy OK

Track 6

Filename D:CDRip6 – Killing the Cabinet.wav

Peak level 94.6 %
Extraction speed 1.3 X
Track quality 100.0 %
Test CRC 00E98714
Copy CRC 00E98714
Accurately ripped (confidence 11) [4BC1740C] (AR v2)
Copy OK

Track 7

Filename D:CDRip7 – Orange Fell.wav

Pre-gap length 0:00:02.24

Peak level 94.6 %
Extraction speed 1.5 X
Track quality 100.0 %
Test CRC A854A879
Copy CRC A854A879
Accurately ripped (confidence 10) [8DD494A9] (AR v2)
Copy OK

Track 8

Filename D:CDRip8 – I’m Immortal.wav

Pre-gap length 0:00:01.60

Peak level 94.6 %
Extraction speed 1.6 X
Track quality 100.0 %
Test CRC 57F400D1
Copy CRC 57F400D1
Accurately ripped (confidence 10) [41438D12] (AR v2)
Copy OK

Track 9

Filename D:CDRip9 – Send for Henny.wav

Pre-gap length 0:00:00.09

Peak level 94.6 %
Extraction speed 1.6 X
Track quality 100.0 %
Test CRC 106D3A53
Copy CRC 106D3A53
Accurately ripped (confidence 11) [2000A69A] (AR v2)
Copy OK

Track 10

Filename D:CDRip10 – Iceberg.wav

Peak level 57.6 %
Extraction speed 1.3 X
Track quality 100.0 %
Test CRC 9397F3A1
Copy CRC 9397F3A1
Accurately ripped (confidence 11) [6A303BB0] (AR v2)
Copy OK

Track 11

Filename D:CDRip11 – One at a Time.wav

Peak level 94.6 %
Extraction speed 1.7 X
Track quality 100.0 %
Test CRC 5EEBAA5E
Copy CRC 5EEBAA5E
Accurately ripped (confidence 11) [5AD80B23] (AR v2)
Copy OK

Track 12

Filename D:CDRip12 – I’ve Seen Everything.wav

Pre-gap length 0:00:00.09

Peak level 94.6 %
Extraction speed 1.8 X
Track quality 100.0 %
Test CRC F9A45FBE
Copy CRC F9A45FBE
Accurately ripped (confidence 11) [7A963406] (AR v2)
Copy OK

Track 13

Filename D:CDRip13 – The Hairy Years.wav

Pre-gap length 0:00:00.57

Peak level 94.6 %
Extraction speed 1.8 X
Track quality 100.0 %
Test CRC 3835853B
Copy CRC 3835853B
Accurately ripped (confidence 11) [795D0B0D] (AR v2)
Copy OK

Track 14

Filename D:CDRip14 – Earlies.wav

Peak level 94.6 %
Extraction speed 2.0 X
Track quality 100.0 %
Test CRC 8FC9C073
Copy CRC 8FC9C073
Accurately ripped (confidence 11) [009BB020] (AR v2)
Copy OK

All tracks accurately ripped

No errors occurred

End of status report

==== Log checksum 217C9F2C8CE704C867853952B630F2EDEF175E4D80C564EC6F21CFE87FF6245F ====

DR log
foobar2000 1.2 / Dynamic Range Meter 1.1.1
log date: 2014-10-24 16:32:12

––––––––––––––––––––––––––––––––––––––––
Analyzed: Trashcan Sinatras / I’ve Seen Everything
––––––––––––––––––––––––––––––––––––––––

DR Peak RMS Duration Track
––––––––––––––––––––––––––––––––––––––––
DR12 -0.48 dB -14.66 dB 2:56 01-Easy Read
DR11 -0.48 dB -12.91 dB 3:09 02-Hayfever
DR11 -0.48 dB -12.85 dB 3:23 03-Bloodrush
DR12 -0.48 dB -15.89 dB 3:14 04-Worked a Miracle
DR10 -3.92 dB -17.74 dB 1:04 05-The Perfect Reminder
DR11 -0.48 dB -12.88 dB 2:45 06-Killing the Cabinet
DR11 -0.48 dB -14.87 dB 4:08 07-Orange Fell
DR13 -0.48 dB -15.76 dB 3:54 08-I’m Immortal
DR12 -0.48 dB -14.32 dB 3:17 09-Send for Henny
DR12 -4.79 dB -21.19 dB 1:23 10-Iceberg
DR11 -0.48 dB -12.72 dB 3:46 11-One at a Time
DR11 -0.48 dB -13.80 dB 4:02 12-I’ve Seen Everything
DR12 -0.48 dB -15.09 dB 2:49 13-The Hairy Years
DR12 -0.48 dB -14.52 dB 4:43 14-Earlies
––––––––––––––––––––––––––––––––––––––––

Number of tracks: 14
Official DR value: DR12

Samplerate: 44100 Hz
Channels: 2
Bits per sample: 16
Bitrate: 866 kbps
Codec: FLAC
================================================================================

The Trash Can Sinatras - Albums Collection 1990-2009 [6CD]

The Trash Can Sinatras – A Happy Pocket (1996)
EAC | FLAC | Tracks (Cue&Log) ~ 365 Mb | Mp3 (CBR320) ~ 128 Mb
Label: Go! Discs | # 828 696-2 | Time: 00:53:23 | Scans ~ 178 Mb

After the glorious pop masterpieces that were the Trash Can Sinatras’ first two albums, A Happy Pocket is a bit of a letdown. Murky production, strange vocal effects that obscure Francis Reader’s delicate voice, and an over-reliance on mandolin overdubs make for a generally less than engaging listen. That doesn’t mean that there aren’t some fine additions to the Trash Can canon, as "The Safecracker," "Twisted & Bent," "How Can I Apply…?," and "The Therapist" are absolutely sublime. One gets the sense that the album was only half complete upon its release. Indeed, a rotating bevy of mixers and engineers are credited with various batches of the songs. At least one-third of the album comes across like a collection of fleshless demos. Particularly stale is the amateurish cover of "To Sir With Love" that sounds as if it was recorded underwater with Reader half-asleep. A Happy Pocket is certainly more subdued than the band’s earlier albums, but that’s not what makes it disappointing. It’s as if the band took a step backward, stripped down their trademark jangling guitars, and decided to rely on studio polish in place of their usually stellar hooks. Had it not been for the stunning musicianship and energy of the previous albums, A Happy Pocket would probably be more enjoyable. But outside of the occasional gems, as stellar as they are, A Happy Pocket lags far behind the band’s earlier output due to poor sequencing, some sloppy production choices, and a lack of editing prowess. Had the album been edited down to five or six songs, it would have made a fine mini-album.

Allmusic.com

Tracklist:

01. Outside (05:07)
02. Twisted and Bent (03:20)
03. Unfortunate Age (03:29)
04. To Sir, With Love (04:41)
05. Make Yourself at Home (03:23)
06. The Main Attraction (03:07)
07. How Can I Apply…? (02:52)
08. The Pop Place (03:08)
09. The Genius I Was (03:03)
10. The Sleeping Policeman (04:11)
11. I Must Fly (04:33)
12. I’ll Get Them In (03:40)
13. The Safecracker (05:23)
14. The Therapist (03:20)

EAC log
Exact Audio Copy V1.0 beta 3 from 29. August 2011

EAC extraction logfile from 20. October 2014, 4:37

Trashcan Sinatras / A Happy Pocket

Used drive : PIONEER DVD-RW DVR-118L Adapter: 2 ID: 0

Read mode : Secure
Utilize accurate stream : Yes
Defeat audio cache : Yes
Make use of C2 pointers : No

Read offset correction : 6
Overread into Lead-In and Lead-Out : No
Fill up missing offset samples with silence : Yes
Delete leading and trailing silent blocks : No
Null samples used in CRC calculations : Yes
Used interface : Native Win32 interface for Win NT & 2000
Gap handling : Appended to previous track

Used output format : User Defined Encoder
Selected bitrate : 1024 kBit/s
Quality : High
Add ID3 tag : No
Command line compressor : C:Program Files (x86)Exact Audio CopyFlacflac.exe
Additional command line options : -8 -V -T "ARTIST=%artist%" -T "TITLE=%title%" -T "ALBUM=%albumtitle%" -T "DATE=%year%" -T "TRACKNUMBER=%tracknr%" -T "GENRE=%genre%" -T "PERFORMER=%albuminterpret%" -T "COMPOSER=%composer%" %haslyrics%–tag-from-file=LYRICS="%lyricsfile%"%haslyrics% -T "ALBUMARTIST=%albumartist%" -T "DISCNUMBER=%cdnumber%" -T "TOTALDISCS=%totalcds%" -T "TOTALTRACKS=%numtracks%" -T "COMMENT=%comment%" %source% -o %dest%

TOC of the extracted CD

Track | Start | Length | Start sector | End sector
––––––––––––––––––––––––––––-
1 | 0:00.00 | 5:07.02 | 0 | 23026
2 | 5:07.02 | 3:20.73 | 23027 | 38099
3 | 8:28.00 | 3:29.47 | 38100 | 53821
4 | 11:57.47 | 4:41.08 | 53822 | 74904
5 | 16:38.55 | 3:23.55 | 74905 | 90184
6 | 20:02.35 | 3:07.20 | 90185 | 104229
7 | 23:09.55 | 2:52.42 | 104230 | 117171
8 | 26:02.22 | 3:08.30 | 117172 | 131301
9 | 29:10.52 | 3:03.03 | 131302 | 145029
10 | 32:13.55 | 4:11.27 | 145030 | 163881
11 | 36:25.07 | 4:33.63 | 163882 | 184419
12 | 40:58.70 | 3:40.27 | 184420 | 200946
13 | 44:39.22 | 5:23.30 | 200947 | 225201
14 | 50:02.52 | 3:20.65 | 225202 | 240266

Track 1

Filename D:CDRip1 – Outside.wav

Pre-gap length 0:00:02.00

Peak level 99.2 %
Extraction speed 1.1 X
Track quality 100.0 %
Test CRC BA4877E4
Copy CRC BA4877E4
Accurately ripped (confidence 8) [9561B432] (AR v2)
Copy OK

Track 2

Filename D:CDRip2 – Twisted and Bent.wav

Pre-gap length 0:00:00.02

Peak level 99.2 %
Extraction speed 1.2 X
Track quality 100.0 %
Test CRC 59AE2BC5
Copy CRC 59AE2BC5
Accurately ripped (confidence 8) [4C2DEBDA] (AR v2)
Copy OK

Track 3

Filename D:CDRip3 – Unfortunate Age.wav

Pre-gap length 0:00:00.44

Peak level 97.7 %
Extraction speed 1.3 X
Track quality 100.0 %
Test CRC 7D06E178
Copy CRC 7D06E178
Accurately ripped (confidence 8) [BA6BD498] (AR v2)
Copy OK

Track 4

Filename D:CDRip4 – To Sir, With Love.wav

Pre-gap length 0:00:00.02

Peak level 99.2 %
Extraction speed 1.4 X
Track quality 100.0 %
Test CRC 00C695AB
Copy CRC 00C695AB
Accurately ripped (confidence 8) [3926BF2D] (AR v2)
Copy OK

Track 5

Filename D:CDRip5 – Make Yourself at Home.wav

Pre-gap length 0:00:00.04

Peak level 99.2 %
Extraction speed 1.4 X
Track quality 100.0 %
Test CRC 2336711D
Copy CRC 2336711D
Accurately ripped (confidence 8) [E298062C] (AR v2)
Copy OK

Track 6

Filename D:CDRip6 – The Main Attraction.wav

Pre-gap length 0:00:00.04

Peak level 99.2 %
Extraction speed 1.5 X
Track quality 100.0 %
Test CRC E8665B41
Copy CRC E8665B41
Accurately ripped (confidence 8) [233B41B7] (AR v2)
Copy OK

Track 7

Filename D:CDRip7 – How Can I Apply….wav

Pre-gap length 0:00:00.04

Peak level 99.2 %
Extraction speed 1.5 X
Track quality 100.0 %
Test CRC F11A721F
Copy CRC F11A721F
Accurately ripped (confidence 8) [D732049E] (AR v2)
Copy OK

Track 8

Filename D:CDRip8 – The Pop Place.wav

Pre-gap length 0:00:00.02

Peak level 99.2 %
Extraction speed 1.6 X
Track quality 100.0 %
Test CRC D0E2A12D
Copy CRC D0E2A12D
Accurately ripped (confidence 8) [4534D228] (AR v2)
Copy OK

Track 9

Filename D:CDRip9 – The Genius I Was.wav

Pre-gap length 0:00:00.02

Peak level 99.2 %
Extraction speed 1.6 X
Track quality 100.0 %
Test CRC 399C5B0A
Copy CRC 399C5B0A
Accurately ripped (confidence 8) [DA2C74A8] (AR v2)
Copy OK

Track 10

Filename D:CDRip10 – The Sleeping Policeman.wav

Pre-gap length 0:00:00.06

Peak level 99.2 %
Extraction speed 1.8 X
Track quality 100.0 %
Test CRC EEAE24C5
Copy CRC EEAE24C5
Accurately ripped (confidence 8) [0C42414E] (AR v2)
Copy OK

Track 11

Filename D:CDRip11 – I Must Fly.wav

Pre-gap length 0:00:00.46

Peak level 99.2 %
Extraction speed 1.9 X
Track quality 100.0 %
Test CRC DD364315
Copy CRC DD364315
Accurately ripped (confidence 8) [BBF27282] (AR v2)
Copy OK

Track 12

Filename D:CDRip12 – I’ll Get Them In.wav

Pre-gap length 0:00:00.77

Peak level 99.2 %
Extraction speed 1.9 X
Track quality 100.0 %
Test CRC 19BA7994
Copy CRC 19BA7994
Accurately ripped (confidence 8) [4A7F39EF] (AR v2)
Copy OK

Track 13

Filename D:CDRip13 – The Safecracker.wav

Pre-gap length 0:00:00.66

Peak level 99.2 %
Extraction speed 2.1 X
Track quality 100.0 %
Test CRC 3260F3E5
Copy CRC 3260F3E5
Accurately ripped (confidence 8) [3F3530D5] (AR v2)
Copy OK

Track 14

Filename D:CDRip14 – The Therapist.wav

Pre-gap length 0:00:00.09

Peak level 99.2 %
Extraction speed 1.7 X
Track quality 99.9 %
Test CRC 01CD4CFA
Copy CRC 01CD4CFA
Accurately ripped (confidence 8) [DC5FFE70] (AR v2)
Copy OK

All tracks accurately ripped

No errors occurred

End of status report

–– CUETools DB Plugin V2.1.3

[CTDB TOCID: sZpra2cK1D.iSp8WRZvTBkg0TUg-] found, Submit result: sZpra2cK1D.iSp8WRZvTBkg0TUg- has been confirmed
[ead6ba89] (9/9) Accurately ripped

==== Log checksum D6AA97F44E5D045DB835824E1D6D09817B9DC0CE6095E89A0D321E5FBAB2B7F6 ====

DR log
foobar2000 1.2 / Dynamic Range Meter 1.1.1
log date: 2014-10-24 16:32:28

––––––––––––––––––––––––––––––––––––––––
Analyzed: Trashcan Sinatras / A Happy Pocket
––––––––––––––––––––––––––––––––––––––––

DR Peak RMS Duration Track
––––––––––––––––––––––––––––––––––––––––
DR10 -0.07 dB -12.31 dB 5:07 01-Outside
DR8 -0.07 dB -9.42 dB 3:21 02-Twisted and Bent
DR10 -0.20 dB -14.15 dB 3:30 03-Unfortunate Age
DR9 -0.07 dB -11.89 dB 4:41 04-To Sir, With Love
DR8 -0.07 dB -9.57 dB 3:24 05-Make Yourself at Home
DR7 -0.07 dB -9.69 dB 3:07 06-The Main Attraction
DR8 -0.07 dB -10.18 dB 2:53 07-How Can I Apply…?
DR8 -0.07 dB -10.78 dB 3:08 08-The Pop Place
DR8 -0.07 dB -10.11 dB 3:03 09-The Genius I Was
DR11 -0.07 dB -14.03 dB 4:11 10-The Sleeping Policeman
DR8 -0.07 dB -9.22 dB 4:34 11-I Must Fly
DR10 -0.07 dB -12.56 dB 3:40 12-I’ll Get Them In
DR9 -0.07 dB -12.09 dB 5:23 13-The Safecracker
DR9 -0.07 dB -11.39 dB 3:21 14-The Therapist
––––––––––––––––––––––––––––––––––––––––

Number of tracks: 14
Official DR value: DR9

Samplerate: 44100 Hz
Channels: 2
Bits per sample: 16
Bitrate: 922 kbps
Codec: FLAC
================================================================================

The Trash Can Sinatras - Albums Collection 1990-2009 [6CD]

The Trash Can Sinatras – Snow (2000) EP
EAC | FLAC | Tracks (Cue&Log) ~ 97 Mb | Mp3 (CBR320) ~ 41 Mb
Label: SMEJ Associated Records | # AICT-129 | Time: 00:17:07 | Scans ~ 63 Mb

Four years missing – and presumed dead by most who knew them – Scotland’s Trash Can Sinatras eke out a new single, having to go to the Far East to do it. Even more than the surprisingly gentle vibe of 1996’s third LP, A Happy Pocket, "Snow" is a lithe little throbber, a beautiful gauze of still atmosphere and sighing, with Frank Reader’s most sympathetic, romantic vocal ever. "Snow/Fills the fields we used to know/And the little park where we would go/Lies far below in the snow/Gone, it’s all over and you’re gone/But the memory lives on/Although our dream lies buried in the snow," he croons. I could give you the rest of the words, but they can’t break your heart as badly as if you hear the bridge that follows, sung in the sort of pained sadness that’s all about the humanity of having lost someone sacred. The piano swells, his voice breaks, and you might well cry – this is what music can do to you (like the Smiths once did). The bass throbs, the guitars play like snow bunnies in the background, and rows of chimes glisten like icicles. Oh man, is this tender and pretty, an aural snow scene as serene as full of gorgeous aural sheen. The B-sides ("Leave Me Alone" and "Co-Stars") are nearly as enchanting, as guitars trill (nice slide part on the latter), an organ gambols, a piano plinks, and Reader taps into the most soulful dimensions of his pipes. This is well worth the difficulty to track down.

Jack Rabid, Allmusic.com

Tracklist:

01. Snow (04:35)
02. Leave Me Alone (04:05)
03. Co-Stars (03:48)
04. Snow (Original Mix) (04:38)

EAC log
Exact Audio Copy V1.0 beta 3 from 29. August 2011

EAC extraction logfile from 20. October 2014, 14:57

Trash Can Sinatras / Snow

Used drive : PIONEER DVD-RW DVR-118L Adapter: 2 ID: 0

Read mode : Secure
Utilize accurate stream : Yes
Defeat audio cache : Yes
Make use of C2 pointers : No

Read offset correction : 6
Overread into Lead-In and Lead-Out : No
Fill up missing offset samples with silence : Yes
Delete leading and trailing silent blocks : No
Null samples used in CRC calculations : Yes
Used interface : Native Win32 interface for Win NT & 2000
Gap handling : Appended to previous track

Used output format : User Defined Encoder
Selected bitrate : 1024 kBit/s
Quality : High
Add ID3 tag : No
Command line compressor : C:Program Files (x86)Exact Audio CopyFlacflac.exe
Additional command line options : -8 -V -T "ARTIST=%artist%" -T "TITLE=%title%" -T "ALBUM=%albumtitle%" -T "DATE=%year%" -T "TRACKNUMBER=%tracknr%" -T "GENRE=%genre%" -T "PERFORMER=%albuminterpret%" -T "COMPOSER=%composer%" %haslyrics%–tag-from-file=LYRICS="%lyricsfile%"%haslyrics% -T "ALBUMARTIST=%albumartist%" -T "DISCNUMBER=%cdnumber%" -T "TOTALDISCS=%totalcds%" -T "TOTALTRACKS=%numtracks%" -T "COMMENT=%comment%" %source% -o %dest%

TOC of the extracted CD

Track | Start | Length | Start sector | End sector
––––––––––––––––––––––––––––-
1 | 0:00.00 | 4:35.20 | 0 | 20644
2 | 4:35.20 | 4:05.05 | 20645 | 39024
3 | 8:40.25 | 3:48.55 | 39025 | 56179
4 | 12:29.05 | 4:38.15 | 56180 | 77044

Track 1

Filename D:CDRip1 – Snow.wav

Pre-gap length 0:00:02.00

Peak level 100.0 %
Extraction speed 1.1 X
Track quality 100.0 %
Test CRC 8ADA42A0
Copy CRC 8ADA42A0
Accurately ripped (confidence 3) [1D52ECA2] (AR v2)
Copy OK

Track 2

Filename D:CDRip2 – Leave Me Alone.wav

Peak level 100.0 %
Extraction speed 1.2 X
Track quality 100.0 %
Test CRC 60CE0112
Copy CRC 60CE0112
Accurately ripped (confidence 3) [E13D8224] (AR v2)
Copy OK

Track 3

Filename D:CDRip3 – Co-Stars.wav

Peak level 100.0 %
Extraction speed 1.1 X
Track quality 99.9 %
Test CRC 3DACC0A0
Copy CRC 3DACC0A0
Accurately ripped (confidence 3) [6589301D] (AR v2)
Copy OK

Track 4

Filename D:CDRip4 – Snow (Original Mix).wav

Peak level 100.0 %
Extraction speed 1.3 X
Track quality 99.9 %
Test CRC 8FC6E477
Copy CRC 8FC6E477
Accurately ripped (confidence 3) [2BB9C5F0] (AR v2)
Copy OK

All tracks accurately ripped

No errors occurred

End of status report

–– CUETools DB Plugin V2.1.3

[CTDB TOCID: wf2Yw3wv0u4UA9vsYY_KAxbuqEo-] found, Submit result: wf2Yw3wv0u4UA9vsYY_KAxbuqEo- has been confirmed
[d83150c7] (1/1) Accurately ripped

==== Log checksum 4226B5B870F6373A38ECC641AFB137A628C2968D279B0B8F6EEEB1183287DCCE ====

DR log
foobar2000 1.2 / Dynamic Range Meter 1.1.1
log date: 2014-10-24 16:32:33

––––––––––––––––––––––––––––––––––––––––
Analyzed: Trash Can Sinatras / Snow
––––––––––––––––––––––––––––––––––––––––

DR Peak RMS Duration Track
––––––––––––––––––––––––––––––––––––––––
DR8 0.00 dB -10.63 dB 4:35 01-Snow
DR10 0.00 dB -11.30 dB 4:05 02-Leave Me Alone
DR8 0.00 dB -9.75 dB 3:49 03-Co-Stars
DR8 0.00 dB -11.37 dB 4:38 04-Snow (Original Mix)
––––––––––––––––––––––––––––––––––––––––

Number of tracks: 4
Official DR value: DR9

Samplerate: 44100 Hz
Channels: 2
Bits per sample: 16
Bitrate: 735 kbps
Codec: FLAC
================================================================================

The Trash Can Sinatras - Albums Collection 1990-2009 [6CD]

The Trash Can Sinatras – Weightlifting (2004)
EAC | FLAC | Tracks (Cue&Log) ~ 281 Mb | Mp3 (CBR320) ~ 106 Mb
Label: Picnic Records | # PIC008 | Time: 00:44:24 | Scans ~ 216 Mb

The Trash Can Sinatras’ third album, 1996’s A Happy Pocket, sank out of sight on a wave of apathy from the record-buying public, critics, and seemingly the bandmembers themselves. Apart from a hard to find EP from 2000, this is the group’s first album since and it is a satisfying return to the jangling heights of their wonderful albums Cake (1990) and I’ve Seen Everything (1993). On their 2004 return to glory, Weightlifting, the band has thankfully made few concessions to modern times. There are no drum loops, soundscapes, or duff hip-hop tracks; nothing here wouldn’t have sounded perfect in the early ’90s. They also have written a batch of soothingly melodic, achingly pretty songs that may not contain anything as immediate or hooky as "Obscurity Knocks" or "Hayfever," but still pack quite the emotional punch. Francis Reader’s voice is the same sweet melancholy croon that it was back in the day, and he wraps it around some melancholy gems that will be twanging the heartstrings of Trash Can fans both old and new. The majority of the album’s tracks are lovely ballads like "Got Carried Away," "What Woman Do to Men," and "A Coda," the last being the best of them with its strings and Scottish soul feel. "Usually" is the standout; Reader sounds positively angelic and the strings bathe him in sorrowful splendor. "Country Air" is also a splendid cut with some plangent acoustic guitar, loads of atmosphere, and some smart soundtrack-flavored chord changes. The uptempo songs are darn good, too; "Welcome Back" is a powerful opener and statement of intent, "It’s a Miracle" combines classic ’90s jangle pop guitars with a bouncing beat and some rumbling timpani, and the title track has rich backing vocals and Reader’s most intimate and powerful vocals. The song that should be a hit is the glittering "Freetime," with its jaunty beat, winning melody, and bells – of course it won’t be, but what can you do? Play it again and again, one supposes. The only small flaw with the album is the occasional heavy metal guitar solo that stands out like a sore plectrum. That kind of guitar-store technique has little place in music as charming and sweetly pastoral as this. Luckily, it only rears its ugly mug once or twice, most notably on "Welcome Back." Apart from that, Weightlifting is like a gift to anyone who was left hanging by the band’s disappearance. Listening to the record makes you feel like it’s 1993 again – in a good way; a melodic, honest, and jangly kind of way; a way that makes you think "nobody makes records like this anymore." Hey, not too many people made them as good as this back then, either. A great comeback that deserves every last bit of attention it gets.

Tim Sendra, Allmusic.com

Tracklist:

01. Welcome Back (02:24)
02. Got Carried Away (03:48)
03. All the Dark Horses (04:10)
04. What Women Do To Men (04:04)
05. Freetime (02:26)
06. Usually (04:53)
07. It’s a Miracle (03:09)
08. A Coda (02:44)
09. Trouble Sleeping (04:34)
10. Country Air (03:27)
11. Leave Me Alone (04:01)
12. Weightlifting (04:39)

EAC log
Exact Audio Copy V1.0 beta 3 from 29. August 2011

EAC extraction logfile from 20. October 2014, 17:46

The Trash Can Sinatras / Weightlifting

Used drive : PIONEER DVD-RW DVR-118L Adapter: 2 ID: 0

Read mode : Secure
Utilize accurate stream : Yes
Defeat audio cache : Yes
Make use of C2 pointers : No

Read offset correction : 6
Overread into Lead-In and Lead-Out : No
Fill up missing offset samples with silence : Yes
Delete leading and trailing silent blocks : No
Null samples used in CRC calculations : Yes
Used interface : Native Win32 interface for Win NT & 2000
Gap handling : Appended to previous track

Used output format : User Defined Encoder
Selected bitrate : 1024 kBit/s
Quality : High
Add ID3 tag : No
Command line compressor : C:Program Files (x86)Exact Audio CopyFlacflac.exe
Additional command line options : -8 -V -T "ARTIST=%artist%" -T "TITLE=%title%" -T "ALBUM=%albumtitle%" -T "DATE=%year%" -T "TRACKNUMBER=%tracknr%" -T "GENRE=%genre%" -T "PERFORMER=%albuminterpret%" -T "COMPOSER=%composer%" %haslyrics%–tag-from-file=LYRICS="%lyricsfile%"%haslyrics% -T "ALBUMARTIST=%albumartist%" -T "DISCNUMBER=%cdnumber%" -T "TOTALDISCS=%totalcds%" -T "TOTALTRACKS=%numtracks%" -T "COMMENT=%comment%" %source% -o %dest%

TOC of the extracted CD

Track | Start | Length | Start sector | End sector
––––––––––––––––––––––––––––-
1 | 0:00.00 | 2:24.48 | 0 | 10847
2 | 2:24.48 | 3:48.10 | 10848 | 27957
3 | 6:12.58 | 4:10.04 | 27958 | 46711
4 | 10:22.62 | 4:04.11 | 46712 | 65022
5 | 14:26.73 | 2:26.53 | 65023 | 76025
6 | 16:53.51 | 4:53.55 | 76026 | 98055
7 | 21:47.31 | 3:09.53 | 98056 | 112283
8 | 24:57.09 | 2:44.23 | 112284 | 124606
9 | 27:41.32 | 4:34.65 | 124607 | 145221
10 | 32:16.22 | 3:27.27 | 145222 | 160773
11 | 35:43.49 | 4:01.17 | 160774 | 178865
12 | 39:44.66 | 4:39.22 | 178866 | 199812

Track 1

Filename D:CDRip1 – Welcome Back.wav

Pre-gap length 0:00:02.00

Peak level 98.8 %
Extraction speed 0.9 X
Track quality 100.0 %
Test CRC 2237343C
Copy CRC 2237343C
Accurately ripped (confidence 5) [5D72D2F9] (AR v2)
Copy OK

Track 2

Filename D:CDRip2 – Got Carried Away.wav

Peak level 98.8 %
Extraction speed 1.1 X
Track quality 100.0 %
Test CRC 9612214A
Copy CRC 9612214A
Accurately ripped (confidence 5) [A0A97EFA] (AR v2)
Copy OK

Track 3

Filename D:CDRip3 – All the Dark Horses.wav

Peak level 98.8 %
Extraction speed 1.2 X
Track quality 100.0 %
Test CRC 2EA495AC
Copy CRC 2EA495AC
Accurately ripped (confidence 5) [F861B88F] (AR v2)
Copy OK

Track 4

Filename D:CDRip4 – What Women Do To Men.wav

Peak level 98.8 %
Extraction speed 1.3 X
Track quality 100.0 %
Test CRC 453E4DC6
Copy CRC 453E4DC6
Accurately ripped (confidence 5) [5FB958AF] (AR v2)
Copy OK

Track 5

Filename D:CDRip5 – Freetime.wav

Peak level 98.8 %
Extraction speed 1.1 X
Track quality 99.9 %
Test CRC D124D7DF
Copy CRC D124D7DF
Accurately ripped (confidence 5) [E350E785] (AR v2)
Copy OK

Track 6

Filename D:CDRip6 – Usually.wav

Peak level 98.8 %
Extraction speed 1.5 X
Track quality 100.0 %
Test CRC 80823961
Copy CRC 80823961
Accurately ripped (confidence 5) [B271C800] (AR v2)
Copy OK

Track 7

Filename D:CDRip7 – It’s a Miracle.wav

Peak level 98.8 %
Extraction speed 1.5 X
Track quality 100.0 %
Test CRC C9E19C41
Copy CRC C9E19C41
Accurately ripped (confidence 5) [97B1E913] (AR v2)
Copy OK

Track 8

Filename D:CDRip8 – A Coda.wav

Peak level 88.0 %
Extraction speed 1.3 X
Track quality 99.9 %
Test CRC 3F2221DD
Copy CRC 3F2221DD
Accurately ripped (confidence 5) [48BF8C1D] (AR v2)
Copy OK

Track 9

Filename D:CDRip9 – Trouble Sleeping.wav

Peak level 98.8 %
Extraction speed 1.5 X
Track quality 99.9 %
Test CRC 6BB7ED5E
Copy CRC 6BB7ED5E
Accurately ripped (confidence 5) [3F90AEAB] (AR v2)
Copy OK

Track 10

Filename D:CDRip10 – Country Air.wav

Peak level 98.8 %
Extraction speed 1.7 X
Track quality 100.0 %
Test CRC 596F185A
Copy CRC 596F185A
Accurately ripped (confidence 5) [A81B8B30] (AR v2)
Copy OK

Track 11

Filename D:CDRip11 – Leave Me Alone.wav

Peak level 98.8 %
Extraction speed 1.8 X
Track quality 100.0 %
Test CRC 9AA8F0BE
Copy CRC 9AA8F0BE
Accurately ripped (confidence 5) [3DA97B64] (AR v2)
Copy OK

Track 12

Filename D:CDRip12 – Weightlifting.wav

Peak level 98.8 %
Extraction speed 1.9 X
Track quality 100.0 %
Test CRC 32546E05
Copy CRC 32546E05
Accurately ripped (confidence 5) [0F6DE2B0] (AR v2)
Copy OK

All tracks accurately ripped

No errors occurred

End of status report

–– CUETools DB Plugin V2.1.3

[CTDB TOCID: xg_SZX1KeRNkGn7E8xxho.tt6cE-] found, Submit result: xg_SZX1KeRNkGn7E8xxho.tt6cE- has been confirmed
[a2046f5f] (2/9) No match
[d24e2f76] (7/9) Accurately ripped

==== Log checksum ECD2A581D859BCBE3E9C3307E49E55EBDFFB5C0B1A29296D9B30F8C35F55A431 ====

DR log
foobar2000 1.2 / Dynamic Range Meter 1.1.1
log date: 2014-10-24 19:10:31

––––––––––––––––––––––––––––––––––––––––
Analyzed: The Trash Can Sinatras / Weightlifting
––––––––––––––––––––––––––––––––––––––––

DR Peak RMS Duration Track
––––––––––––––––––––––––––––––––––––––––
DR8 -0.10 dB -8.60 dB 2:25 01-Welcome Back
DR8 -0.10 dB -8.94 dB 3:48 02-Got Carried Away
DR8 -0.10 dB -9.25 dB 4:10 03-All the Dark Horses
DR9 -0.10 dB -11.49 dB 4:04 04-What Women Do To Men
DR7 -0.10 dB -8.44 dB 2:27 05-Freetime
DR8 -0.10 dB -9.74 dB 4:54 06-Usually
DR9 -0.10 dB -10.44 dB 3:10 07-It’s a Miracle
DR8 -1.10 dB -11.70 dB 2:44 08-A Coda
DR8 -0.10 dB -10.10 dB 4:35 09-Trouble Sleeping
DR9 -0.10 dB -10.84 dB 3:27 10-Country Air
DR9 -0.10 dB -10.06 dB 4:01 11-Leave Me Alone
DR8 -0.10 dB -9.35 dB 4:39 12-Weightlifting
––––––––––––––––––––––––––––––––––––––––

Number of tracks: 12
Official DR value: DR8

Samplerate: 44100 Hz
Channels: 2
Bits per sample: 16
Bitrate: 816 kbps
Codec: FLAC
================================================================================

The Trash Can Sinatras - Albums Collection 1990-2009 [6CD]

The Trash Can Sinatras – In The Music (2009)
EAC | FLAC | Tracks (Cue&Log) ~ 291 Mb | Mp3 (CBR320) ~ 105 Mb
Label: Lo-Five Records | # LO5006 | Time: 00:43:24 | Scans ~ 104 Mb

The Trash Can Sinatras have settled into the "album every five years" plan and judging by both 2004’s Weightlifting and 2009’s In the Music, it’s a plan that works for them. It may even be the secret to keeping their sound fresh. In the Music features songs good enough to have been on any of their early albums and arrangements that are as smooth and lush as ever, and best of all perhaps, singer Frank Reader’s voice hasn’t lost any of its warmth. He sails through the midtempo tracks that make up most of the album with a nimble grace that seems almost miraculous for a guy who’s been doing it for so long. His is the kind of voice that sounds like an old friend who holds all the secrets to life and if you ask real nice, he’ll share them with you over a late-night pint or two. The rest of the band is in tune with this feeling as well, and their playing on the album is smoothly sympathetic with not a single duff moment or false note. Though The Trash Can Sinatras sound their best when they stay in the sophisticated midtempo pop pocket, they can also convincingly settle into a soulful groove (the title track), jangle like the Byrds ("Prisons"), or get late-night quiet ("Oranges and Apples"). It’s a masterfully played record, sung with passion and full of easy hooks; in other words, a Trash Can Sinatras record. Just like they’ve been making for two decades.

Tim Sendra, Allmusic.com

Tracklist:

01. People (04:20)
02. Easy on the Eye (03:09)
03. In the Music (04:30)
04. I Hung My Harp Upon the Willows (04:17)
05. Prisons (03:07)
06. Should I Pray? (feat. Carly Simon) (03:44)
07. Morning Star (03:53)
08. Oranges and Apples (07:01)
09. The Engine (04:40)
10. I Wish You’d Met Her (04:38)

EAC log
Exact Audio Copy V1.0 beta 3 from 29. August 2011

EAC extraction logfile from 20. October 2014, 19:53

The Trash Can Sinatras / In the Music

Used drive : PIONEER DVD-RW DVR-118L Adapter: 2 ID: 0

Read mode : Secure
Utilize accurate stream : Yes
Defeat audio cache : Yes
Make use of C2 pointers : No

Read offset correction : 6
Overread into Lead-In and Lead-Out : No
Fill up missing offset samples with silence : Yes
Delete leading and trailing silent blocks : No
Null samples used in CRC calculations : Yes
Used interface : Native Win32 interface for Win NT & 2000
Gap handling : Appended to previous track

Used output format : User Defined Encoder
Selected bitrate : 1024 kBit/s
Quality : High
Add ID3 tag : No
Command line compressor : C:Program Files (x86)Exact Audio CopyFlacflac.exe
Additional command line options : -8 -V -T "ARTIST=%artist%" -T "TITLE=%title%" -T "ALBUM=%albumtitle%" -T "DATE=%year%" -T "TRACKNUMBER=%tracknr%" -T "GENRE=%genre%" -T "PERFORMER=%albuminterpret%" -T "COMPOSER=%composer%" %haslyrics%–tag-from-file=LYRICS="%lyricsfile%"%haslyrics% -T "ALBUMARTIST=%albumartist%" -T "DISCNUMBER=%cdnumber%" -T "TOTALDISCS=%totalcds%" -T "TOTALTRACKS=%numtracks%" -T "COMMENT=%comment%" %source% -o %dest%

TOC of the extracted CD

Track | Start | Length | Start sector | End sector
––––––––––––––––––––––––––––-
1 | 0:00.00 | 4:20.22 | 0 | 19521
2 | 4:20.22 | 3:09.66 | 19522 | 33762
3 | 7:30.13 | 4:30.24 | 33763 | 54036
4 | 12:00.37 | 4:17.35 | 54037 | 73346
5 | 16:17.72 | 3:07.08 | 73347 | 87379
6 | 19:25.05 | 3:44.57 | 87380 | 104236
7 | 23:09.62 | 3:53.29 | 104237 | 121740
8 | 27:03.16 | 7:01.73 | 121741 | 153388
9 | 34:05.14 | 4:40.25 | 153389 | 174413
10 | 38:45.39 | 4:38.52 | 174414 | 195315

Track 1

Filename D:CDRip1 – People.wav

Pre-gap length 0:00:02.00

Peak level 99.9 %
Extraction speed 0.9 X
Track quality 99.9 %
Test CRC 085FF486
Copy CRC 085FF486
Accurately ripped (confidence 3) [12C2942A] (AR v2)
Copy OK

Track 2

Filename D:CDRip2 – Easy on the Eye.wav

Peak level 99.9 %
Extraction speed 0.9 X
Track quality 99.9 %
Test CRC 44292E7F
Copy CRC 44292E7F
Accurately ripped (confidence 3) [2D0BA323] (AR v2)
Copy OK

Track 3

Filename D:CDRip3 – In the Music.wav

Pre-gap length 0:00:00.28

Peak level 100.0 %
Extraction speed 1.3 X
Track quality 100.0 %
Test CRC A17B9CC6
Copy CRC A17B9CC6
Accurately ripped (confidence 3) [CE49D9D2] (AR v2)
Copy OK

Track 4

Filename D:CDRip4 – I Hung My Harp Upon the Willows.wav

Pre-gap length 0:00:01.05

Peak level 99.9 %
Extraction speed 1.4 X
Track quality 100.0 %
Test CRC 63DC97D5
Copy CRC 63DC97D5
Accurately ripped (confidence 3) [337D10EE] (AR v2)
Copy OK

Track 5

Filename D:CDRip5 – Prisons.wav

Pre-gap length 0:00:00.97

Peak level 99.9 %
Extraction speed 1.4 X
Track quality 100.0 %
Test CRC B2EE49E8
Copy CRC B2EE49E8
Accurately ripped (confidence 3) [A9A72287] (AR v2)
Copy OK

Track 6

Filename D:CDRip6 – Should I Pray (feat. Carly Simon).wav

Pre-gap length 0:00:00.05

Peak level 99.9 %
Extraction speed 1.3 X
Track quality 99.9 %
Test CRC 9CF3CD52
Copy CRC 9CF3CD52
Accurately ripped (confidence 3) [FA6FB955] (AR v2)
Copy OK

Track 7

Filename D:CDRip7 – Morning Star.wav

Pre-gap length 0:00:01.80

Peak level 99.9 %
Extraction speed 1.4 X
Track quality 99.9 %
Test CRC 000CF35D
Copy CRC 000CF35D
Accurately ripped (confidence 3) [FADE6579] (AR v2)
Copy OK

Track 8

Filename D:CDRip8 – Oranges and Apples.wav

Pre-gap length 0:00:01.33

Peak level 99.8 %
Extraction speed 1.7 X
Track quality 99.9 %
Test CRC 68C2B40D
Copy CRC 68C2B40D
Accurately ripped (confidence 3) [620EDD87] (AR v2)
Copy OK

Track 9

Filename D:CDRip9 – The Engine.wav

Pre-gap length 0:00:01.10

Peak level 100.0 %
Extraction speed 1.8 X
Track quality 100.0 %
Test CRC 9F66AD32
Copy CRC 9F66AD32
Accurately ripped (confidence 3) [43972499] (AR v2)
Copy OK

Track 10

Filename D:CDRip10 – I Wish You’d Met Her.wav

Pre-gap length 0:00:00.93

Peak level 99.8 %
Extraction speed 1.9 X
Track quality 100.0 %
Test CRC D54242ED
Copy CRC D54242ED
Accurately ripped (confidence 3) [CFB6547C] (AR v2)
Copy OK

All tracks accurately ripped

No errors occurred

End of status report

–– CUETools DB Plugin V2.1.3

[CTDB TOCID: LSowXfTecpmaumGmeRObBPdS5I0-] found, Submit result: LSowXfTecpmaumGmeRObBPdS5I0- has been confirmed
[871a4078] (2/2) Accurately ripped

==== Log checksum 01808A395A7D5756F5FBB91540DE27E37431C205DA5D5497B8495D44436478AB ====

DR log
foobar2000 1.2 / Dynamic Range Meter 1.1.1
log date: 2014-10-24 16:32:45

––––––––––––––––––––––––––––––––––––––––
Analyzed: The Trash Can Sinatras / In the Music
––––––––––––––––––––––––––––––––––––––––

DR Peak RMS Duration Track
––––––––––––––––––––––––––––––––––––––––
DR9 -0.01 dB -10.81 dB 4:20 01-People
DR9 -0.01 dB -10.23 dB 3:10 02-Easy on the Eye
DR9 0.00 dB -10.77 dB 4:30 03-In the Music
DR8 -0.01 dB -10.91 dB 4:17 04-I Hung My Harp Upon the Willows
DR9 -0.01 dB -10.31 dB 3:07 05-Prisons
DR8 0.00 dB -10.33 dB 3:45 06-Should I Pray? (feat. Carly Simon)
DR8 0.00 dB -9.71 dB 3:53 07-Morning Star
DR9 -0.01 dB -10.96 dB 7:02 08-Oranges and Apples
DR8 0.00 dB -9.96 dB 4:40 09-The Engine
DR9 -0.01 dB -10.77 dB 4:39 10-I Wish You’d Met Her
––––––––––––––––––––––––––––––––––––––––

Number of tracks: 10
Official DR value: DR9

Samplerate: 44100 Hz
Channels: 2
Bits per sample: 16
Bitrate: 917 kbps
Codec: FLAC
================================================================================

All thanks to original releaser – Знак Качества

More interesting music in My Blog

Password: designol

The Trash Can Sinatras – Albums Collection 1990-2009 [6CD] Download, Warez, DDL, Free, Full Album, Torrent, Legal.

Download


  • Recent Posts

  • Recent Tags