The Time Jumpers – Jumpin' Time: Live at Station Inn (2006) {2CD Crosswind TTJ-2}

Download
The Time Jumpers - Jumpin' Time: Live at Station Inn (2006) {2CD Crosswind TTJ-2}

The Time Jumpers – Jumpin’ Time: Live at Station Inn (2006) {2CD Crosswind TTJ-2}
XLD rip (secure mode) | FLAC (tracks)+CUE+LOG -> 649 Mb | MP3 @320 -> 274 Mb
Full Artwork @ 300 dpi (jpg) -> 25 Mb | 5% repair rar
© 2006 The Crosswind Corporation | Crosswind-TTJ-2
Country Swing / Western Swing Revival / Old-Timey

Although western swing is a genre that will hopefully never die, it’s rare that a new band comes along anymore that breathes as much new life into it as the Time Jumpers do. Not since the emergence of Asleep at the Wheel in the early ’70s, in fact, has a group provided as much hope for the continuing vitality of this venerable all-American institution. Well, sort of new, that is: the band, whose membership has shifted considerably but settles in at 11 here, has been at it since 1998. Their weekly gigs at Nashville’s Station Inn are legendary around Music City, and it’s easy to see why: the Time Jumpers don’t attempt to reinvent the wheel here, so to speak; instead, they get to the core of the music, brush off the dust, and remind us why it’s been so universally loved for so long.

Their repertoire is impressively considered – along with purebred originals, they cover classics penned by everyone from Fats Waller to George & Ira Gershwin to Mickey Newbury and, of course, Bob Wills. Standards such as Cindy Walker’s "Cherokee Maiden" and Bobby Troup’s "Route 66," despite having been covered by countless predecessors, don’t sound tired by the Time Jumpers, but ready to be rediscovered. The double-CD was wisely recorded in front of an appreciative audience at the Station Inn, and both the vocalists – Carolyn Martin, Dawn Sears, and Ranger Doug Green, in particular – and the pickers are on from the git-go. Fiddler Aubrey Haynie and accordionist Jeff Taylor slay on Duke Ellington’s "Caravan," and lead guitarist Andy Reiss puts in a solo in his own show-opening "Stompin’ at the Station" instrumental that sets the bar high right away. A companion DVD offers the same 26-song set list.

The Time Jumpers - Jumpin' Time: Live at Station Inn (2006) {2CD Crosswind TTJ-2}

tracklist:
CD1:

01. Stompin’ At The Station
02. Honeysuckle Rose
03. Sugar Moon
04. Write Myself A Letter
05. Along the Navajo Trail
06. It’s All Your Fault
07. Pig Dog Hop
08. Leavin’ And Sayin’ Goodbye
09. Blues For Dixie
10. Fidoodlin’
11. Bring It On Down To My House
12. Route 66
13. S M I L E

The Time Jumpers - Jumpin' Time: Live at Station Inn (2006) {2CD Crosswind TTJ-2}

CD2:
01. Roly Poly
02. South Of The Border
03. JumpinВґ Time
04. BonaparteВґs Retreat
05. My Confession
06. Give Me A Pinto Pal
07. Embracable You
08. Cherokee Maiden
09. My Weakness Is Too Strong
10. All Of Me
11. Caravan
12. Sweet Memories
13. My Window Faces The South

XLD log CD1
X Lossless Decoder version 20141129 (148.1)

XLD extraction logfile from 2016-09-24 13:09:05 +0100

The Time Jumpers / Jumpin’ Time

Used drive : HL-DT-ST DVDRW GS23N (revision SB11)
Media type : Pressed CD

Ripper mode : XLD Secure Ripper
Disable audio cache : OK for the drive with a cache less than 1375KiB
Make use of C2 pointers : NO
Read offset correction : 667
Max retry count : 100
Gap status : Analyzed, Appended (except HTOA)

TOC of the extracted CD
Track | Start | Length | Start sector | End sector
––––––––––––––––––––––––––––-
1 | 00:00:00 | 04:50:60 | 0 | 21809
2 | 04:50:60 | 04:44:30 | 21810 | 43139
3 | 09:35:15 | 03:58:35 | 43140 | 61024
4 | 13:33:50 | 04:46:17 | 61025 | 82491
5 | 18:19:67 | 04:26:02 | 82492 | 102443
6 | 22:45:69 | 03:11:05 | 102444 | 116773
7 | 25:56:74 | 05:21:28 | 116774 | 140876
8 | 31:18:27 | 03:28:28 | 140877 | 156504
9 | 34:46:55 | 04:24:38 | 156505 | 176342
10 | 39:11:18 | 02:42:51 | 176343 | 188543
11 | 41:53:69 | 04:16:16 | 188544 | 207759
12 | 46:10:10 | 06:11:50 | 207760 | 235634
13 | 52:21:60 | 04:24:04 | 235635 | 255438

AccurateRip Summary (DiscID: 001b4b74-010f1b0b-b10d4d0d)
Track 01 : OK (v2, confidence 3/3)
Track 02 : OK (v2, confidence 3/3)
Track 03 : OK (v2, confidence 3/3)
Track 04 : OK (v2, confidence 3/3)
Track 05 : OK (v2, confidence 3/3)
Track 06 : OK (v2, confidence 3/3)
Track 07 : OK (v2, confidence 3/3)
Track 08 : OK (v2, confidence 3/3)
Track 09 : OK (v2, confidence 3/3)
Track 10 : OK (v2, confidence 3/3)
Track 11 : OK (v2, confidence 3/3)
Track 12 : OK (v2, confidence 3/3)
Track 13 : OK (v2, confidence 3/3)
->All tracks accurately ripped.

All Tracks
Album gain : -4.96 dB
Peak : 0.966064
Statistics
Read error : 0
Jitter error (maybe fixed) : 0
Retry sector count : 0
Damaged sector count : 0

Track 01
Filename : /Volumes/rip/The Time Jumpers/Jumpin’ Time/CD1/01 – Stompin’ At The Station.flac
Pre-gap length : 00:02:00

Track gain : -4.91 dB
Peak : 0.943512
CRC32 hash (test run) : B14DFBF9
CRC32 hash : B14DFBF9
CRC32 hash (skip zero) : E74A6EE0
AccurateRip v1 signature : 8650B5A7
AccurateRip v2 signature : F1CC54B9
->Accurately ripped (v2, confidence 3/3)
Statistics
Read error : 0
Jitter error (maybe fixed) : 0
Retry sector count : 0
Damaged sector count : 0

Track 02
Filename : /Volumes/rip/The Time Jumpers/Jumpin’ Time/CD1/02 – Honeysuckle Rose.flac

Track gain : -5.52 dB
Peak : 0.966064
CRC32 hash (test run) : 4D708265
CRC32 hash : 4D708265
CRC32 hash (skip zero) : E945FD10
AccurateRip v1 signature : 85F15E07
AccurateRip v2 signature : 1C26A36C
->Accurately ripped (v2, confidence 3/3)
Statistics
Read error : 0
Jitter error (maybe fixed) : 0
Retry sector count : 0
Damaged sector count : 0

Track 03
Filename : /Volumes/rip/The Time Jumpers/Jumpin’ Time/CD1/03 – Sugar Moon.flac

Track gain : -3.88 dB
Peak : 0.907715
CRC32 hash (test run) : 3FB34B0C
CRC32 hash : 3FB34B0C
CRC32 hash (skip zero) : 1D0CAA4B
AccurateRip v1 signature : D9B658E4
AccurateRip v2 signature : 690F8020
->Accurately ripped (v2, confidence 3/3)
Statistics
Read error : 0
Jitter error (maybe fixed) : 0
Retry sector count : 0
Damaged sector count : 0

Track 04
Filename : /Volumes/rip/The Time Jumpers/Jumpin’ Time/CD1/04 – Write Myself A Letter.flac

Track gain : -4.82 dB
Peak : 0.966064
CRC32 hash (test run) : 7B2D1007
CRC32 hash : 7B2D1007
CRC32 hash (skip zero) : 9B276F2B
AccurateRip v1 signature : F3233863
AccurateRip v2 signature : 6753CA41
->Accurately ripped (v2, confidence 3/3)
Statistics
Read error : 0
Jitter error (maybe fixed) : 0
Retry sector count : 0
Damaged sector count : 0

Track 05
Filename : /Volumes/rip/The Time Jumpers/Jumpin’ Time/CD1/05 – Along the Navajo Trail.flac

Track gain : -4.34 dB
Peak : 0.881287
CRC32 hash (test run) : FFD37601
CRC32 hash : FFD37601
CRC32 hash (skip zero) : C9322818
AccurateRip v1 signature : 69518BE6
AccurateRip v2 signature : D169906C
->Accurately ripped (v2, confidence 3/3)
Statistics
Read error : 0
Jitter error (maybe fixed) : 0
Retry sector count : 0
Damaged sector count : 0

Track 06
Filename : /Volumes/rip/The Time Jumpers/Jumpin’ Time/CD1/06 – It’s All Your Fault.flac

Track gain : -4.67 dB
Peak : 0.870087
CRC32 hash (test run) : 20C8DBDA
CRC32 hash : 20C8DBDA
CRC32 hash (skip zero) : AFBC8311
AccurateRip v1 signature : 864B8CE2
AccurateRip v2 signature : 5E7E290C
->Accurately ripped (v2, confidence 3/3)
Statistics
Read error : 0
Jitter error (maybe fixed) : 0
Retry sector count : 0
Damaged sector count : 0

Track 07
Filename : /Volumes/rip/The Time Jumpers/Jumpin’ Time/CD1/07 – Pig Dog Hop.flac

Track gain : -4.74 dB
Peak : 0.966064
CRC32 hash (test run) : F13ED7EE
CRC32 hash : F13ED7EE
CRC32 hash (skip zero) : DC9E69D9
AccurateRip v1 signature : 25ACC996
AccurateRip v2 signature : B11BF8A6
->Accurately ripped (v2, confidence 3/3)
Statistics
Read error : 0
Jitter error (maybe fixed) : 0
Retry sector count : 0
Damaged sector count : 0

Track 08
Filename : /Volumes/rip/The Time Jumpers/Jumpin’ Time/CD1/08 – Leavin’ And Sayin’ Goodbye.flac

Track gain : -5.32 dB
Peak : 0.857910
CRC32 hash (test run) : 4B372F01
CRC32 hash : 4B372F01
CRC32 hash (skip zero) : 26259CBE
AccurateRip v1 signature : A07063DB
AccurateRip v2 signature : 95037D6F
->Accurately ripped (v2, confidence 3/3)
Statistics
Read error : 0
Jitter error (maybe fixed) : 0
Retry sector count : 0
Damaged sector count : 0

Track 09
Filename : /Volumes/rip/The Time Jumpers/Jumpin’ Time/CD1/09 – Blues For Dixie.flac

Track gain : -4.90 dB
Peak : 0.921143
CRC32 hash (test run) : 708A12A3
CRC32 hash : 708A12A3
CRC32 hash (skip zero) : A3AE5181
AccurateRip v1 signature : CEE95FEC
AccurateRip v2 signature : 2DF8469A
->Accurately ripped (v2, confidence 3/3)
Statistics
Read error : 0
Jitter error (maybe fixed) : 0
Retry sector count : 0
Damaged sector count : 0

Track 10
Filename : /Volumes/rip/The Time Jumpers/Jumpin’ Time/CD1/10 – Fidoodlin’.flac

Track gain : -5.05 dB
Peak : 0.966064
CRC32 hash (test run) : 3AC685CA
CRC32 hash : 3AC685CA
CRC32 hash (skip zero) : 5A2E2B8B
AccurateRip v1 signature : 35EB9CD8
AccurateRip v2 signature : 4A6100FC
->Accurately ripped (v2, confidence 3/3)
Statistics
Read error : 0
Jitter error (maybe fixed) : 0
Retry sector count : 0
Damaged sector count : 0

Track 11
Filename : /Volumes/rip/The Time Jumpers/Jumpin’ Time/CD1/11 – Bring It On Down To My House.flac

Track gain : -5.93 dB
Peak : 0.966064
CRC32 hash (test run) : 5F742D4F
CRC32 hash : 5F742D4F
CRC32 hash (skip zero) : 5F4D70D8
AccurateRip v1 signature : 394B0AFD
AccurateRip v2 signature : ED28D30B
->Accurately ripped (v2, confidence 3/3)
Statistics
Read error : 0
Jitter error (maybe fixed) : 0
Retry sector count : 0
Damaged sector count : 0

Track 12
Filename : /Volumes/rip/The Time Jumpers/Jumpin’ Time/CD1/12 – Route 66.flac

Track gain : -5.44 dB
Peak : 0.966064
CRC32 hash (test run) : 2871BAEC
CRC32 hash : 2871BAEC
CRC32 hash (skip zero) : 8F0D5A86
AccurateRip v1 signature : EB11090C
AccurateRip v2 signature : 7B9D4CB8
->Accurately ripped (v2, confidence 3/3)
Statistics
Read error : 0
Jitter error (maybe fixed) : 0
Retry sector count : 0
Damaged sector count : 0

Track 13
Filename : /Volumes/rip/The Time Jumpers/Jumpin’ Time/CD1/13 – S M I L E.flac

Track gain : -3.59 dB
Peak : 0.852722
CRC32 hash (test run) : 890F719E
CRC32 hash : 890F719E
CRC32 hash (skip zero) : 000C693F
AccurateRip v1 signature : FF1C8AC7
AccurateRip v2 signature : 518B5B4C
->Accurately ripped (v2, confidence 3/3)
Statistics
Read error : 0
Jitter error (maybe fixed) : 0
Retry sector count : 0
Damaged sector count : 0

No errors occurred

End of status report

––-BEGIN XLD SIGNATURE––-
5lunFWOmmJ6gnNzFT0wqQ6Fo8GDTKOlQZQEminBjPRthwN2AD6lD3m2pZ0sQJ3kRX9k4OqvOjMJ4Il_EnsEv0jZ9QL2qUJbXgWMh5hW
––-END XLD SIGNATURE––-

XLD log CD2
X Lossless Decoder version 20141129 (148.1)

XLD extraction logfile from 2016-09-24 13:44:13 +0100

The Time Jumpers / Jumpin’ Time

Used drive : HL-DT-ST DVDRW GS23N (revision SB11)
Media type : Pressed CD

Ripper mode : XLD Secure Ripper
Disable audio cache : OK for the drive with a cache less than 1375KiB
Make use of C2 pointers : NO
Read offset correction : 667
Max retry count : 100
Gap status : Analyzed, Appended (except HTOA)

TOC of the extracted CD
Track | Start | Length | Start sector | End sector
––––––––––––––––––––––––––––-
1 | 00:00:00 | 02:46:06 | 0 | 12455
2 | 02:46:06 | 03:58:44 | 12456 | 30349
3 | 06:44:50 | 04:40:13 | 30350 | 51362
4 | 11:24:63 | 03:13:09 | 51363 | 65846
5 | 14:37:72 | 02:56:63 | 65847 | 79109
6 | 17:34:60 | 04:01:65 | 79110 | 97249
7 | 21:36:50 | 06:13:42 | 97250 | 125266
8 | 27:50:17 | 03:52:67 | 125267 | 142733
9 | 31:43:09 | 04:17:31 | 142734 | 162039
10 | 36:00:40 | 04:41:66 | 162040 | 183180
11 | 40:42:31 | 05:04:27 | 183181 | 206007
12 | 45:46:58 | 07:02:24 | 206008 | 237681
13 | 52:49:07 | 05:55:07 | 237682 | 264313

AccurateRip Summary (DiscID: 00194b02-01034157-c00dc40d)
Track 01 : OK (v2, confidence 3/3)
Track 02 : OK (v2, confidence 3/3)
Track 03 : OK (v2, confidence 3/3)
Track 04 : OK (v2, confidence 3/3)
Track 05 : OK (v2, confidence 3/3)
Track 06 : OK (v2, confidence 3/3)
Track 07 : OK (v2, confidence 3/3)
Track 08 : OK (v2, confidence 3/3)
Track 09 : OK (v2, confidence 3/3)
Track 10 : OK (v2, confidence 3/3)
Track 11 : OK (v2, confidence 3/3)
Track 12 : OK (v2, confidence 3/3)
Track 13 : OK (v2, confidence 3/3)
->All tracks accurately ripped.

All Tracks
Album gain : -5.32 dB
Peak : 0.966064
Statistics
Read error : 0
Jitter error (maybe fixed) : 0
Retry sector count : 0
Damaged sector count : 0

Track 01
Filename : /Volumes/rip/The Time Jumpers/Jumpin’ Time/CD2/01 – Roly Poly.flac
Pre-gap length : 00:02:00

Track gain : -6.35 dB
Peak : 0.966064
CRC32 hash (test run) : B455ABAE
CRC32 hash : B455ABAE
CRC32 hash (skip zero) : 82CB374A
AccurateRip v1 signature : FBA06006
AccurateRip v2 signature : E1E4F0E6
->Accurately ripped (v2, confidence 3/3)
Statistics
Read error : 0
Jitter error (maybe fixed) : 0
Retry sector count : 0
Damaged sector count : 0

Track 02
Filename : /Volumes/rip/The Time Jumpers/Jumpin’ Time/CD2/02 – South Of The Border.flac

Track gain : -3.53 dB
Peak : 0.885956
CRC32 hash (test run) : 75C361BD
CRC32 hash : 75C361BD
CRC32 hash (skip zero) : 0B35E120
AccurateRip v1 signature : CECFCC2B
AccurateRip v2 signature : DECAC0D9
->Accurately ripped (v2, confidence 3/3)
Statistics
Read error : 0
Jitter error (maybe fixed) : 0
Retry sector count : 0
Damaged sector count : 0

Track 03
Filename : /Volumes/rip/The Time Jumpers/Jumpin’ Time/CD2/03 – Jumpin’ Time.flac

Track gain : -5.45 dB
Peak : 0.966064
CRC32 hash (test run) : FA8E38D8
CRC32 hash : FA8E38D8
CRC32 hash (skip zero) : 2B6BA01A
AccurateRip v1 signature : C3E586A7
AccurateRip v2 signature : C2FD080E
->Accurately ripped (v2, confidence 3/3)
Statistics
Read error : 0
Jitter error (maybe fixed) : 0
Retry sector count : 0
Damaged sector count : 0

Track 04
Filename : /Volumes/rip/The Time Jumpers/Jumpin’ Time/CD2/04 – Bonaparte’s Retreat.flac

Track gain : -6.07 dB
Peak : 0.927765
CRC32 hash (test run) : 9DFA01F8
CRC32 hash : 9DFA01F8
CRC32 hash (skip zero) : 77C965A5
AccurateRip v1 signature : 8B84037D
AccurateRip v2 signature : 7C5199B3
->Accurately ripped (v2, confidence 3/3)
Statistics
Read error : 0
Jitter error (maybe fixed) : 0
Retry sector count : 0
Damaged sector count : 0

Track 05
Filename : /Volumes/rip/The Time Jumpers/Jumpin’ Time/CD2/05 – My Confession.flac

Track gain : -5.21 dB
Peak : 0.966064
CRC32 hash (test run) : F7DBFB1C
CRC32 hash : F7DBFB1C
CRC32 hash (skip zero) : F94EDE28
AccurateRip v1 signature : CD212E2A
AccurateRip v2 signature : 1019FA5D
->Accurately ripped (v2, confidence 3/3)
Statistics
Read error : 0
Jitter error (maybe fixed) : 0
Retry sector count : 0
Damaged sector count : 0

Track 06
Filename : /Volumes/rip/The Time Jumpers/Jumpin’ Time/CD2/06 – Give Me A Pinto Pal.flac

Track gain : -6.78 dB
Peak : 0.953125
CRC32 hash (test run) : 4A9E170D
CRC32 hash : 4A9E170D
CRC32 hash (skip zero) : 6C9E4614
AccurateRip v1 signature : 36B61DA7
AccurateRip v2 signature : C6FFC095
->Accurately ripped (v2, confidence 3/3)
Statistics
Read error : 0
Jitter error (maybe fixed) : 0
Retry sector count : 0
Damaged sector count : 0

Track 07
Filename : /Volumes/rip/The Time Jumpers/Jumpin’ Time/CD2/07 – Embraceable You.flac

Track gain : -2.43 dB
Peak : 0.701904
CRC32 hash (test run) : FB45CF8C
CRC32 hash : FB45CF8C
CRC32 hash (skip zero) : 555A8C13
AccurateRip v1 signature : 18DC35D0
AccurateRip v2 signature : 9A5710D4
->Accurately ripped (v2, confidence 3/3)
Statistics
Read error : 0
Jitter error (maybe fixed) : 0
Retry sector count : 0
Damaged sector count : 0

Track 08
Filename : /Volumes/rip/The Time Jumpers/Jumpin’ Time/CD2/08 – Cherokee Maiden.flac

Track gain : -5.55 dB
Peak : 0.966064
CRC32 hash (test run) : 45A66F1A
CRC32 hash : 45A66F1A
CRC32 hash (skip zero) : 429FE20B
AccurateRip v1 signature : B6F01EC8
AccurateRip v2 signature : 80F572F1
->Accurately ripped (v2, confidence 3/3)
Statistics
Read error : 0
Jitter error (maybe fixed) : 0
Retry sector count : 0
Damaged sector count : 0

Track 09
Filename : /Volumes/rip/The Time Jumpers/Jumpin’ Time/CD2/09 – My Weakness Is Too Strong.flac

Track gain : 1.47 dB
Peak : 0.650970
CRC32 hash (test run) : 5AC0AD15
CRC32 hash : 5AC0AD15
CRC32 hash (skip zero) : 910A58FD
AccurateRip v1 signature : EBBCABE6
AccurateRip v2 signature : 5162CCDA
->Accurately ripped (v2, confidence 3/3)
Statistics
Read error : 0
Jitter error (maybe fixed) : 0
Retry sector count : 0
Damaged sector count : 0

Track 10
Filename : /Volumes/rip/The Time Jumpers/Jumpin’ Time/CD2/10 – All Of Me.flac

Track gain : -4.81 dB
Peak : 0.885010
CRC32 hash (test run) : C281B742
CRC32 hash : C281B742
CRC32 hash (skip zero) : A53C0CAF
AccurateRip v1 signature : 049E039A
AccurateRip v2 signature : 2E34A6C5
->Accurately ripped (v2, confidence 3/3)
Statistics
Read error : 0
Jitter error (maybe fixed) : 0
Retry sector count : 0
Damaged sector count : 0

Track 11
Filename : /Volumes/rip/The Time Jumpers/Jumpin’ Time/CD2/11 – Caravan.flac

Track gain : -5.05 dB
Peak : 0.966064
CRC32 hash (test run) : A647F9B8
CRC32 hash : A647F9B8
CRC32 hash (skip zero) : FE7451AE
AccurateRip v1 signature : D9C84B9E
AccurateRip v2 signature : 0D9D21C2
->Accurately ripped (v2, confidence 3/3)
Statistics
Read error : 0
Jitter error (maybe fixed) : 0
Retry sector count : 0
Damaged sector count : 0

Track 12
Filename : /Volumes/rip/The Time Jumpers/Jumpin’ Time/CD2/12 – Sweet Memories.flac

Track gain : -3.88 dB
Peak : 0.833160
CRC32 hash (test run) : 3A0A5A4B
CRC32 hash : 3A0A5A4B
CRC32 hash (skip zero) : D8EC7AFD
AccurateRip v1 signature : 29E3C5D9
AccurateRip v2 signature : 8F128C17
->Accurately ripped (v2, confidence 3/3)
Statistics
Read error : 0
Jitter error (maybe fixed) : 0
Retry sector count : 0
Damaged sector count : 0

Track 13
Filename : /Volumes/rip/The Time Jumpers/Jumpin’ Time/CD2/13 – My Window Faces The South.flac

Track gain : -5.95 dB
Peak : 0.956757
CRC32 hash (test run) : 51C4B390
CRC32 hash : 51C4B390
CRC32 hash (skip zero) : D61905AB
AccurateRip v1 signature : 2B491E96
AccurateRip v2 signature : 5247C76D
->Accurately ripped (v2, confidence 3/3)
Statistics
Read error : 0
Jitter error (maybe fixed) : 0
Retry sector count : 0
Damaged sector count : 0

No errors occurred

End of status report

––-BEGIN XLD SIGNATURE––-
OkyGI033Y3NQcfD3D6EaVkejEAVJ_4Zk86QBQpF4Bc7t3DyWnMU_tLsRwG1z9aqGOgGRdutHrkNtmPm4qEIyceuU3kyZC9XE3O.c.ES
––-END XLD SIGNATURE––-

The Time Jumpers - Jumpin' Time: Live at Station Inn (2006) {2CD Crosswind TTJ-2}

All thanks goes to the original releaser!

see also:
The Time Jumpers – Kid Sister (2016) {Rounded Records Amazon Extended Deluxe Edition}

===

The Time Jumpers – Jumpin' Time: Live at Station Inn (2006) {2CD Crosswind TTJ-2} Download, Warez, DDL, Free, Full Album, Torrent, Legal.

Download