The Storm – Eye Of The Storm (1995) [1997, Japan]

Download
The Storm - Eye Of The Storm (1995) [1997, Japan]

The Storm – Eye Of The Storm (1995) [1997, Japan]
Rock, Melodic Rock, AOR | EAC Rip | FLAC, Img+CUE+LOG+Scans-600dpi (JPEG) | 56:37 Min | 410,03 Mb
Label: Avex D.D., Inc. (Japan) | Released: 1997-03-21 (1995)
The Storm - Eye Of The Storm (1995) [1997, Japan]

The Storm’s debut album, self-titled and released in 1991 by Interscope, was produced by Beau Hill. It rose to #133 on the Billboard album chart, scoring two Mainstream Rock radio hits with the #6 “I’ve Got a Lot to Learn About Love” (which also reached #26 on the Billboard Hot 100) and the #22 “Show Me the Way”. Their follow-up album, Eye of the Storm, was recorded for Interscope Records in 1993 but never released by Interscope. The previous year, the label—founded by Iovine (a producer, who began his career as a sound engineer for John Lennon and Bruce Springsteen) and Hill (noted for his success producing hard rock bands Ratt and Winger) as a rock label—had struck a deal to distribute releases by Death Row Records. Hits by Dr. Dre and Snoop Dogg convinced the label to shift its focus from Mainstream Rock to Gangsta Rap. Eye of the Storm was eventually issued through the major UK independent label Music For Nations in Europe, Avex Trax (Bareknuckle) in Japan and Miramar Records in the U.S. The album also appears on the iTunes Music Store with the release date of 1995. Despite the release of Eye of the Storm, the individual band members had moved on to other things. Gregg Rolie (keyboards) played with Abraxas Pool (featuring most of the original Santana members – himself, Chepito Areas, Michael Carabello, and Michael Shrieve – as well as Neal Schon and Alphonso Johnson), Ross Valory (bass) went on to a reformed Journey, Ron Wikso (drums) went on to play with David Lee Roth, Foreigner and Richie Sambora, Kevin Chalfant (vocals) and Josh Ramos (guitar) formed another band called Two Fires, who released two albums, and pursued solo careers, Chalfant making lead vocal stints in The Alan Parsons Project (2003) and a Kansas City AOR-based band named Shooting Star (band) (2006).

~Wikipedia
The Storm - Eye Of The Storm (1995) [1997, Japan]

The Storm - Eye Of The Storm (1995) [1997, Japan]

Release of this album: 1995 [CD Miramar (USA), Cat.# 09006-23102-2 / UPC: 090062310223]
Release of this CD: 1997, March, 21 [CD Avex D.D., Inc. (Japan), Cat.# AVCB-66003 / EAN: 4988064660032]
℗ 1995 © 1997 Scott Boorey Management.
Manufactured by Avex D.D., Inc.
Made in Japan

Credits:
Art Direction – Jim Welch
Engineer – Nigel Green
Engineer [Second] – Eric Gast, Neil King
Illustration – Alton Kelley
Management – Herbie Herbert, Scott Boorey
Mastered By – Ted Jensen
Producer – Bob Marlette, Nigel Green, The Storm

Tracklist:

01. Don’t Give Up (04:32)
02. Waiting For The World To Change (04:01)
03. I Want To Be The One (04:00)
04. To Have And To Hold (04:00)
05. Livin’ It Up (05:29)
06. Love Isn’t Easy (04:00)
07. Fight For The Right (03:56)
08. Give Me Tonight (04:32)
09. Soul Of A Man (03:15)
10. What Ya Doing Tonight? (04:05)
11. Come In Out Of The Rain (04:46)
12. Long Time Coming (04:50)

EAC log
Exact Audio Copy V1.1 from 23. June 2015

Отчёт EAC об извлечении, выполненном 24. января 2017, 20:10

The Storm / Eye Of The Storm (AVCB-66003)

Дисковод: PLEXTOR BD-R PX-B950SA Adapter: 1 ID: 0

Режим чтения : Достоверность
Использование точного потока : Да
Отключение кэша аудио : Да
Использование указателей C2 : Нет

Коррекция смещения при чтении : 6
Способность читать области Lead-in и Lead-out : Нет
Заполнение пропущенных сэмплов тишиной : Да
Удаление блоков с тишиной в начале и конце : Нет
При вычислениях CRC использовались нулевые сэмплы : Да
Интерфейс : Встроенный Win32-интерфейс для Win NT/2000

Выходной формат : Пользовательский кодировщик
Выбранный битрейт : 1024 kBit/s
Качество : Высокий
Добавление ID3-тега : Нет
Утилита сжатия : C:Program Files (x86)Exact Audio CopyFLACFLAC.EXE
Дополнительные параметры : -6 -V -T "ARTIST=%artist%" -T "TITLE=%title%" -T "ALBUM=%albumtitle%" -T "DATE=%year%" -T "TRACKNUMBER=%tracknr%" -T "GENRE=%genre%" -T "COMMENT=%comment%" -T "BAND=%albuminterpret%" -T "ALBUMARTIST=%albuminterpret%" -T "COMPOSER=%composer%" %haslyrics%–tag-from-file=LYRICS="%lyricsfile%"%haslyrics% -T "DISCNUMBER=%cdnumber%" -T "TOTALDISCS=%totalcds%" -T "TOTALTRACKS=%numtracks%" %hascover%–picture="%coverfile%"%hascover% %source% -o %dest%

TOC извлечённого CD

Трек | Старт | Длительность | Начальный сектор | Конечный сектор
––––––––––––––––––––––––––––––––––-
1 | 0:00.00 | 4:31.67 | 0 | 20391
2 | 4:31.67 | 4:01.05 | 20392 | 38471
3 | 8:32.72 | 3:59.48 | 38472 | 56444
4 | 12:32.45 | 4:00.22 | 56445 | 74466
5 | 16:32.67 | 5:29.15 | 74467 | 99156
6 | 22:02.07 | 4:00.05 | 99157 | 117161
7 | 26:02.12 | 3:56.15 | 117162 | 134876
8 | 29:58.27 | 4:32.33 | 134877 | 155309
9 | 34:30.60 | 3:14.70 | 155310 | 169929
10 | 37:45.55 | 4:05.12 | 169930 | 188316
11 | 41:50.67 | 4:45.73 | 188317 | 209764
12 | 46:36.65 | 4:49.67 | 209765 | 231506
13 | 53:58.57 | 1:38.08 | 242907 | 250264

Характеристики диапазона извлечения и сообщения об ошибках

Выбранный диапазон

Имя файла G:RIPThe Storm 1995 Japanese Pressing FLAC by alzalThe Storm – Eye Of The Storm (AVCB-66003).wav

Пиковый уровень 99.8 %
Скорость извлечения 9.1 X
Качество диапазона 100.0 %
CRC теста EE039BBC
CRC копии EE039BBC
Копирование… OK

Ошибок не произошло

AccurateRip: сводка

Трек 1 : извлечено точно (доверие 3) [6F478609] (AR v2)
Трек 2 : извлечено точно (доверие 3) [FF0716B2] (AR v2)
Трек 3 : извлечено точно (доверие 3) [C61867AD] (AR v2)
Трек 4 : извлечено точно (доверие 3) [7F47182C] (AR v2)
Трек 5 : извлечено точно (доверие 3) [69D32815] (AR v2)
Трек 6 : извлечено точно (доверие 3) [21E56AD2] (AR v2)
Трек 7 : извлечено точно (доверие 3) [3E678784] (AR v2)
Трек 8 : извлечено точно (доверие 3) [E2680F9C] (AR v2)
Трек 9 : извлечено точно (доверие 3) [3B9FC776] (AR v2)
Трек 10 : извлечено точно (доверие 3) [0AFE702D] (AR v2)
Трек 11 : извлечено точно (доверие 3) [A7BCA691] (AR v2)
Трек 12 : извлечено точно (доверие 3) [50895891] (AR v2)

Все треки извлечены точно

Конец отчёта

–– CUETools DB Plugin V2.1.6

[CTDB TOCID: w8K_FxX4gxiEWqpQqt4OtJ_5I7E-] found
Submit result: w8K_FxX4gxiEWqpQqt4OtJ_5I7E- has been confirmed
Track | CTDB Status
1 | (4/4) Accurately ripped
2 | (4/4) Accurately ripped
3 | (4/4) Accurately ripped
4 | (4/4) Accurately ripped
5 | (4/4) Accurately ripped
6 | (4/4) Accurately ripped
7 | (4/4) Accurately ripped
8 | (4/4) Accurately ripped
9 | (4/4) Accurately ripped
10 | (4/4) Accurately ripped
11 | (4/4) Accurately ripped
12 | (4/4) Accurately ripped

==== Контрольная сумма отчёта 957EBEF5C900290C2D6C273DC0BFFCDC7860346F5E27D1633FA5CCA870E0E13E ====

Dynamic Range Meter log
––––––––––––––––––––––––––––––––––––––––
Analyzed: The Storm / Eye Of The Storm (AVCB-66003)
––––––––––––––––––––––––––––––––––––––––

DR Peak RMS Duration Track
––––––––––––––––––––––––––––––––––––––––
DR8 -0.01 dB -10.30 dB 4:32 01-Don’t Give Up
DR8 -0.01 dB -10.88 dB 4:01 02-Waiting For The World To Change
DR8 -0.01 dB -9.69 dB 4:00 03-I Want To Be The One
DR9 -0.01 dB -10.69 dB 4:00 04-To Have And To Hold
DR8 -0.01 dB -10.22 dB 5:29 05-Livin’ It Up
DR8 -0.01 dB -9.55 dB 4:00 06-Love Isn’t Easy
DR8 -0.01 dB -9.97 dB 3:56 07-Fight For The Right
DR9 -0.01 dB -11.33 dB 4:32 08-Give Me Tonight
DR9 -0.01 dB -10.24 dB 3:15 09-Soul Of A Man
DR9 -0.01 dB -11.76 dB 4:05 10-What Ya Doing Tonight?
DR8 -0.01 dB -10.06 dB 4:46 11-Come In Out Of The Rain
DR8 -0.01 dB -10.42 dB 4:50 12-Long Time Coming
––––––––––––––––––––––––––––––––––––––––

Number of tracks: 12
Official DR value: DR9

Samplerate: 44100 Hz
Channels: 2
Bits per sample: 16
Bitrate: 971 kbps
Codec: FLAC
================================================================================

All thanks to alzal

See also:
The Storm – The Storm (1991)

password: BlondStyle

The Storm – Eye Of The Storm (1995) [1997, Japan] Download, Warez, DDL, Free, Full Album, Torrent, Legal.

Download