The Searchers ‎- Die großen Erfolge einer Supergruppe (1991) | ViralVideoPk

Daily Dose of Free Downloads

The Searchers ‎- Die großen Erfolge einer Supergruppe (1991)

Download

The Searchers ‎- Die großen Erfolge einer Supergruppe (1991)

The Searchers ‎- Die großen Erfolge einer Supergruppe (1991)
EAC | Flac(Image) + Cue + Log > 212 Mb | Mp3 CBR 320Kpbs > 93 Mb
Beat/Rock & Roll/Pop Rock | TT – 38:08 | Label: East West | Cat. # 76 168 4 | Germany
Scans (Jpg) Included | NitroFlare, FileFactory

Liverpool based group that were originally the backing group for singer Johnny Sandon but decided to branch out on their own. When Pye Records recording manager Tony Hatch heard a demo they had made he was so impressed that they were immediately placed under contract. They recorded "Sweets For My Sweet" as their first song.

discogs.com
The Searchers ‎- Die großen Erfolge einer Supergruppe (1991)

The Searchers at wiki | The Searchers at discogs | The Searchers official website

*********
The Searchers ‎- Die großen Erfolge einer Supergruppe at discogs

The Searchers ‎- Die großen Erfolge einer Supergruppe (1991)

Tracklist:

01. Needles and Pins (Nitzshe, Bono) 02:11
02. Farmer John (Terry, Harris) 01:57
03. Sugar and Spice (Nightingale) 02:14
04. What Have They Done To The Rain (Reynolds) 02:31
05. Take Me For What I’m Worth (Sloan) 02:38
06. Don’t Throw Your Love Away (Jackson, Wisner) 02:13
07. When You Walk In The Room (Jackie DeShannon) 02:20
08. Take It Or Leave It (Jagger, Richards) 02:45
09. Love Potion No.9 (Leiber, Stoller) 02:03
10. Have Your Ever Loved Somebody (Ransford) 02:38
11. He’s Got No Love (Curtis, Pender) 02:35
12. Someday We’re Gonna Love Again (McMahan) 01:57
13. Sweets For My Sweet (Pomus, Shuman) 02:27
14. Ain’t Gonna Kiss Ya (Smith) 02:03
15. Listen To Me (Hardin, Petty) 02:10
16. Goodbye My Love (Mosley, Swearington) 02:55

Converted to Image with CUETools

EAC
Exact Audio Copy V1.0 beta 3 from 29. August 2011

EAC extraction logfile from 21. December 2016, 7:07

Searchers / Die gro�en Erfolge einer Supergruppe

Used drive : TSSTcorpCDDVDW SH-216DB Adapter: 0 ID: 0

Read mode : Secure
Utilize accurate stream : Yes
Defeat audio cache : Yes
Make use of C2 pointers : No

Read offset correction : 6
Overread into Lead-In and Lead-Out : No
Fill up missing offset samples with silence : Yes
Delete leading and trailing silent blocks : No
Null samples used in CRC calculations : Yes
Used interface : Native Win32 interface for Win NT & 2000

Used output format : User Defined Encoder
Selected bitrate : 1024 kBit/s
Quality : High
Add ID3 tag : No
Command line compressor : C:Program Files (x86)Exact Audio CopyFlacflac.exe
Additional command line options : -V -8 -T "Date=%year%" -T "Genre=%genre%" %source%

TOC of the extracted CD

Track | Start | Length | Start sector | End sector
––––––––––––––––––––––––––––-
1 | 0:00.00 | 2:13.60 | 0 | 10034
2 | 2:13.60 | 1:58.55 | 10035 | 18939
3 | 4:12.40 | 2:15.57 | 18940 | 29121
4 | 6:28.22 | 2:33.08 | 29122 | 40604
5 | 9:01.30 | 2:40.32 | 40605 | 52636
6 | 11:41.62 | 2:15.33 | 52637 | 62794
7 | 13:57.20 | 2:22.12 | 62795 | 73456
8 | 16:19.32 | 2:47.20 | 73457 | 86001
9 | 19:06.52 | 2:05.10 | 86002 | 95386
10 | 21:11.62 | 2:40.23 | 95387 | 107409
11 | 23:52.10 | 2:36.67 | 107410 | 119176
12 | 26:29.02 | 1:58.65 | 119177 | 128091
13 | 28:27.67 | 2:28.00 | 128092 | 139191
14 | 30:55.67 | 2:04.60 | 139192 | 148551
15 | 33:00.52 | 2:12.00 | 148552 | 158451
16 | 35:12.52 | 2:55.10 | 158452 | 171586

Range status and errors

Selected range

Filename L:PrivateMy Audio Ripps CD – RIPSSearchers – Die grossen Erfolge einer Supergruppe.wav

Peak level 100.0 %
Extraction speed 2.6 X
Range quality 99.9 %
Test CRC C8ACCC96
Copy CRC C8ACCC96
Copy OK

No errors occurred

AccurateRip summary

Track 1 accurately ripped (confidence 1) [F727D9AA] (AR v2)
Track 2 accurately ripped (confidence 1) [1C12076B] (AR v2)
Track 3 accurately ripped (confidence 1) [BCDCC778] (AR v2)
Track 4 accurately ripped (confidence 1) [B5664CBD] (AR v2)
Track 5 accurately ripped (confidence 1) [DA61753F] (AR v2)
Track 6 accurately ripped (confidence 1) [09A8922A] (AR v2)
Track 7 accurately ripped (confidence 1) [724035EA] (AR v2)
Track 8 accurately ripped (confidence 1) [20336B8C] (AR v2)
Track 9 accurately ripped (confidence 1) [A0479CF5] (AR v2)
Track 10 accurately ripped (confidence 1) [6DCBE640] (AR v2)
Track 11 accurately ripped (confidence 1) [B5827F4C] (AR v2)
Track 12 accurately ripped (confidence 1) [9D820147] (AR v2)
Track 13 accurately ripped (confidence 1) [D57D0B8E] (AR v2)
Track 14 accurately ripped (confidence 1) [332799EA] (AR v2)
Track 15 accurately ripped (confidence 1) [B70DE7DC] (AR v2)
Track 16 accurately ripped (confidence 1) [C9919770] (AR v2)

All tracks accurately ripped

End of status report

==== Log checksum 1A3A02E7AA711484FC7D37F7DC0D1DE81D5F559C4E87CEAA780523F79955C9E7 ====

Dynamic Range
foobar2000 1.2.9 / Dynamic Range Meter 1.1.1
log date: 2016-12-23 13:03:28

––––––––––––––––––––––––––––––––––––––––
Analyzed: Searchers / Die grossen Erfolge einer Supergruppe
––––––––––––––––––––––––––––––––––––––––

DR Peak RMS Duration Track
––––––––––––––––––––––––––––––––––––––––
DR11 -0.86 dB -13.81 dB 2:14 01-Needles and Pins
DR13 -0.32 dB -14.67 dB 1:59 02-Farmer John
DR12 -0.59 dB -14.31 dB 2:16 03-Sugar and Spice
DR10 -0.94 dB -12.87 dB 2:33 04-What have they Done to the Rain
DR9 -0.76 dB -12.83 dB 2:40 05-Take me for what i’m Worth
DR12 0.00 dB -13.63 dB 2:15 06-Don’t throw your Love away
DR12 -0.10 dB -13.90 dB 2:22 07-When you Walk in the Room
DR11 -0.76 dB -12.67 dB 2:47 08-Take it or Leave it
DR12 -0.75 dB -14.29 dB 2:05 09-Love Potion No. 9
DR10 -0.70 dB -12.19 dB 2:40 10-Have you ever Loved Somebody
DR10 -0.57 dB -12.43 dB 2:37 11-He’s got no Love
DR10 -2.25 dB -13.34 dB 1:59 12-Someday we’re gonna love again
DR11 -0.74 dB -12.88 dB 2:28 13-Sweets for my Sweets
DR12 -1.42 dB -15.43 dB 2:05 14-Ain’t gonna Kiss ya
DR12 -0.27 dB -14.80 dB 2:12 15-Listen to me
DR10 -1.40 dB -13.23 dB 2:55 16-Goodbye my Love
––––––––––––––––––––––––––––––––––––––––

Number of tracks: 16
Official DR value: DR11

Samplerate: 44100 Hz
Channels: 2
Bits per sample: 16
Bitrate: 747 kbps
Codec: FLAC

CUETools
[CUETools log; Date: 23.12.2016 12:57:08; Version: 2.1.4]
[CTDB TOCID: c8ALV0F0a.Iyqh4t8wtag9gLphw-] found.
Track | CTDB Status
1 | (2/2) Accurately ripped
2 | (2/2) Accurately ripped
3 | (2/2) Accurately ripped
4 | (2/2) Accurately ripped
5 | (2/2) Accurately ripped
6 | (2/2) Accurately ripped
7 | (2/2) Accurately ripped
8 | (2/2) Accurately ripped
9 | (2/2) Accurately ripped
10 | (2/2) Accurately ripped
11 | (2/2) Accurately ripped
12 | (2/2) Accurately ripped
13 | (2/2) Accurately ripped
14 | (2/2) Accurately ripped
15 | (2/2) Accurately ripped
16 | (2/2) Accurately ripped
[AccurateRip ID: 0015fea2-010918a0-d708ef10] found.
Track [ CRC | V2 ] Status
01 [acd9b7d7|f727d9aa] (1+1/2) Accurately ripped
02 [11634512|1c12076b] (1+1/2) Accurately ripped
03 [f5869af2|bcdcc778] (1+1/2) Accurately ripped
04 [d3a40ebb|b5664cbd] (0+1/1) Accurately ripped
05 [b7fafc64|da61753f] (0+1/1) Accurately ripped
06 [bb766def|09a8922a] (0+1/1) Accurately ripped
07 [918ee37e|724035ea] (0+1/1) Accurately ripped
08 [be0da63f|20336b8c] (0+1/1) Accurately ripped
09 [77a37343|a0479cf5] (1+1/2) Accurately ripped
10 [59db054a|6dcbe640] (0+1/1) Accurately ripped
11 [1f378c48|b5827f4c] (0+1/1) Accurately ripped
12 [16923a2e|9d820147] (0+1/1) Accurately ripped
13 [f0338fef|d57d0b8e] (0+1/1) Accurately ripped
14 [6bab364a|332799ea] (0+1/1) Accurately ripped
15 [d91dc7e1|b70de7dc] (0+1/1) Accurately ripped
16 [ec25ab55|c9919770] (0+1/1) Accurately ripped

Track Peak [ CRC32 ] [W/O NULL] [ LOG ]
– 100,0 [C8ACCC96] [53BDE13D] CRC32
01 90,5 [49BB902C] [D2E6CEFE]
02 96,3 [564BCC2F] [A969F759]
03 93,4 [F055CDDE] [7FFBD99C]
04 89,7 [AC833B70] [FDF1D2E7]
05 91,6 [864AF849] [F80965C4]
06 100,0 [D755720A] [E6322BC3]
07 98,8 [6B943621] [23051A6C]
08 91,5 [37B8E12D] [E4E0F20E]
09 91,7 [20666223] [10BEDCCF]
10 92,3 [31049080] [FF1EC0C6]
11 93,6 [EB15CAB2] [A2877B51]
12 77,1 [2DE52CF5] [A38F32AF]
13 91,7 [B01F888D] [5EED38C0]
14 84,9 [A535D31C] [198B9472]
15 96,9 [256413E4] [4C6EB14D]
16 85,1 [403AACCC] [341FEE93]

The Searchers ‎- Die großen Erfolge einer Supergruppe (1991)

All thanks go to original releaser alexpika

The Searchers ‎- Die großen Erfolge einer Supergruppe (1991) Download, Warez, DDL, Free, Full Album, Torrent, Legal.

Download


  • Recent Posts

  • Recent Tags