The Rolling Stones – Hot Rocks 1964-1971 (1971)

Download
The Rolling Stones - Hot Rocks 1964-1971 (1971)

The Rolling Stones – Hot Rocks 1964-1971 (1971)
EAC | Flac(Image) + Cue + Log & MP3 CBR 320Kbps
2CD | ABKCO, 66672 | ~ 487 or 204 Mb | Scans(jpg) -> 101 Mb
Classic Rock

This two-LP set is both a lot more and a bit less than what it seems. It is seven years’ worth of mostly very high-charting – and all influential and important – songs, leaving out some singles in favor of well-known album tracks, and in the process, giving an overview not just of the Rolling Stones’ hits but of their evolving image. One hears them change from loud R&B-inspired rockers covering others’ songs ("Time Is on My Side") into originators in their own right ("Satisfaction"); then into tastemakers and style-setters with a particularly decadent air ("Get Off of My Cloud," "19th Nervous Breakdown"), and finally into self-actualized rebel-poets ("Jumpin’ Jack Flash," "Midnight Rambler") and Shaman-like symbols of chaos. On its initial release, Hot Rocks sold well, not only as a unique compilation but also as a panorama of the ’60s. The only flaw was that it didn’t give a good look at the Stones’ full musical history, ignoring their early blues and psychedelic eras. There are also some anomalies in Hot Rocks’ history for the collector – the very first pressings included an outtake of "Brown Sugar" featuring Eric Clapton that was promptly replaced. This is an exciting assembly of material.

by Bruce Eder, allmusic

The Rolling Stones - Hot Rocks 1964-1971 (1971)

The Rolling Stones at Wiki | The Rolling Stones at Discogs | The Rolling Stones at Allmusic | The Rolling Stones HomePage

***********

The Rolling Stones – Hot Rocks 1964-1971 (1971):

The Rolling Stones - Hot Rocks 1964-1971 (1971)

Tracklist CD1:

01. Time Is On My Side 3:01
02. Heart Of Stone 2:46
03. Play With Fire 2:15
04. (I Can’t Get No) Satisfaction 3:48
05. As Tears Go By 2:47
06. Get Off Of My Cloud 2:57
07. Mother’s Little Helper 2:50
08. 19th Nervous Breakdown 4:00
09. Paint It Black 3:48
10. Under My Thumb 3:44
11. Ruby Tuesday 3:20
12. Let’s Spend The Night Together 3:39

EAC Log
Exact Audio Copy V1.3 from 2. September 2016

EAC extraction logfile from 26. December 2016, 18:14

The Rolling Stones / Hot Rocks 1964-1971 (Disc 1) (66672)

Used drive : PLEXTOR DVDR PX-891SA Adapter: 1 ID: 0

Read mode : Secure
Utilize accurate stream : Yes
Defeat audio cache : Yes
Make use of C2 pointers : No

Read offset correction : 6
Overread into Lead-In and Lead-Out : No
Fill up missing offset samples with silence : Yes
Delete leading and trailing silent blocks : No
Null samples used in CRC calculations : Yes
Used interface : Native Win32 interface for Win NT & 2000

Used output format : User Defined Encoder
Selected bitrate : 128 kBit/s
Quality : High
Add ID3 tag : No
Command line compressor : C:Program Files (x86)Exact Audio CopyFlacflac.exe
Additional command line options : -V -8 -T "Genre=%genre%" -T "Artist=%artist%" -T "Title=%title%" -T "Album=%albumtitle%" -T "Date=%year%" -T "Tracknumber=%tracknr%" -T "Comment=%comment%" %source%

TOC of the extracted CD

Track | Start | Length | Start sector | End sector
––––––––––––––––––––––––––––-
1 | 0:00.00 | 3:00.55 | 0 | 13554
2 | 3:00.55 | 2:46.10 | 13555 | 26014
3 | 5:46.65 | 2:14.40 | 26015 | 36104
4 | 8:01.30 | 3:47.72 | 36105 | 53201
5 | 11:49.27 | 2:46.65 | 53202 | 65716
6 | 14:36.17 | 2:57.33 | 65717 | 79024
7 | 17:33.50 | 2:49.45 | 79025 | 91744
8 | 20:23.20 | 3:59.65 | 91745 | 109734
9 | 24:23.10 | 3:48.10 | 109735 | 126844
10 | 28:11.20 | 3:43.62 | 126845 | 143631
11 | 31:55.07 | 3:20.28 | 143632 | 158659
12 | 35:15.35 | 3:38.47 | 158660 | 175056

Range status and errors

Selected range

Filename H:dafnaplusRolling Stones – Hot Rocks 1964-1971Disc 1The Rolling Stones – Hot Rocks 1964-1971 (Disc 1) (66672).wav

Peak level 100.0 %
Extraction speed 7.5 X
Range quality 100.0 %
Test CRC B15663FA
Copy CRC B15663FA
Copy OK

No errors occurred

AccurateRip summary

Track 1 accurately ripped (confidence 125) [41E8483A] (AR v2)
Track 2 accurately ripped (confidence 129) [0BD71146] (AR v2)
Track 3 accurately ripped (confidence 130) [D7CD8EE6] (AR v2)
Track 4 accurately ripped (confidence 128) [B0800F18] (AR v2)
Track 5 accurately ripped (confidence 127) [8B931F82] (AR v2)
Track 6 accurately ripped (confidence 126) [1FB6EE1D] (AR v2)
Track 7 accurately ripped (confidence 127) [F153A5C9] (AR v2)
Track 8 accurately ripped (confidence 126) [EA43AED6] (AR v2)
Track 9 accurately ripped (confidence 127) [4F394C8C] (AR v2)
Track 10 accurately ripped (confidence 128) [134841D9] (AR v2)
Track 11 accurately ripped (confidence 128) [07B5720A] (AR v2)
Track 12 accurately ripped (confidence 128) [4B9DC816] (AR v2)

All tracks accurately ripped

End of status report

–– CUETools DB Plugin V2.1.6

[CTDB TOCID: dGXZUfFC7Kc2Nsggq_dsnZ9I6zI-] found
Submit result: dGXZUfFC7Kc2Nsggq_dsnZ9I6zI- has been confirmed
Track | CTDB Status
1 | (233/239) Accurately ripped
2 | (235/239) Accurately ripped
3 | (236/239) Accurately ripped
4 | (236/239) Accurately ripped
5 | (235/239) Accurately ripped
6 | (236/239) Accurately ripped
7 | (238/239) Accurately ripped
8 | (236/239) Accurately ripped
9 | (235/239) Accurately ripped
10 | (237/239) Accurately ripped
11 | (237/239) Accurately ripped
12 | (235/239) Accurately ripped

==== Log checksum 1E7F9B2AC51CC410B2B993A86858F3DEEC4D3197BB0FE0B09DEEF73CE301D667 ====

DR Log
foobar2000 1.2.9 / Dynamic Range Meter 1.1.1
log date: 2017-02-04 15:40:59

––––––––––––––––––––––––––––––––––––––––
Analyzed: The Rolling Stones / Hot Rocks 1964-1971 (Disc 1) (66672)
––––––––––––––––––––––––––––––––––––––––

DR Peak RMS Duration Track
––––––––––––––––––––––––––––––––––––––––
DR12 -2.35 dB -16.40 dB 3:01 01-Time Is On My Side
DR11 -1.33 dB -13.93 dB 2:46 02-Heart Of Stone
DR11 -3.30 dB -18.17 dB 2:15 03-Play With Fire
DR13 0.00 dB -14.58 dB 3:48 04-(I Can’t Get No) Satisfaction
DR8 -7.65 dB -18.88 dB 2:47 05-As Tears Go By
DR12 -0.43 dB -13.73 dB 2:57 06-Get Off Of My Cloud
DR10 -1.83 dB -14.00 dB 2:50 07-Mother’s Little Helper
DR11 -0.11 dB -13.58 dB 4:00 08-19th Nervous Breakdown
DR13 -0.48 dB -15.59 dB 3:48 09-Paint It Black
DR13 -2.46 dB -18.65 dB 3:44 10-Under My Thumb
DR10 -3.12 dB -16.16 dB 3:20 11-Ruby Tuesday
DR10 -0.01 dB -12.65 dB 3:39 12-Let’s Spend The Night Together
––––––––––––––––––––––––––––––––––––––––

Number of tracks: 12
Official DR value: DR11

Samplerate: 44100 Hz
Channels: 2
Bits per sample: 16
Bitrate: 725 kbps
Codec: FLAC

CUETools Log
[CUETools log; Date: 04.02.2017 15:27:50; Version: 2.1.4]
[CTDB TOCID: dGXZUfFC7Kc2Nsggq_dsnZ9I6zI-] found.
Track | CTDB Status
1 | (249/255) Accurately ripped
2 | (250/255) Accurately ripped
3 | (252/255) Accurately ripped
4 | (252/255) Accurately ripped
5 | (251/255) Accurately ripped
6 | (252/255) Accurately ripped
7 | (254/255) Accurately ripped
8 | (252/255) Accurately ripped
9 | (251/255) Accurately ripped
10 | (253/255) Accurately ripped
11 | (253/255) Accurately ripped
12 | (251/255) Accurately ripped
[AccurateRip ID: 001077fd-009bd55d-a0091e0c] found.
Track [ CRC | V2 ] Status
01 [01294814|41e8483a] (142+125/345) Accurately ripped
02 [81cf0c97|0bd71146] (146+129/354) Accurately ripped
03 [2b7ef9a0|d7cd8ee6] (148+130/355) Accurately ripped
04 [089b6156|b0800f18] (148+128/356) Accurately ripped
05 [243cd726|8b931f82] (145+127/350) Accurately ripped
06 [3f796834|1fb6ee1d] (146+126/353) Accurately ripped
07 [48b14500|f153a5c9] (146+127/353) Accurately ripped
08 [9722ed16|ea43aed6] (143+126/350) Accurately ripped
09 [414fa4a9|4f394c8c] (147+127/357) Accurately ripped
10 [e26b5288|134841d9] (146+128/355) Accurately ripped
11 [bcce9c3f|07b5720a] (144+128/353) Accurately ripped
12 [8c0f84d2|4b9dc816] (147+128/356) Accurately ripped
Offsetted by -669:
01 [d4c4f814] (023/345) Accurately ripped
02 [19726175] (023/354) Accurately ripped
03 [a8389c3f] (021/355) Accurately ripped
04 [7a712bb8] (024/356) Accurately ripped
05 [91448f48] (023/350) Accurately ripped
06 [ac54e02c] (024/353) Accurately ripped
07 [b61ce5bd] (023/353) Accurately ripped
08 [0a623f0f] (024/350) Accurately ripped
09 [9194618f] (025/357) Accurately ripped
10 [3a3e78c8] (023/355) Accurately ripped
11 [b74ec7ad] (025/353) Accurately ripped
12 [860a71ba] (023/356) Accurately ripped
Offsetted by -375:
01 [7a125814] (018/345) Accurately ripped
02 [0de92af1] (018/354) Accurately ripped
03 [c1c4975d] (018/355) Accurately ripped
04 [740a08bc] (019/356) Accurately ripped
05 [f44b7fcc] (018/350) Accurately ripped
06 [a6f7df1c] (019/353) Accurately ripped
07 [e0b7a4d7] (019/353) Accurately ripped
08 [ec669021] (019/350) Accurately ripped
09 [203dec1b] (019/357) Accurately ripped
10 [1cd50d48] (019/355) Accurately ripped
11 [fa02f049] (019/353) Accurately ripped
12 [04ab188a] (019/356) Accurately ripped
Offsetted by 616:
01 [73e3c814] (008/345) Accurately ripped
02 [a6972ca7] (008/354) Accurately ripped
03 [b65b2028] (008/355) Accurately ripped
04 [99aae746] (008/356) Accurately ripped
05 [cf26cf16] (008/350) Accurately ripped
06 [ba550474] (008/353) Accurately ripped
07 [280de198] (008/353) Accurately ripped
08 [64814dce] (008/350) Accurately ripped
09 [2f452879] (008/357) Accurately ripped
10 [12824088] (008/355) Accurately ripped
11 [9de68fcf] (008/353) Accurately ripped
12 [de84b192] (008/356) Accurately ripped

Track Peak [ CRC32 ] [W/O NULL] [ LOG ]
– 100,0 [B15663FA] [3BA14761] CRC32
01 76,2 [E0FDB3B1] [7F336306]
02 85,7 [9FFCF5E9] [FAE6B651]
03 68,3 [91EF24F3] [8CEDAC6B]
04 100,0 [7DD3F4E6] [A9D67F95]
05 41,4 [0FEA71D0] [FD33B6DD]
06 95,1 [B6BAF1B8] [1BC29542]
07 81,0 [A0E9AD02] [243FC200]
08 98,7 [BCDDD09A] [E7205EF6]
09 94,6 [A0B9E355] [1FE8AE3E]
10 75,3 [F351DC41] [F71D9167]
11 69,8 [68E86275] [89752813]
12 99,8 [3426FE3C] [F1788E1E]

The Rolling Stones - Hot Rocks 1964-1971 (1971)

Tracklist CD2:

01. Jumpin’ Jack Flash 3:43
02. Street Fighting Man 3:18
03. Sympathy For The Devil 6:28
04. Honky Tonk Women 3:04
05. Gimme Shelter 4:37
06. Midnight Rambler (Live) 9:12
07. You Can’t Always Get What You Want 7:33
08. Brown Sugar 3:52
09. Wild Horses 5:40

EAC Log
Exact Audio Copy V1.3 from 2. September 2016

EAC extraction logfile from 26. December 2016, 18:28

The Rolling Stones / Hot Rocks 1964-1971 (Disc 2) (66672)

Used drive : PLEXTOR DVDR PX-891SA Adapter: 1 ID: 0

Read mode : Secure
Utilize accurate stream : Yes
Defeat audio cache : Yes
Make use of C2 pointers : No

Read offset correction : 6
Overread into Lead-In and Lead-Out : No
Fill up missing offset samples with silence : Yes
Delete leading and trailing silent blocks : No
Null samples used in CRC calculations : Yes
Used interface : Native Win32 interface for Win NT & 2000

Used output format : User Defined Encoder
Selected bitrate : 128 kBit/s
Quality : High
Add ID3 tag : No
Command line compressor : C:Program Files (x86)Exact Audio CopyFlacflac.exe
Additional command line options : -V -8 -T "Genre=%genre%" -T "Artist=%artist%" -T "Title=%title%" -T "Album=%albumtitle%" -T "Date=%year%" -T "Tracknumber=%tracknr%" -T "Comment=%comment%" %source%

TOC of the extracted CD

Track | Start | Length | Start sector | End sector
––––––––––––––––––––––––––––-
1 | 0:00.00 | 3:43.17 | 0 | 16741
2 | 3:43.17 | 3:18.33 | 16742 | 31624
3 | 7:01.50 | 6:27.67 | 31625 | 60716
4 | 13:29.42 | 3:03.50 | 60717 | 74491
5 | 16:33.17 | 4:36.65 | 74492 | 95256
6 | 21:10.07 | 9:11.68 | 95257 | 136649
7 | 30:22.00 | 7:33.22 | 136650 | 170646
8 | 37:55.22 | 3:51.50 | 170647 | 188021
9 | 41:46.72 | 5:40.08 | 188022 | 213529

Range status and errors

Selected range

Filename H:dafnaplusRolling Stones – Hot Rocks 1964-1971Disc 2The Rolling Stones – Hot Rocks 1964-1971 (Disc 2) (66672).wav

Peak level 100.0 %
Extraction speed 7.8 X
Range quality 100.0 %
Test CRC 7F899610
Copy CRC 7F899610
Copy OK

No errors occurred

AccurateRip summary

Track 1 accurately ripped (confidence 140) [E76A8AC0] (AR v2)
Track 2 accurately ripped (confidence 141) [73C10424] (AR v2)
Track 3 accurately ripped (confidence 142) [91CFD3B7] (AR v2)
Track 4 accurately ripped (confidence 144) [F73418FE] (AR v2)
Track 5 accurately ripped (confidence 140) [B9B79845] (AR v2)
Track 6 accurately ripped (confidence 140) [BE24CD8F] (AR v2)
Track 7 accurately ripped (confidence 141) [1DA9B1AF] (AR v2)
Track 8 accurately ripped (confidence 139) [55A5554A] (AR v2)
Track 9 accurately ripped (confidence 137) [BEBDEEA4] (AR v2)

All tracks accurately ripped

End of status report

–– CUETools DB Plugin V2.1.6

[CTDB TOCID: lnDBdVl2dmmDsExCj0ooyYh8VUw-] found
Submit result: lnDBdVl2dmmDsExCj0ooyYh8VUw- has been confirmed
Track | CTDB Status
1 | (229/239) Accurately ripped
2 | (233/239) Accurately ripped
3 | (232/239) Accurately ripped
4 | (233/239) Accurately ripped
5 | (233/239) Accurately ripped
6 | (230/239) Accurately ripped
7 | (227/239) Accurately ripped
8 | (227/239) Accurately ripped
9 | (228/239) Accurately ripped

==== Log checksum 6BB774C38DFE08C0317F01C5CAE9ED23A9D59F9E6FB30288F0777297E149B4A4 ====

DR Log
foobar2000 1.2.9 / Dynamic Range Meter 1.1.1
log date: 2017-02-04 15:40:32

––––––––––––––––––––––––––––––––––––––––
Analyzed: The Rolling Stones / Hot Rocks 1964-1971 (Disc 2) (66672)
––––––––––––––––––––––––––––––––––––––––

DR Peak RMS Duration Track
––––––––––––––––––––––––––––––––––––––––
DR10 -1.78 dB -13.81 dB 3:43 01-Jumpin’ Jack Flash
DR10 -0.64 dB -12.80 dB 3:18 02-Street Fighting Man
DR9 -1.31 dB -13.32 dB 6:28 03-Sympathy For The Devil
DR12 0.00 dB -14.32 dB 3:04 04-Honky Tonk Women
DR10 -1.79 dB -13.94 dB 4:37 05-Gimme Shelter
DR13 -1.00 dB -16.49 dB 9:12 06-Midnight Rambler (Live)
DR10 -2.06 dB -15.57 dB 7:33 07-You Can’t Always Get What You Want
DR13 0.00 dB -14.31 dB 3:52 08-Brown Sugar
DR13 -0.83 dB -17.77 dB 5:40 09-Wild Horses
––––––––––––––––––––––––––––––––––––––––

Number of tracks: 9
Official DR value: DR11

Samplerate: 44100 Hz
Channels: 2
Bits per sample: 16
Bitrate: 799 kbps
Codec: FLAC

CUETools Log
[CUETools log; Date: 04.02.2017 15:30:07; Version: 2.1.4]
[CTDB TOCID: lnDBdVl2dmmDsExCj0ooyYh8VUw-] found.
Track | CTDB Status
1 | (245/255) Accurately ripped
2 | (249/255) Accurately ripped
3 | (248/255) Accurately ripped
4 | (249/255) Accurately ripped
5 | (249/255) Accurately ripped
6 | (246/255) Accurately ripped
7 | (243/255) Accurately ripped
8 | (243/255) Accurately ripped
9 | (243/255) Accurately ripped
[AccurateRip ID: 000f1222-0071e606-710b1f09] found.
Track [ CRC | V2 ] Status
01 [39287409|e76a8ac0] (176+140/353) Accurately ripped
02 [5bc40341|73c10424] (178+141/357) Accurately ripped
03 [cfb69dc0|91cfd3b7] (171+142/350) Accurately ripped
04 [0ef12ee8|f73418fe] (175+144/358) Accurately ripped
05 [730577f3|b9b79845] (175+140/354) Accurately ripped
06 [f7b7fad9|be24cd8f] (170+140/344) Accurately ripped
07 [808f3188|1da9b1af] (173+141/353) Accurately ripped
08 [8fa5ab74|55a5554a] (175+139/352) Accurately ripped
09 [97087026|bebdeea4] (172+137/347) Accurately ripped
Offsetted by -669:
01 [5f345eab] (018/353) Accurately ripped
02 [9dc06595] (019/357) Accurately ripped
03 [960559db] (018/350) Accurately ripped
04 [0e8df1ca] (019/358) Accurately ripped
05 [e657380d] (018/354) Accurately ripped
06 [9d24aeac] (015/344) Accurately ripped
07 [fb5f9dba] (019/353) Accurately ripped
08 [672a3f23] (018/352) Accurately ripped
09 [ea9d3450] (019/347) Accurately ripped
Offsetted by -664:
01 [dcd0c9f9] (004/353) Accurately ripped
02 [b6219ea1] (004/357) Accurately ripped
03 [2902d968] (005/350) Accurately ripped
04 [62be22d8] (004/358) Accurately ripped
05 [e6a07623] (004/354) Accurately ripped
06 [9be82cc1] (004/344) Accurately ripped
07 [a27192f8] (005/353) Accurately ripped
08 [e746b87c] (006/352) Accurately ripped
09 [267325d6] (004/347) Accurately ripped
Offsetted by -109:
01 [53a350cb] (000/353) No match (V2 was not tested)
02 [48495ad5] (000/357) No match (V2 was not tested)
03 [e4ed278b] (000/350) No match (V2 was not tested)
04 [e3a367ea] (002/358) Accurately ripped
05 [066261ad] (002/354) Accurately ripped
06 [12abd7dc] (000/344) No match (V2 was not tested)
07 [133ae8da] (000/353) No match (V2 was not tested)
08 [739f5613] (000/352) No match (V2 was not tested)
09 [1836def0] (000/347) No match (V2 was not tested)

Track Peak [ CRC32 ] [W/O NULL] [ LOG ]
– 100,0 [7F899610] [74DE48F7] CRC32
01 81,4 [49C93C7B] [F238AC73]
02 92,8 [CE962E41] [BF813359]
03 85,9 [5E9F7B4F] [6B895B00]
04 100,0 [301317EF] [2DB89424]
05 81,3 [13757365] [D18E210D]
06 89,1 [A0C217BC] [A0E5C06C]
07 78,9 [EB2403D6] [A1A0DDFE]
08 100,0 [622CFEB1] [EEEE2377]
09 90,9 [78C45CBD] [CB4BF12B]

The Rolling Stones - Hot Rocks 1964-1971 (1971)

All thanks go to dafnaplus

The Rolling Stones in my Blog

Download The Rolling Stones – Hot Rocks 1964-1971 (1971):

The Rolling Stones – Hot Rocks 1964-1971 (1971) Download, Warez, DDL, Free, Full Album, Torrent, Legal.

Download