The Rascals – The Complete Singles A's & B's (2017)

Download
The Rascals - The Complete Singles A's & B's (2017)

The Rascals – The Complete Singles A’s & B’s
EAC Rip | FLAC (tracks)+cue, log, m3u, front cover | 148:11 min | 790 MB
Label: Real Gone Music – RGM-0518 | Tracks: 47 | Rls.date: 2017
Classic Rock, Pop, Oldies

With two fantastic singers and songwriters in Felix Cavaliere and Eddie Brigati, an underrated guitarist and songwriter in Gene Cornish, and the great Dino Danelli on drums (plus a pair of studio Svengalis in engineer Tom Dowd and arranger Arif Mardin to rival George Martin), The Rascals were the closest answer America had to The Beatles during the ’60s. The resemblance wasn’t limited to the composition of their line-up and the profusion of hit releases, either; like the Fab Four, The Rascals were able to author chart-topping singles while simultaneously crafting albums that held together as artistic statements. Witness the fact that The Rascals’ albums have seen numerous reissues by multiple labels; their singles, on the other hand, have eluded a comprehensive collection, in large part because the band had two phases to their career, one with the Atlantic label, the other on Columbia. Now, just over 50 years after they first hit the top of the charts with "Good Lovin’," Real Gone Music is proud to present the first-ever compilation to collect all of the band’s single sides in one place. At 47 songs strong, The Complete Singles A’s & B’s includes the A and B-side of every single The Rascals ever cut, both their hit Atlantic tracks and—for the first time ever on CD—their later Columbia 7" releases. Along the way you’ll hear such legendary songs as "I Ain’t Gonna Eat Out My Heart Anymore," "Good Lovin’," "Groovin’" (also here in its Spanish and Italian versions!), "I’ve Been Lonely Too Long," "A Girl Like You," "How Can I Be Sure," "A Beautiful Morning," "People Got to Be Free," "See," and more, the earlier tracks in their original mono single mixes (termed "the money mixes" by Cornish), the later songs in their stereo single mixes (28 of the 47 songs on the collection are mono). Such a monumental release deserves annotation commensurate with its importance, and for this 2-CD set Ed Osborne has penned a 4500-word essay containing exclusive quotes from Cavaliere, Brigati, and Cornish, punctuated with rare European picture sleeve singles and photos. Remastered by Mike Milchner at SonicVision, and featuring a total of 19 charting songs, The Complete Singles A’s & B’s takes its place as the definitive career-spanning collection from America’s greatest blue-eyed soul outfit.

TRACKLIST

CD1
1. I Ain’t Gonna Eat Out My Heart Anymore
2. Slow Down
3. Good Lovin’
4. Mustang Sally
5. You Better Run
6. Love Is a Beautiful Thing
7. Come On Up
8. What Is the Reason
9. I’ve Been Lonely Too Long
10. If You Knew
11. Groovin’
12. Sueno
13. A Girl Like You
14. It’s Love
15. Groovin’ (Spanish Version)
16. Groovin’ (Italian Version)
17. How Can I Be Sure
18. I’m So Happy Now
19. It’s Wonderful
20. Of Course
21. A Beautiful Morning
22. Rainy Day
23. People Got to Be Free
24. My World
25. A Ray of Hope
26. Any Dance’ll Do

EAC Log
Exact Audio Copy V1.3 from 2. September 2016

EAC extraction logfile from 4. July 2017, 14:45

The Rascals / The Complete Singles A’s & B’s, Disc 1

Used drive : HL-DT-STDVDRAM GH24NS90 Adapter: 1 ID: 0

Read mode : Secure
Utilize accurate stream : Yes
Defeat audio cache : Yes
Make use of C2 pointers : No

Read offset correction : 6
Overread into Lead-In and Lead-Out : No
Fill up missing offset samples with silence : Yes
Delete leading and trailing silent blocks : No
Null samples used in CRC calculations : Yes
Used interface : Native Win32 interface for Win NT & 2000
Gap handling : Appended to previous track

Used output format : User Defined Encoder
Selected bitrate : 768 kBit/s
Quality : High
Add ID3 tag : No
Command line compressor : C:Program Files (x86)Exact Audio CopyFLACFLAC.EXE
Additional command line options : -8 -V -T "ARTIST=%artist%" -T "TITLE=%title%" -T "ALBUM=%albumtitle%" -T "DATE=%year%" -T "TRACKNUMBER=%tracknr%" -T "GENRE=%genre%" -T "PERFORMER=%albuminterpret%" -T "COMPOSER=%composer%" %haslyrics%–tag-from-file=LYRICS="%lyricsfile%"%haslyrics% -T "ALBUMARTIST=%albumartist%" -T "DISCNUMBER=%cdnumber%" -T "TOTALDISCS=%totalcds%" -T "TOTALTRACKS=%numtracks%" -T "COMMENT=%comment%" %source% -o %dest%

TOC of the extracted CD

Track | Start | Length | Start sector | End sector
––––––––––––––––––––––––––––-
1 | 0:00.00 | 2:46.00 | 0 | 12449
2 | 2:46.00 | 3:14.02 | 12450 | 27001
3 | 6:00.02 | 2:32.09 | 27002 | 38410
4 | 8:32.11 | 3:25.23 | 38411 | 53808
5 | 11:57.34 | 2:28.19 | 53809 | 64927
6 | 14:25.53 | 2:34.49 | 64928 | 76526
7 | 17:00.27 | 2:45.11 | 76527 | 88912
8 | 19:45.38 | 2:26.40 | 88913 | 99902
9 | 22:12.03 | 2:07.25 | 99903 | 109452
10 | 24:19.28 | 3:05.69 | 109453 | 123396
11 | 27:25.22 | 2:30.11 | 123397 | 134657
12 | 29:55.33 | 2:48.64 | 134658 | 147321
13 | 32:44.22 | 2:47.66 | 147322 | 159912
14 | 35:32.13 | 3:13.71 | 159913 | 174458
15 | 38:46.09 | 2:34.07 | 174459 | 186015
16 | 41:20.16 | 2:35.32 | 186016 | 197672
17 | 43:55.48 | 2:54.72 | 197673 | 210794
18 | 46:50.45 | 2:49.44 | 210795 | 223513
19 | 49:40.14 | 3:24.19 | 223514 | 238832
20 | 53:04.33 | 2:44.40 | 238833 | 251172
21 | 55:48.73 | 2:35.44 | 251173 | 262841
22 | 58:24.42 | 3:27.48 | 262842 | 278414
23 | 61:52.15 | 3:01.42 | 278415 | 292031
24 | 64:53.57 | 2:55.33 | 292032 | 305189
25 | 67:49.15 | 3:43.27 | 305190 | 321941
26 | 71:32.42 | 2:20.74 | 321942 | 332515

Track 1

Filename D:EACThe Rascals – The Complete Singles A’s & B’s (2017) [FLAC]Disc 11 – I Ain’t Gonna Eat Out My Heart Anymore.wav

Pre-gap length 0:00:02.00

Peak level 95.4 %
Extraction speed 0.8 X
Track quality 99.9 %
Test CRC B0173CC0
Copy CRC B0173CC0
Accurately ripped (confidence 4) [68B9E178] (AR v2)
Copy OK

Track 2

Filename D:EACThe Rascals – The Complete Singles A’s & B’s (2017) [FLAC]Disc 12 – Slow Down.wav

Pre-gap length 0:00:01.00

Peak level 95.4 %
Extraction speed 1.1 X
Track quality 100.0 %
Test CRC E203B870
Copy CRC E203B870
Accurately ripped (confidence 4) [6025DC88] (AR v2)
Copy OK

Track 3

Filename D:EACThe Rascals – The Complete Singles A’s & B’s (2017) [FLAC]Disc 13 – Good Lovin’.wav

Pre-gap length 0:00:01.00

Peak level 95.4 %
Extraction speed 1.1 X
Track quality 100.0 %
Test CRC 743F56F8
Copy CRC 743F56F8
Accurately ripped (confidence 4) [ACB55376] (AR v2)
Copy OK

Track 4

Filename D:EACThe Rascals – The Complete Singles A’s & B’s (2017) [FLAC]Disc 14 – Mustang Sally.wav

Pre-gap length 0:00:01.00

Peak level 95.5 %
Extraction speed 1.3 X
Track quality 100.0 %
Test CRC DFE233BD
Copy CRC DFE233BD
Accurately ripped (confidence 4) [FCEBE511] (AR v2)
Copy OK

Track 5

Filename D:EACThe Rascals – The Complete Singles A’s & B’s (2017) [FLAC]Disc 15 – You Better Run.wav

Pre-gap length 0:00:01.00

Peak level 96.2 %
Extraction speed 1.2 X
Track quality 100.0 %
Test CRC BE3EBB7C
Copy CRC BE3EBB7C
Accurately ripped (confidence 4) [610F6B54] (AR v2)
Copy OK

Track 6

Filename D:EACThe Rascals – The Complete Singles A’s & B’s (2017) [FLAC]Disc 16 – Love Is a Beautiful Thing.wav

Pre-gap length 0:00:01.00

Peak level 95.4 %
Extraction speed 1.3 X
Track quality 100.0 %
Test CRC F671008C
Copy CRC F671008C
Accurately ripped (confidence 4) [C322497A] (AR v2)
Copy OK

Track 7

Filename D:EACThe Rascals – The Complete Singles A’s & B’s (2017) [FLAC]Disc 17 – Come On Up.wav

Pre-gap length 0:00:01.00

Peak level 95.4 %
Extraction speed 1.4 X
Track quality 100.0 %
Test CRC 7D373825
Copy CRC 7D373825
Accurately ripped (confidence 4) [3339021B] (AR v2)
Copy OK

Track 8

Filename D:EACThe Rascals – The Complete Singles A’s & B’s (2017) [FLAC]Disc 18 – What Is the Reason.wav

Pre-gap length 0:00:01.00

Peak level 100.0 %
Extraction speed 1.4 X
Track quality 100.0 %
Test CRC 3B387495
Copy CRC 3B387495
Accurately ripped (confidence 4) [395C7DC1] (AR v2)
Copy OK

Track 9

Filename D:EACThe Rascals – The Complete Singles A’s & B’s (2017) [FLAC]Disc 19 – I’ve Been Lonely Too Long.wav

Pre-gap length 0:00:01.00

Peak level 92.9 %
Extraction speed 1.4 X
Track quality 100.0 %
Test CRC 5F6136D7
Copy CRC 5F6136D7
Accurately ripped (confidence 4) [BD2F4F12] (AR v2)
Copy OK

Track 10

Filename D:EACThe Rascals – The Complete Singles A’s & B’s (2017) [FLAC]Disc 110 – If You Knew.wav

Pre-gap length 0:00:01.00

Peak level 89.8 %
Extraction speed 1.3 X
Track quality 99.9 %
Test CRC 9DAD3D63
Copy CRC 9DAD3D63
Accurately ripped (confidence 4) [1A93EE12] (AR v2)
Copy OK

Track 11

Filename D:EACThe Rascals – The Complete Singles A’s & B’s (2017) [FLAC]Disc 111 – Groovin’.wav

Pre-gap length 0:00:01.00

Peak level 95.4 %
Extraction speed 1.6 X
Track quality 100.0 %
Test CRC E8793449
Copy CRC E8793449
Accurately ripped (confidence 4) [2A0AB047] (AR v2)
Copy OK

Track 12

Filename D:EACThe Rascals – The Complete Singles A’s & B’s (2017) [FLAC]Disc 112 – Sueno.wav

Pre-gap length 0:00:01.00

Peak level 95.6 %
Extraction speed 1.6 X
Track quality 100.0 %
Test CRC 8B79459B
Copy CRC 8B79459B
Accurately ripped (confidence 4) [DAAF49D0] (AR v2)
Copy OK

Track 13

Filename D:EACThe Rascals – The Complete Singles A’s & B’s (2017) [FLAC]Disc 113 – A Girl Like You.wav

Pre-gap length 0:00:01.00

Peak level 95.4 %
Extraction speed 1.6 X
Track quality 100.0 %
Test CRC 54449809
Copy CRC 54449809
Accurately ripped (confidence 4) [9056D87A] (AR v2)
Copy OK

Track 14

Filename D:EACThe Rascals – The Complete Singles A’s & B’s (2017) [FLAC]Disc 114 – It’s Love.wav

Pre-gap length 0:00:01.00

Peak level 95.4 %
Extraction speed 1.8 X
Track quality 100.0 %
Test CRC 138916AA
Copy CRC 138916AA
Accurately ripped (confidence 4) [D9E42198] (AR v2)
Copy OK

Track 15

Filename D:EACThe Rascals – The Complete Singles A’s & B’s (2017) [FLAC]Disc 115 – Groovin’ (Spanish Version).wav

Pre-gap length 0:00:01.00

Peak level 76.9 %
Extraction speed 1.7 X
Track quality 100.0 %
Test CRC 74FFE3BC
Copy CRC 74FFE3BC
Accurately ripped (confidence 4) [4B8ADB52] (AR v2)
Copy OK

Track 16

Filename D:EACThe Rascals – The Complete Singles A’s & B’s (2017) [FLAC]Disc 116 – Groovin’ (Italian Version).wav

Pre-gap length 0:00:01.00

Peak level 79.1 %
Extraction speed 1.8 X
Track quality 100.0 %
Test CRC D3D29B81
Copy CRC D3D29B81
Accurately ripped (confidence 4) [9BA026FE] (AR v2)
Copy OK

Track 17

Filename D:EACThe Rascals – The Complete Singles A’s & B’s (2017) [FLAC]Disc 117 – How Can I Be Sure.wav

Pre-gap length 0:00:01.00

Peak level 95.4 %
Extraction speed 1.6 X
Track quality 99.9 %
Test CRC 149D7E3A
Copy CRC 149D7E3A
Accurately ripped (confidence 4) [7751BF52] (AR v2)
Copy OK

Track 18

Filename D:EACThe Rascals – The Complete Singles A’s & B’s (2017) [FLAC]Disc 118 – I’m So Happy Now.wav

Pre-gap length 0:00:01.00

Peak level 95.4 %
Extraction speed 1.9 X
Track quality 100.0 %
Test CRC 1EEC5EA0
Copy CRC 1EEC5EA0
Accurately ripped (confidence 4) [AFF4A206] (AR v2)
Copy OK

Track 19

Filename D:EACThe Rascals – The Complete Singles A’s & B’s (2017) [FLAC]Disc 119 – It’s Wonderful.wav

Pre-gap length 0:00:01.00

Peak level 95.5 %
Extraction speed 2.0 X
Track quality 100.0 %
Test CRC 3CCA9FB3
Copy CRC 3CCA9FB3
Accurately ripped (confidence 4) [4578D10E] (AR v2)
Copy OK

Track 20

Filename D:EACThe Rascals – The Complete Singles A’s & B’s (2017) [FLAC]Disc 120 – Of Course.wav

Pre-gap length 0:00:01.00

Peak level 95.4 %
Extraction speed 2.0 X
Track quality 100.0 %
Test CRC D9EDDD22
Copy CRC D9EDDD22
Accurately ripped (confidence 4) [DDCAC03F] (AR v2)
Copy OK

Track 21

Filename D:EACThe Rascals – The Complete Singles A’s & B’s (2017) [FLAC]Disc 121 – A Beautiful Morning.wav

Pre-gap length 0:00:01.00

Peak level 95.4 %
Extraction speed 1.9 X
Track quality 100.0 %
Test CRC D00CF796
Copy CRC D00CF796
Accurately ripped (confidence 4) [6DA254DD] (AR v2)
Copy OK

Track 22

Filename D:EACThe Rascals – The Complete Singles A’s & B’s (2017) [FLAC]Disc 122 – Rainy Day.wav

Pre-gap length 0:00:01.00

Peak level 95.4 %
Extraction speed 2.1 X
Track quality 100.0 %
Test CRC 0F2586B2
Copy CRC 0F2586B2
Accurately ripped (confidence 4) [C9D8F63D] (AR v2)
Copy OK

Track 23

Filename D:EACThe Rascals – The Complete Singles A’s & B’s (2017) [FLAC]Disc 123 – People Got to Be Free.wav

Pre-gap length 0:00:01.00

Peak level 95.4 %
Extraction speed 1.8 X
Track quality 99.9 %
Test CRC 803E9DB3
Copy CRC 803E9DB3
Accurately ripped (confidence 4) [DEB84E73] (AR v2)
Copy OK

Track 24

Filename D:EACThe Rascals – The Complete Singles A’s & B’s (2017) [FLAC]Disc 124 – My World.wav

Pre-gap length 0:00:01.00

Peak level 95.4 %
Extraction speed 2.2 X
Track quality 100.0 %
Test CRC 7C2604A4
Copy CRC 7C2604A4
Accurately ripped (confidence 4) [162CF13D] (AR v2)
Copy OK

Track 25

Filename D:EACThe Rascals – The Complete Singles A’s & B’s (2017) [FLAC]Disc 125 – A Ray of Hope.wav

Pre-gap length 0:00:01.00

Peak level 96.5 %
Extraction speed 2.3 X
Track quality 100.0 %
Test CRC 9DBCA583
Copy CRC 9DBCA583
Accurately ripped (confidence 4) [D8DB9867] (AR v2)
Copy OK

Track 26

Filename D:EACThe Rascals – The Complete Singles A’s & B’s (2017) [FLAC]Disc 126 – Any Dance’ll Do.wav

Pre-gap length 0:00:01.00

Peak level 96.6 %
Extraction speed 2.1 X
Track quality 100.0 %
Test CRC 3BA2CBFD
Copy CRC 3BA2CBFD
Accurately ripped (confidence 4) [E37CDD7C] (AR v2)
Copy OK

All tracks accurately ripped

No errors occurred

End of status report

–– CUETools DB Plugin V2.1.6

[CTDB TOCID: t.O0UMjO6zmji4UzWwKwGvbshu0-] found
Submit result: t.O0UMjO6zmji4UzWwKwGvbshu0- has been confirmed
Track | CTDB Status
1 | (14/14) Accurately ripped
2 | (14/14) Accurately ripped
3 | (14/14) Accurately ripped
4 | (14/14) Accurately ripped
5 | (14/14) Accurately ripped
6 | (14/14) Accurately ripped
7 | (14/14) Accurately ripped
8 | (14/14) Accurately ripped
9 | (14/14) Accurately ripped
10 | (14/14) Accurately ripped
11 | (14/14) Accurately ripped
12 | (14/14) Accurately ripped
13 | (14/14) Accurately ripped
14 | (14/14) Accurately ripped
15 | (14/14) Accurately ripped
16 | (14/14) Accurately ripped
17 | (14/14) Accurately ripped
18 | (14/14) Accurately ripped
19 | (14/14) Accurately ripped
20 | (14/14) Accurately ripped
21 | (14/14) Accurately ripped
22 | (14/14) Accurately ripped
23 | (14/14) Accurately ripped
24 | (14/14) Accurately ripped
25 | (14/14) Accurately ripped
26 | (14/14) Accurately ripped

==== Log checksum 93C4BE74400187267BBC4641639D2B9506DCC670B04CF78189A7191CE528C918 ====

CD2
1. Heaven
2. Baby I’m Blue
3. See
4. Away, Away
5. Carry Me Back
6. Real Thing
7. Hold On
8. I Believe
9. Glory, Glory
10. You Don’t Know
11. Right On
12. Almost Home
13. Love Me
14. Happy Song
15. Lucky Day
16. Love Letter
17. Brother Tree
18. Saga of New York
19. Hummin’ Song
20. Echoes
21. Jungle Walk

EAC Log
Exact Audio Copy V1.3 from 2. September 2016

EAC extraction logfile from 4. July 2017, 17:27

The Rascals / The Complete Singles A’s & B’s, Disc 2

Used drive : HL-DT-STDVDRAM GH24NS90 Adapter: 1 ID: 0

Read mode : Secure
Utilize accurate stream : Yes
Defeat audio cache : Yes
Make use of C2 pointers : No

Read offset correction : 6
Overread into Lead-In and Lead-Out : No
Fill up missing offset samples with silence : Yes
Delete leading and trailing silent blocks : No
Null samples used in CRC calculations : Yes
Used interface : Native Win32 interface for Win NT & 2000
Gap handling : Appended to previous track

Used output format : User Defined Encoder
Selected bitrate : 768 kBit/s
Quality : High
Add ID3 tag : No
Command line compressor : C:Program Files (x86)Exact Audio CopyFLACFLAC.EXE
Additional command line options : -8 -V -T "ARTIST=%artist%" -T "TITLE=%title%" -T "ALBUM=%albumtitle%" -T "DATE=%year%" -T "TRACKNUMBER=%tracknr%" -T "GENRE=%genre%" -T "PERFORMER=%albuminterpret%" -T "COMPOSER=%composer%" %haslyrics%–tag-from-file=LYRICS="%lyricsfile%"%haslyrics% -T "ALBUMARTIST=%albumartist%" -T "DISCNUMBER=%cdnumber%" -T "TOTALDISCS=%totalcds%" -T "TOTALTRACKS=%numtracks%" -T "COMMENT=%comment%" %source% -o %dest%

TOC of the extracted CD

Track | Start | Length | Start sector | End sector
––––––––––––––––––––––––––––-
1 | 0:00.00 | 3:24.28 | 0 | 15327
2 | 3:24.28 | 2:50.64 | 15328 | 28141
3 | 6:15.17 | 4:35.53 | 28142 | 48819
4 | 10:50.70 | 3:24.65 | 48820 | 64184
5 | 14:15.60 | 2:51.71 | 64185 | 77080
6 | 17:07.56 | 2:44.38 | 77081 | 89418
7 | 19:52.19 | 3:36.18 | 89419 | 105636
8 | 23:28.37 | 3:57.32 | 105637 | 123443
9 | 27:25.69 | 3:26.54 | 123444 | 138947
10 | 30:52.48 | 4:11.39 | 138948 | 157811
11 | 35:04.12 | 3:47.28 | 157812 | 174864
12 | 38:51.40 | 3:48.63 | 174865 | 192027
13 | 42:40.28 | 3:13.23 | 192028 | 206525
14 | 45:53.51 | 3:43.53 | 206526 | 223303
15 | 49:37.29 | 3:08.36 | 223304 | 237439
16 | 52:45.65 | 5:26.42 | 237440 | 261931
17 | 58:12.32 | 3:02.03 | 261932 | 275584
18 | 61:14.35 | 4:05.64 | 275585 | 294023
19 | 65:20.24 | 3:27.15 | 294024 | 309563
20 | 68:47.39 | 3:09.50 | 309564 | 323788
21 | 71:57.14 | 2:44.08 | 323789 | 336096

Track 1

Filename D:EACThe Rascals – The Complete Singles A’s & B’s (2017) [FLAC]Disc 11 – Heaven.wav

Pre-gap length 0:00:02.00

Peak level 96.7 %
Extraction speed 1.0 X
Track quality 100.0 %
Test CRC 75FF1DFB
Copy CRC 75FF1DFB
Accurately ripped (confidence 4) [7CC400C8] (AR v2)
Copy OK

Track 2

Filename D:EACThe Rascals – The Complete Singles A’s & B’s (2017) [FLAC]Disc 12 – Baby I’m Blue.wav

Pre-gap length 0:00:01.00

Peak level 96.5 %
Extraction speed 1.1 X
Track quality 100.0 %
Test CRC 127EDE93
Copy CRC 127EDE93
Accurately ripped (confidence 4) [85427984] (AR v2)
Copy OK

Track 3

Filename D:EACThe Rascals – The Complete Singles A’s & B’s (2017) [FLAC]Disc 13 – See.wav

Peak level 96.5 %
Extraction speed 1.3 X
Track quality 100.0 %
Test CRC DDBCA6E0
Copy CRC DDBCA6E0
Accurately ripped (confidence 4) [AFC7CB6F] (AR v2)
Copy OK

Track 4

Filename D:EACThe Rascals – The Complete Singles A’s & B’s (2017) [FLAC]Disc 14 – Away, Away.wav

Pre-gap length 0:00:01.00

Peak level 95.4 %
Extraction speed 1.1 X
Track quality 99.9 %
Test CRC 7B07B9A2
Copy CRC 7B07B9A2
Accurately ripped (confidence 4) [06982C3F] (AR v2)
Copy OK

Track 5

Filename D:EACThe Rascals – The Complete Singles A’s & B’s (2017) [FLAC]Disc 15 – Carry Me Back.wav

Peak level 95.4 %
Extraction speed 1.1 X
Track quality 99.9 %
Test CRC AC0B1F6D
Copy CRC AC0B1F6D
Accurately ripped (confidence 4) [8BFD373C] (AR v2)
Copy OK

Track 6

Filename D:EACThe Rascals – The Complete Singles A’s & B’s (2017) [FLAC]Disc 16 – Real Thing.wav

Pre-gap length 0:00:01.00

Peak level 95.5 %
Extraction speed 1.4 X
Track quality 100.0 %
Test CRC 2AE19005
Copy CRC 2AE19005
Accurately ripped (confidence 4) [79E2259B] (AR v2)
Copy OK

Track 7

Filename D:EACThe Rascals – The Complete Singles A’s & B’s (2017) [FLAC]Disc 17 – Hold On.wav

Peak level 95.4 %
Extraction speed 1.5 X
Track quality 100.0 %
Test CRC BD3E4CDB
Copy CRC BD3E4CDB
Accurately ripped (confidence 4) [29309123] (AR v2)
Copy OK

Track 8

Filename D:EACThe Rascals – The Complete Singles A’s & B’s (2017) [FLAC]Disc 18 – I Believe.wav

Peak level 95.4 %
Extraction speed 1.6 X
Track quality 100.0 %
Test CRC 068AC336
Copy CRC 068AC336
Accurately ripped (confidence 4) [92A0D4E1] (AR v2)
Copy OK

Track 9

Filename D:EACThe Rascals – The Complete Singles A’s & B’s (2017) [FLAC]Disc 19 – Glory, Glory.wav

Pre-gap length 0:00:01.00

Peak level 95.4 %
Extraction speed 1.6 X
Track quality 100.0 %
Test CRC 4B41FD92
Copy CRC 4B41FD92
Accurately ripped (confidence 4) [C2AA350F] (AR v2)
Copy OK

Track 10

Filename D:EACThe Rascals – The Complete Singles A’s & B’s (2017) [FLAC]Disc 110 – You Don’t Know.wav

Peak level 95.4 %
Extraction speed 1.8 X
Track quality 100.0 %
Test CRC 2203F8B9
Copy CRC 2203F8B9
Accurately ripped (confidence 4) [D6A4C2E1] (AR v2)
Copy OK

Track 11

Filename D:EACThe Rascals – The Complete Singles A’s & B’s (2017) [FLAC]Disc 111 – Right On.wav

Peak level 95.4 %
Extraction speed 1.6 X
Track quality 99.9 %
Test CRC 94596401
Copy CRC 94596401
Accurately ripped (confidence 4) [274E68B4] (AR v2)
Copy OK

Track 12

Filename D:EACThe Rascals – The Complete Singles A’s & B’s (2017) [FLAC]Disc 112 – Almost Home.wav

Pre-gap length 0:00:01.00

Peak level 95.4 %
Extraction speed 1.9 X
Track quality 100.0 %
Test CRC 4AFA6A06
Copy CRC 4AFA6A06
Accurately ripped (confidence 4) [D814A3F1] (AR v2)
Copy OK

Track 13

Filename D:EACThe Rascals – The Complete Singles A’s & B’s (2017) [FLAC]Disc 113 – Love Me.wav

Pre-gap length 0:00:01.00

Peak level 95.4 %
Extraction speed 1.9 X
Track quality 100.0 %
Test CRC FA674E3B
Copy CRC FA674E3B
Accurately ripped (confidence 4) [6A321A47] (AR v2)
Copy OK

Track 14

Filename D:EACThe Rascals – The Complete Singles A’s & B’s (2017) [FLAC]Disc 114 – Happy Song.wav

Pre-gap length 0:00:01.00

Peak level 95.4 %
Extraction speed 2.0 X
Track quality 100.0 %
Test CRC 52ADB5CD
Copy CRC 52ADB5CD
Accurately ripped (confidence 4) [F87D2566] (AR v2)
Copy OK

Track 15

Filename D:EACThe Rascals – The Complete Singles A’s & B’s (2017) [FLAC]Disc 115 – Lucky Day.wav

Pre-gap length 0:00:01.00

Peak level 95.4 %
Extraction speed 2.0 X
Track quality 100.0 %
Test CRC 36DF6124
Copy CRC 36DF6124
Accurately ripped (confidence 4) [E2A6C934] (AR v2)
Copy OK

Track 16

Filename D:EACThe Rascals – The Complete Singles A’s & B’s (2017) [FLAC]Disc 116 – Love Letter.wav

Peak level 96.6 %
Extraction speed 2.2 X
Track quality 100.0 %
Test CRC F75C0547
Copy CRC F75C0547
Accurately ripped (confidence 4) [AE756B4F] (AR v2)
Copy OK

Track 17

Filename D:EACThe Rascals – The Complete Singles A’s & B’s (2017) [FLAC]Disc 117 – Brother Tree.wav

Peak level 95.4 %
Extraction speed 2.1 X
Track quality 100.0 %
Test CRC AF23C0E3
Copy CRC AF23C0E3
Accurately ripped (confidence 4) [5F045763] (AR v2)
Copy OK

Track 18

Filename D:EACThe Rascals – The Complete Singles A’s & B’s (2017) [FLAC]Disc 118 – Saga of New York.wav

Peak level 95.4 %
Extraction speed 2.3 X
Track quality 100.0 %
Test CRC 54FB84CE
Copy CRC 54FB84CE
Accurately ripped (confidence 4) [01D61124] (AR v2)
Copy OK

Track 19

Filename D:EACThe Rascals – The Complete Singles A’s & B’s (2017) [FLAC]Disc 119 – Hummin’ Song.wav

Pre-gap length 0:00:01.00

Peak level 95.4 %
Extraction speed 2.2 X
Track quality 100.0 %
Test CRC 405891B2
Copy CRC 405891B2
Accurately ripped (confidence 4) [FC104A7F] (AR v2)
Copy OK

Track 20

Filename D:EACThe Rascals – The Complete Singles A’s & B’s (2017) [FLAC]Disc 120 – Echoes.wav

Peak level 96.5 %
Extraction speed 2.3 X
Track quality 100.0 %
Test CRC 2383AD35
Copy CRC 2383AD35
Accurately ripped (confidence 4) [7D37661B] (AR v2)
Copy OK

Track 21

Filename D:EACThe Rascals – The Complete Singles A’s & B’s (2017) [FLAC]Disc 121 – Jungle Walk.wav

Peak level 96.5 %
Extraction speed 2.2 X
Track quality 100.0 %
Test CRC BB60C37E
Copy CRC BB60C37E
Accurately ripped (confidence 4) [E8F4DFE2] (AR v2)
Copy OK

All tracks accurately ripped

No errors occurred

End of status report

–– CUETools DB Plugin V2.1.6

[CTDB TOCID: AzWJAciiVQnbDHQZZRvirDzP3lU-] found
Submit result: AzWJAciiVQnbDHQZZRvirDzP3lU- has been confirmed
Track | CTDB Status
1 | (12/12) Accurately ripped
2 | (12/12) Accurately ripped
3 | (12/12) Accurately ripped
4 | (12/12) Accurately ripped
5 | (12/12) Accurately ripped
6 | (12/12) Accurately ripped
7 | (12/12) Accurately ripped
8 | (12/12) Accurately ripped
9 | (12/12) Accurately ripped
10 | (12/12) Accurately ripped
11 | (12/12) Accurately ripped
12 | (12/12) Accurately ripped
13 | (12/12) Accurately ripped
14 | (12/12) Accurately ripped
15 | (12/12) Accurately ripped
16 | (12/12) Accurately ripped
17 | (12/12) Accurately ripped
18 | (12/12) Accurately ripped
19 | (12/12) Accurately ripped
20 | (12/12) Accurately ripped
21 | (12/12) Accurately ripped

==== Log checksum 11D9FA23D535E8E6820D2445A78772EF22E95D25330158D113BEFFF79161C845 ====

Thanks to the Original customer.

The Rascals – The Complete Singles A's & B's (2017) Download, Warez, DDL, Free, Full Album, Torrent, Legal.

Download