The Ramirez Brothers – The Ramirez Brothers (2009)

Download
The Ramirez Brothers - The Ramirez Brothers (2009)

The Ramirez Brothers – The Ramirez Brothers (2009)
EAC Rip | FLAC (Image) +CUE, LOG | 303 MB | Covers Included
Genre: Rock & Roll, Country Blues | Label: Audio Montage Entertainment | Catalog Number: AMCD008

Uzi Feinerman (Boom Pam) – Guitar & Vocals, Sefi Zisling (Funk’n’stein) – Trumpet, and Eitan Efrat – Drums are "The Ramirez Brothers", a power trio that has gained many fans in the past few years. The Ramirez Brothers’ shows have earned a cult following in their native Tel Aviv town.
The Ramirez musical journey fuses a groovy mixture with influences ranging from Jimi Hendrix’ blues, through Funk and Rockabilly to Americana, which creates an old/new unique sound.
The Ramirez Brothers’ debut album was released in January 2009 and has received since then great critical acclaim amongst music lovers and groove diggers around the globe.
The album was recorded analogically, reel to reel, in a garage full of antique toys in Jaffa, co-produced with Mixmonster, released on the "Audio Montage" label (The Apples, Radio Trip, Digital_Me and Markey Funk, UBK) which has become the Israeli alternative label for quality music.
Their EP “One Night” was released on May 2010. In this covers album, The Ramirez Brothers paid tributes to their most beloved musicians and performers, including Elvis Presley, Woody Guthrie, Elizabeth Cotton, Robert Johnson and Ronnie Hawkins.
These days The Ramirez Brothers are playing in venues and festivals across Israel and in Europe & the UK.
In their Christmas EP “A Ramirez Christmas”, which was released in December 2010, one could find Christmas classics such as “Rudolf the red nosed reindeer”, “Let It Snow” and others.
In this project the brothers have continued to explore the roots of
American music.
Never celebrated Christmas, the brothers redefine the borders of tradition, both musically and culturally.
“The Ramirez Brothers are a great example of the collapsing of the defining walls of music. Their print in very present, unified and unique.‘ Sherine Levi-Fristy
"In the depressing musical reality we live in, the Ramirez Brothers bring a shot of purified life energy straight to the vein." Avi Efrati, Yediot TLV

EAC Log
Exact Audio Copy V1.3 from 2. September 2016

EAC extraction logfile from 9. December 2016, 16:56

The Ramirez Brothers / The Ramirez Brothers

Used drive : HL-DT-STDVDRAM GH24NSB0 Adapter: 1 ID: 0

Read mode : Secure
Utilize accurate stream : Yes
Defeat audio cache : Yes
Make use of C2 pointers : No

Read offset correction : 6
Overread into Lead-In and Lead-Out : No
Fill up missing offset samples with silence : Yes
Delete leading and trailing silent blocks : No
Null samples used in CRC calculations : Yes
Used interface : Native Win32 interface for Win NT & 2000
Gap handling : Appended to previous track

Used output format : User Defined Encoder
Selected bitrate : 1024 kBit/s
Quality : High
Add ID3 tag : No
Command line compressor : C:Program Files (x86)Exact Audio CopyFLACFLAC.EXE
Additional command line options : -V -8 -T "ARTIST=%artist%" -T "TITLE=%title%" -T "ALBUM=%albumtitle%" -T "DATE=%year%" -T "TRACKNUMBER=%tracknr%" -T "GENRE=%genre%" -T "COMMENT=ripped by Musicgate" %source% -o %dest%

TOC of the extracted CD

Track | Start | Length | Start sector | End sector
––––––––––––––––––––––––––––-
1 | 0:00.00 | 3:45.43 | 0 | 16917
2 | 3:45.43 | 4:48.50 | 16918 | 38567
3 | 8:34.18 | 1:25.52 | 38568 | 44994
4 | 9:59.70 | 5:04.27 | 44995 | 67821
5 | 15:04.22 | 4:57.65 | 67822 | 90161
6 | 20:02.12 | 4:41.03 | 90162 | 111239
7 | 24:43.15 | 1:28.01 | 111240 | 117840
8 | 26:11.16 | 3:13.09 | 117841 | 132324
9 | 29:24.25 | 4:29.06 | 132325 | 152505
10 | 33:53.31 | 2:44.61 | 152506 | 164866
11 | 36:38.17 | 1:03.68 | 164867 | 169659
12 | 37:42.10 | 4:42.73 | 169660 | 190882
13 | 42:25.08 | 4:49.35 | 190883 | 212592

Track 1

Filename D:Musicgate’s ripsThe Ramirez Brothers – The Ramirez Brothers – 20091 – Mine Funk.wav

Pre-gap length 0:00:02.00

Peak level 98.8 %
Extraction speed 1.0 X
Track quality 100.0 %
Test CRC 9026486C
Copy CRC 9026486C
Accurately ripped (confidence 1) [E37A5213] (AR v1)
Copy OK

Track 2

Filename D:Musicgate’s ripsThe Ramirez Brothers – The Ramirez Brothers – 20092 – Cactus.wav

Peak level 98.8 %
Extraction speed 1.2 X
Track quality 100.0 %
Test CRC BB5A3DEB
Copy CRC BB5A3DEB
Accurately ripped (confidence 1) [BF89B67B] (AR v1)
Copy OK

Track 3

Filename D:Musicgate’s ripsThe Ramirez Brothers – The Ramirez Brothers – 20093 – Chokin’ The Chicken.wav

Peak level 93.0 %
Extraction speed 1.0 X
Track quality 100.0 %
Test CRC 3906FC86
Copy CRC 3906FC86
Accurately ripped (confidence 1) [B2B5CBEE] (AR v1)
Copy OK

Track 4

Filename D:Musicgate’s ripsThe Ramirez Brothers – The Ramirez Brothers – 20094 – Sizzlin’.wav

Peak level 98.8 %
Extraction speed 1.3 X
Track quality 100.0 %
Test CRC 27BFC4A1
Copy CRC 27BFC4A1
Accurately ripped (confidence 1) [2FDDD842] (AR v1)
Copy OK

Track 5

Filename D:Musicgate’s ripsThe Ramirez Brothers – The Ramirez Brothers – 20095 – Night Stalker.wav

Peak level 98.8 %
Extraction speed 1.5 X
Track quality 100.0 %
Test CRC E47E839F
Copy CRC E47E839F
Accurately ripped (confidence 1) [C8537F40] (AR v1)
Copy OK

Track 6

Filename D:Musicgate’s ripsThe Ramirez Brothers – The Ramirez Brothers – 20096 – Oops.wav

Peak level 98.8 %
Extraction speed 1.6 X
Track quality 100.0 %
Test CRC 11629A20
Copy CRC 11629A20
Accurately ripped (confidence 1) [3B75B23D] (AR v1)
Copy OK

Track 7

Filename D:Musicgate’s ripsThe Ramirez Brothers – The Ramirez Brothers – 20097 – Rhino Suicide.wav

Peak level 92.1 %
Extraction speed 1.3 X
Track quality 100.0 %
Test CRC D6134E3C
Copy CRC D6134E3C
Accurately ripped (confidence 1) [4A337D53] (AR v1)
Copy OK

Track 8

Filename D:Musicgate’s ripsThe Ramirez Brothers – The Ramirez Brothers – 20098 – I Want You.wav

Peak level 98.8 %
Extraction speed 1.6 X
Track quality 100.0 %
Test CRC A55E4F51
Copy CRC A55E4F51
Accurately ripped (confidence 1) [789E0C5D] (AR v1)
Copy OK

Track 9

Filename D:Musicgate’s ripsThe Ramirez Brothers – The Ramirez Brothers – 20099 – Yabi.wav

Peak level 98.8 %
Extraction speed 1.7 X
Track quality 100.0 %
Test CRC 5ECC0F21
Copy CRC 5ECC0F21
Accurately ripped (confidence 1) [018F1D0E] (AR v1)
Copy OK

Track 10

Filename D:Musicgate’s ripsThe Ramirez Brothers – The Ramirez Brothers – 200910 – Taltalim.wav

Peak level 98.8 %
Extraction speed 1.7 X
Track quality 100.0 %
Test CRC F4790F2C
Copy CRC F4790F2C
Accurately ripped (confidence 1) [58ED954D] (AR v1)
Copy OK

Track 11

Filename D:Musicgate’s ripsThe Ramirez Brothers – The Ramirez Brothers – 200911 – G68.wav

Peak level 98.8 %
Extraction speed 1.3 X
Track quality 100.0 %
Test CRC D9A9190E
Copy CRC D9A9190E
Accurately ripped (confidence 1) [6F5A6A17] (AR v1)
Copy OK

Track 12

Filename D:Musicgate’s ripsThe Ramirez Brothers – The Ramirez Brothers – 200912 – Tara.wav

Peak level 98.8 %
Extraction speed 1.9 X
Track quality 100.0 %
Test CRC 2C0DB56D
Copy CRC 2C0DB56D
Accurately ripped (confidence 1) [2C48AE89] (AR v1)
Copy OK

Track 13

Filename D:Musicgate’s ripsThe Ramirez Brothers – The Ramirez Brothers – 200913 – Set My Soul Free.wav

Peak level 98.8 %
Extraction speed 2.0 X
Track quality 100.0 %
Test CRC DDBDA876
Copy CRC DDBDA876
Accurately ripped (confidence 1) [10AC852D] (AR v1)
Copy OK

All tracks accurately ripped

No errors occurred

End of status report

==== Log checksum 005C33A2FB41FB1B9D6D6BBAFEF3A1830BB446A3E5A01B9BFB6BBC517C67F556 ====

Tracklist:
1. Mine Funk
2. Cactus
3. Chokin’ the Chicken
4. Sizzlin’
5. Night Stalker
6. Oops
7. Rhino Suicide
8. I Want You
9. Yabi
10. Taltalim
11. G68
12. Tara
13. Set My Soul Free

The Ramirez Brothers – The Ramirez Brothers (2009) Download, Warez, DDL, Free, Full Album, Torrent, Legal.

Download