The Radio Dept. – Albums Collection 2003-2010 (3CD) [Re-Up] | ViralVideoPk

Daily Dose of Free Downloads

The Radio Dept. – Albums Collection 2003-2010 (3CD) [Re-Up]

Download

The Radio Dept. - Albums Collection 2003-2010 (3CD) [Re-Up]

The Radio Dept. – Albums Collection 2003-2010 (3CD)
EAC | FLAC | Tracks (Cue&Log) ~ 895 Mb | Mp3 (CBR320) ~ 316 Mb | Scans included
Genre: Dream Pop, Indie Pop, Shoegazing, Synthpop | Label: Labrador | Time: 01:55:39

Hailing from Sweden, the Radio Dept. is one of Scandinavia’s finest indie-rock bands. Collection includes: Lesser Matters (2003); Pet Grief (2006); Clinging to a Scheme (2010).

The Radio Dept. were one of the more successful shoegaze-influenced indie rock bands to come out of Sweden in the early 2000s, making waves among indie aficionados on the strength of their critically acclaimed first release, Lesser Matters. Elin Almered and Johan Duncanson formed a prototypical version of the group in Lund, Sweden, in 1995 while they were in high school, naming the group after a gas station called Radioavdelningen. Almered and Duncanson disbanded almost as soon as they’d found a name, but Duncanson revived the group three years later, teaming up with Martin Larsson. Bassist Lisa Carlberg, drummer Per Blomgren, and keyboardist Daniel Tjader rounded out the lineup in 2001, and things took off for the group at that point. They sent a demo to Sonic magazine, which went on to feature the band on a CD sampler. Swedish indie giant Labrador caught wind of the demo via the sampler and snapped the band up; the group’s debut full-length, Lesser Matters, arrived two years later, during which time Blomgren amicably split with the group. That album and the band’s second release on Labrador, 2005’s Pulling Our Weight EP, received widespread attention with the release of Sofia Coppola’s Marie Antoinette, which featured "Keen on Boys," "Pulling Our Weight," and "I Don’t Like It Like This."

Carlberg left the group soon after Pulling Our Weight was released, and the group refrained from hiring another bassist, opting instead for the use of a drum machine on its next album. That release, 2006’s Pet Grief, found Duncanson and Larsson turning away from the guitar-driven aspects of their first full-length and delving into synth pop in the spirit of the Pet Shop Boys. Due to various factors, including the fact that the band didn’t tour heavily in support of the album, Pet Grief failed to sell as well as its predecessor and received little attention from the mainstream music press. The Radio Dept. took their time recording material for their next album, and it wasn’t until summer of 2008 that a new single, Freddie and the Trojan Horse, was released. More delays led to nothing further surfacing until the next summer, when the single David was released. The album that had been rumored to be finished in late 2008, Clinging to a Scheme, finally saw the light of day in April of 2010.

Margaret Reges, Allmusic.com

The Radio Dept. - Albums Collection 2003-2010 (3CD) [Re-Up]

The Radio Dept. - Albums Collection 2003-2010 (3CD) [Re-Up]

The Radio Dept. at Wikipedia
The Radio Dept. Website

The Radio Dept. - Albums Collection 2003-2010 (3CD) [Re-Up]

The Radio Dept. – Lesser Matters (2003)
EAC | FLAC | Tracks (Cue&Log) ~ 341 Mb | Mp3 (CBR320) ~ 113 Mb
Label: Labrador | # LAB035 | Time: 00:43:22 | Scans included

The Radio Dept. are an indie rock band who play fuzzed-out, ramshackle pop songs, and Lesser Matters, their debut full-length, was self-recorded in homes and small studios with unabashedly lo-fi production values, but it somehow manages to project a timeless elegance and aplomb that belie this unassuming provenance. The album crystallizes and perfects a certain strain of understated, sophisticated, genially gritty modern pop/rock, drawing on a host of familiar 1980s post-punk touchstones from shoegaze and noise pop (My Bloody Valentine, Jesus and Mary Chain) to vintage indie pop (Orange Juice, Felt) and major-league rockers like the Cure and New Order (both of whom, not so coincidentally, appeared alongside The Radio Dept. on Sofia Coppola’s Marie Antoinette soundtrack) to create something that doesn’t seem like it should be all that extraordinary, but ends up as much more than the sum of its parts. And those parts are already pretty enjoyable in themselves – the guitars, most prominently, sometimes rangy languorous jangles but more often bleary, gloriously distorted smears that make anything else around them seem cleanly recorded by comparison, from cheap and crunchy drum machines to Johan Duncanson’s wispy, barely-there vocals, which are merely draped in reverb when the rest of a track is draped in fuzz. But, crucially, where Lesser Matters really shines is in the songwriting. There are truly too many highlights to list, from the dynamic one-two punch that opens the album – after the gentle, synth-kissed preamble "Too Soon," drummer Per Blomgren clicks off the relatively raucous "Where Damage Isn’t Already Done" in a burst of sloppy, quasi-punk energy – to nostalgic, ambling pop songs like "1995" and "Your Father" to the twin fuzz-drenched peaks of "Keen on Boys" and "Against the Tide." Music this stylish and atmospheric can often be great-sounding but emotionally empty, but Duncanson’s indelible melodies and vividly sketched lyrics – fittingly melancholy, but not hopelessly mopey – prevent these songs from ever feeling detached despite the hazy production and his often dispassionate delivery, and make this the rare retro-informed album that fully deserves to stand alongside its influences.

K. Ross Hoffman, Allmusic.com

Tracklist:

01. Too Soon (01:17)
02. Where Damage Isn’t Already Done (02:43)
03. Keen On Boys (04:53)
04. Why Won’t You Talk About It? (03:09)
05. It’s Been Eight Years (02:33)
06. Bus (02:58)
07. Slottet #2 (03:07)
08. 1995 (03:12)
09. Against The Tide (04:23)
10. Strange Things Will Happen (04:27)
11. Your Father (04:01)
12. Ewan (02:24)
13. Lost And Found (04:09)

EAC log
Exact Audio Copy V0.99 prebeta 4 from 23. January 2008

EAC extraction logfile from 26. June 2008, 9:33

The Radio Dept. / Lesser Matters

Used drive : TOSHIBA ODD-DVD SD-R6372 Adapter: 1 ID: 0

Read mode : Secure
Utilize accurate stream : Yes
Defeat audio cache : Yes
Make use of C2 pointers : No

Read offset correction : 116
Overread into Lead-In and Lead-Out : No
Fill up missing offset samples with silence : Yes
Delete leading and trailing silent blocks : No
Null samples used in CRC calculations : Yes
Used interface : Native Win32 interface for Win NT & 2000
Gap handling : Appended to previous track

Used output format : User Defined Encoder
Selected bitrate : 768 kBit/s
Quality : High
Add ID3 tag : No
Command line compressor : C:Program FilesFLACflac.exe
Additional command line options : -V -8 -T "artist=%a" -T "title=%t" -T "album=%g" -T "date=%y" -T "tracknumber=%n" %s

TOC of the extracted CD

Track | Start | Length | Start sector | End sector
––––––––––––––––––––––––––––-
1 | 0:00.00 | 1:17.48 | 0 | 5822
2 | 1:17.48 | 2:43.52 | 5823 | 18099
3 | 4:01.25 | 4:53.12 | 18100 | 40086
4 | 8:54.37 | 3:09.60 | 40087 | 54321
5 | 12:04.22 | 2:33.62 | 54322 | 65858
6 | 14:38.09 | 2:58.35 | 65859 | 79243
7 | 17:36.44 | 3:07.45 | 79244 | 93313
8 | 20:44.14 | 3:12.59 | 93314 | 107772
9 | 23:56.73 | 4:23.01 | 107773 | 127498
10 | 28:19.74 | 4:27.23 | 127499 | 147546
11 | 32:47.22 | 4:01.72 | 147547 | 165693
12 | 36:49.19 | 2:24.30 | 165694 | 176523
13 | 39:13.49 | 4:09.19 | 176524 | 195217

Track 1

Filename C:Hi there RIAA, What’s up IFPIThe Radio Dept. – Lesser Matters1 – Too Soon.wav

Pre-gap length 0:00:02.00

Peak level 98.9 %
Track quality 100.0 %
Test CRC B6A3D483
Copy CRC B6A3D483
Track not present in AccurateRip database
Copy OK

Track 2

Filename C:Hi there RIAA, What’s up IFPIThe Radio Dept. – Lesser Matters2 – Where Damage Isn’t Already Done.wav

Peak level 98.9 %
Track quality 99.9 %
Test CRC 2A12FDD7
Copy CRC 2A12FDD7
Track not present in AccurateRip database
Copy OK

Track 3

Filename C:Hi there RIAA, What’s up IFPIThe Radio Dept. – Lesser Matters3 – Keen On Boys.wav

Peak level 91.3 %
Track quality 100.0 %
Test CRC 1580281D
Copy CRC 1580281D
Track not present in AccurateRip database
Copy OK

Track 4

Filename C:Hi there RIAA, What’s up IFPIThe Radio Dept. – Lesser Matters4 – Why Won’t You Talk About It .wav

Peak level 98.8 %
Track quality 100.0 %
Test CRC 8D43D4C5
Copy CRC 8D43D4C5
Track not present in AccurateRip database
Copy OK

Track 5

Filename C:Hi there RIAA, What’s up IFPIThe Radio Dept. – Lesser Matters5 – It’s Been Eight Years.wav

Pre-gap length 0:00:01.35

Peak level 98.9 %
Track quality 100.0 %
Test CRC 7516BCD6
Copy CRC 7516BCD6
Track not present in AccurateRip database
Copy OK

Track 6

Filename C:Hi there RIAA, What’s up IFPIThe Radio Dept. – Lesser Matters6 – Bus.wav

Peak level 98.9 %
Track quality 100.0 %
Test CRC 9B1D8CB6
Copy CRC 9B1D8CB6
Track not present in AccurateRip database
Copy OK

Track 7

Filename C:Hi there RIAA, What’s up IFPIThe Radio Dept. – Lesser Matters7 – Slottet #2.wav

Peak level 98.9 %
Track quality 99.9 %
Test CRC 5B21487B
Copy CRC 5B21487B
Track not present in AccurateRip database
Copy OK

Track 8

Filename C:Hi there RIAA, What’s up IFPIThe Radio Dept. – Lesser Matters8 – 1995.wav

Peak level 98.9 %
Track quality 100.0 %
Test CRC 5F1B5A37
Copy CRC 5F1B5A37
Track not present in AccurateRip database
Copy OK

Track 9

Filename C:Hi there RIAA, What’s up IFPIThe Radio Dept. – Lesser Matters9 – Against The Tide.wav

Peak level 98.9 %
Track quality 99.9 %
Test CRC 32B9901B
Copy CRC 32B9901B
Track not present in AccurateRip database
Copy OK

Track 10

Filename C:Hi there RIAA, What’s up IFPIThe Radio Dept. – Lesser Matters10 – Strange Things Will Happen.wav

Peak level 98.9 %
Track quality 99.9 %
Test CRC 6B7AF2BF
Copy CRC 6B7AF2BF
Track not present in AccurateRip database
Copy OK

Track 11

Filename C:Hi there RIAA, What’s up IFPIThe Radio Dept. – Lesser Matters11 – Your Father.wav

Pre-gap length 0:00:02.31

Peak level 98.9 %
Track quality 100.0 %
Test CRC 71CF1C03
Copy CRC 71CF1C03
Track not present in AccurateRip database
Copy OK

Track 12

Filename C:Hi there RIAA, What’s up IFPIThe Radio Dept. – Lesser Matters12 – Ewan.wav

Peak level 98.9 %
Track quality 100.0 %
Test CRC 4125799C
Copy CRC 4125799C
Track not present in AccurateRip database
Copy OK

Track 13

Filename C:Hi there RIAA, What’s up IFPIThe Radio Dept. – Lesser Matters13 – Lost And Found.wav

Peak level 98.9 %
Track quality 100.0 %
Test CRC EE500E49
Copy CRC EE500E49
Track not present in AccurateRip database
Copy OK

None of the tracks are present in the AccurateRip database

No errors occurred

End of status report

AR log
[CUETools log; Date: 14.08.2014 16:32:03; Version: 2.1.4]
[CTDB TOCID: qRzL5NXc4Li9L6stNSIYx6SeErM-] found.
Track | CTDB Status
1 | (5/5) Accurately ripped
2 | (5/5) Accurately ripped
3 | (5/5) Accurately ripped
4 | (5/5) Accurately ripped
5 | (5/5) Accurately ripped
6 | (5/5) Accurately ripped
7 | (5/5) Accurately ripped
8 | (5/5) Accurately ripped
9 | (5/5) Accurately ripped
10 | (5/5) Accurately ripped
11 | (4/5) Accurately ripped
12 | (5/5) Accurately ripped
13 | (5/5) Accurately ripped
[AccurateRip ID: 00137c4c-00c78fa3-aa0a2a0d] found.
Track [ CRC | V2 ] Status
01 [4f4708ac|42fd32c8] (06+03/15) Accurately ripped
02 [9814ab53|f493d6da] (06+03/15) Accurately ripped
03 [85b9f214|d90fdcc6] (06+03/15) Accurately ripped
04 [b99c2817|5d2f4ac7] (06+03/15) Accurately ripped
05 [6866c0d3|e5d305cb] (06+03/15) Accurately ripped
06 [e49cc72c|2e3ee241] (06+03/15) Accurately ripped
07 [f4f79c6a|0917ccd0] (06+03/15) Accurately ripped
08 [fa84dda3|eccc3618] (06+03/15) Accurately ripped
09 [8bb72e67|8505fcae] (06+03/15) Accurately ripped
10 [a0209ac8|1e7f37ee] (06+03/15) Accurately ripped
11 [8e278f8a|66f39965] (05+03/14) Accurately ripped
12 [cd11aa6c|f141e55f] (06+03/15) Accurately ripped
13 [0d9a40d7|7beed116] (06+03/15) Accurately ripped
Offsetted by -771:
01 [68f1bfa2] (02/15) Accurately ripped
02 [6914a904] (02/15) Accurately ripped
03 [3abad546] (02/15) Accurately ripped
04 [83bf06b5] (02/15) Accurately ripped
05 [23c13b96] (02/15) Accurately ripped
06 [0c3db1a3] (02/15) Accurately ripped
07 [b56c645e] (02/15) Accurately ripped
08 [1b838bc0] (02/15) Accurately ripped
09 [8b084a4e] (02/15) Accurately ripped
10 [f72ae13d] (02/15) Accurately ripped
11 [3452252e] (02/14) Accurately ripped
12 [01eae0e5] (02/15) Accurately ripped
13 [3abe57f4] (02/15) Accurately ripped
Offsetted by -1477:
01 [0f65c7f8] (00/15) No match (V2 was not tested)
02 [8651774d] (00/15) No match (V2 was not tested)
03 [0c9e5581] (00/15) No match (V2 was not tested)
04 [42441c3d] (00/15) No match (V2 was not tested)
05 [d4df7531] (00/15) No match (V2 was not tested)
06 [5181db27] (00/15) No match (V2 was not tested)
07 [ccfcae55] (00/15) No match (V2 was not tested)
08 [f51e8c8b] (00/15) No match (V2 was not tested)
09 [1011b1e7] (00/15) No match (V2 was not tested)
10 [5e52f65e] (00/15) No match (V2 was not tested)
11 [3342f0d6] (00/14) No match (V2 was not tested)
12 [68d980fc] (00/15) No match (V2 was not tested)
13 [1687c839] (00/15) No match (V2 was not tested)

Track Peak [ CRC32 ] [W/O NULL] [ LOG ]
– 98,9 [6CB6C6BF] [0B8488D6]
01 98,9 [B6A3D483] [37372AFF] CRC32
02 98,9 [2A12FDD7] [FCE1954D] CRC32
03 91,3 [1580281D] [CE9D57A5] CRC32
04 98,8 [8D43D4C5] [8DCB87F0] CRC32
05 98,9 [7516BCD6] [73DD409C] CRC32
06 98,9 [9B1D8CB6] [87290D61] CRC32
07 98,9 [5B21487B] [5FAC44F4] CRC32
08 98,9 [5F1B5A37] [A87A9813] CRC32
09 98,9 [32B9901B] [B78BB062] CRC32
10 98,9 [6B7AF2BF] [99604ECF] CRC32
11 98,9 [71CF1C03] [CC2CE20A] CRC32
12 98,9 [4125799C] [5738024E] CRC32
13 98,9 [EE500E49] [73965C1F] CRC32

DR log
foobar2000 1.2 / Dynamic Range Meter 1.1.1
log date: 2014-08-01 15:53:14

––––––––––––––––––––––––––––––––––––––––
Analyzed: The Radio Dept. / Lesser Matters
––––––––––––––––––––––––––––––––––––––––

DR Peak RMS Duration Track
––––––––––––––––––––––––––––––––––––––––
DR10 -0.09 dB -11.18 dB 1:18 01-Too Soon
DR4 -0.09 dB -6.54 dB 2:44 02-Where Damage Isn’t Already Done
DR3 -0.79 dB -5.89 dB 4:53 03-Keen On Boys
DR4 -0.10 dB -5.38 dB 3:10 04-Why Won’t You Talk About It?
DR6 -0.09 dB -7.88 dB 2:34 05-It’s Been Eight Years
DR8 -0.09 dB -11.43 dB 2:58 06-Bus
DR9 -0.09 dB -11.67 dB 3:08 07-Slottet #2
DR6 -0.09 dB -8.57 dB 3:13 08-1995
DR4 -0.09 dB -6.05 dB 4:23 09-Against The Tide
DR6 -0.09 dB -7.31 dB 4:27 10-Strange Things Will Happen
DR7 -0.09 dB -9.32 dB 4:02 11-Your Father
DR5 -0.09 dB -7.04 dB 2:24 12-Ewan
DR4 -0.09 dB -6.35 dB 4:09 13-Lost And Found
––––––––––––––––––––––––––––––––––––––––

Number of tracks: 13
Official DR value: DR6

Samplerate: 44100 Hz
Channels: 2
Bits per sample: 16
Bitrate: 1173 kbps
Codec: FLAC
================================================================================

The Radio Dept. - Albums Collection 2003-2010 (3CD) [Re-Up]

The Radio Dept. – Pet Grief (2006)
EAC | FLAC | Tracks (Cue&Log) ~ 291 Mb | Mp3 (CBR320) ~ 101 Mb
Label: Labrador | # LAB095 | Time: 00:37:18 | Scans included

In the chorus of Pet Grief’s lead single and catchiest song, Radio Dept. head Johan Duncanson makes the touching if rather petty confession that the only reason he’s able to withstand his jealous despair is the knowledge that his would-be romantic rival has "the worst taste in music." Well, if it makes him feel better, there’s certainly no doubting his and his bandmates’ taste – like their buzzy, buzzed-about debut, Pet Grief evinces an impeccably fashionable roll call of influences from British post-punk and shoegaze to more recent electronic indie and dream pop, and if that’s not enough, the hook of "What Will Give?" offers the gratuitously hip reference: "I want to hide, like Jandek before playing live." But taste only gets you so far – if you’re going to wear your influences on your sleeve, you’d better have your heart on it too, if not some other tricks up it as well. Lesser Matters had the heart, the humanity, the class, the confidence, and the pop chops, in spades, to pull off its stylish simulations without ever seeming rotely regurgitative, but this sophomore set, to some extent, lets its stylishness supersede its substance. It’s not that Radio Dept. have dramatically altered their approach, although there are definitely discernible differences. The band’s always somewhat fluid lineup is now down to three – they’ve gained a keyboard player and lost a bassist and a drummer since the first full-length, and the (apparently intentional) effects are evident in an increased reliance on synthesized atmospherics and programmed drum machine beats, which still sound as gloriously cheap as ever. Their lush lo fi luster is only slightly diminished – that is to say: these productions are, on the whole, slightly more polished, though they’re still amply capable of generating that woozy, wistful warmth. And there’s a somewhat streamlined feeling to the album in dynamic terms as well, with less song to song variety – there are none of the shambolic, nearly twee numbers which were so effective interspersed among Lesser Matters’ oceans of fuzz, and in fact, apart from the spirited, saturated "Every Time," there’s not even all that much distortion here. But the main issue is that songs themselves just aren’t as engaging this time out. Duncanson’s vocals are practically buried in reverb throughout, which certainly doesn’t help matters on that count (though it arguably adds to the album’s overall atmosphere), but even with repeated listens there are only a handful of numbers – most notably "Worst Taste" and the title track – which stand out as comparable to the remarkably consistent quality of the debut. It may be that they were just more interested in album-length ambience than stand-alone pop this time around – a couple of brief, spacy instrumentals seem to suggest as much. In that sense the album must certainly be regarded as a success; it’s a rich and evocative mood piece, and still eminently worth hearing. It’s just a minor disappointment when a band so adept at bridging the style-substance divide decide to limit themselves to just one facet of their talents.

K. Ross Hoffman, Allmusic.com

Tracklist:

01. It’s Personal (03:38)
02. Pet Grief (03:10)
03. A Window (03:27)
04. I Wanted You To Feel The Same (02:31)
05. South Side (01:16)
06. The Worst Taste In Music (03:21)
07. Every Time (03:44)
08. What Will Give? (04:30)
09. Gibraltar (01:35)
10. Sleeping In (03:31)
11. Tell (03:09)
12. Always A Relief (03:21)

EAC log
EAC extraction logfile from 12. December 2006, 7:52 for CD
The Radio Dept. / Pet Grief

Used drive : HL-DT-STDVDRAM GSA-4167B Adapter: 0 ID: 0
Read mode : Secure with NO C2, accurate stream, disable cache
Read offset correction : 667
Overread into Lead-In and Lead-Out : No

Used output format : C:Program FilesExact Audio Copyflac.exe (User Defined Encoder)
192 kBit/s
Additional command line options : -V -8 -T "artist=%a" -T "title=%t" -T "album=%g" -T "date=%y" -T "tracknumber=%n" -T "genre=%m" %s

Other options :
Fill up missing offset samples with silence : Yes
Delete leading and trailing silent blocks : No
Native Win32 interface for Win NT & 2000

Track 1
Filename C:Program FilesuTorrenttorrentsOiNKThe Radio Dept. – Pet Grief1 It’s Personal.wav

Pre-gap length 0:00:02.00

Peak level 98.9 %
Track quality 100.0 %
Test CRC DD0652DD
Copy CRC DD0652DD
Copy OK

Track 2
Filename C:Program FilesuTorrenttorrentsOiNKThe Radio Dept. – Pet Grief2 Pet Grief.wav

Peak level 98.9 %
Track quality 100.0 %
Test CRC 7D767BE4
Copy CRC 7D767BE4
Copy OK

Track 3
Filename C:Program FilesuTorrenttorrentsOiNKThe Radio Dept. – Pet Grief3 A Window.wav

Peak level 98.8 %
Track quality 100.0 %
Test CRC 56B8B792
Copy CRC 56B8B792
Copy OK

Track 4
Filename C:Program FilesuTorrenttorrentsOiNKThe Radio Dept. – Pet Grief4 I Wanted You To Feel The Same.wav

Peak level 98.8 %
Track quality 100.0 %
Test CRC 29049E43
Copy CRC 29049E43
Copy OK

Track 5
Filename C:Program FilesuTorrenttorrentsOiNKThe Radio Dept. – Pet Grief5 South Side.wav

Peak level 92.3 %
Track quality 100.0 %
Test CRC 75F53EAB
Copy CRC 75F53EAB
Copy OK

Track 6
Filename C:Program FilesuTorrenttorrentsOiNKThe Radio Dept. – Pet Grief6 The Worst Taste In Music.wav

Peak level 98.8 %
Track quality 100.0 %
Test CRC 3D7C988A
Copy CRC 3D7C988A
Copy OK

Track 7
Filename C:Program FilesuTorrenttorrentsOiNKThe Radio Dept. – Pet Grief7 Every Time.wav

Peak level 98.8 %
Track quality 100.0 %
Test CRC 8D0628CB
Copy CRC 8D0628CB
Copy OK

Track 8
Filename C:Program FilesuTorrenttorrentsOiNKThe Radio Dept. – Pet Grief8 What Will Give .wav

Peak level 98.8 %
Track quality 100.0 %
Test CRC 1E8BB5E3
Copy CRC 1E8BB5E3
Copy OK

Track 9
Filename C:Program FilesuTorrenttorrentsOiNKThe Radio Dept. – Pet Grief9 Gibraltar.wav

Peak level 53.5 %
Track quality 100.0 %
Test CRC F5265BA1
Copy CRC F5265BA1
Copy OK

Track 10
Filename C:Program FilesuTorrenttorrentsOiNKThe Radio Dept. – Pet Grief10 Sleeping In.wav

Peak level 98.8 %
Track quality 100.0 %
Test CRC EAF94791
Copy CRC EAF94791
Copy OK

Track 11
Filename C:Program FilesuTorrenttorrentsOiNKThe Radio Dept. – Pet Grief11 Tell.wav

Peak level 98.8 %
Track quality 100.0 %
Test CRC AA4C5E2E
Copy CRC AA4C5E2E
Copy OK

Track 12
Filename C:Program FilesuTorrenttorrentsOiNKThe Radio Dept. – Pet Grief12 Always A Relief.wav

Peak level 98.8 %
Track quality 100.0 %
Test CRC 6A883235
Copy CRC 6A883235
Copy OK

No errors occured

End of status report

AR log
[CUETools log; Date: 14.08.2014 16:32:14; Version: 2.1.4]
[CTDB TOCID: SdCkvPktjSVq.jGfbLoPVAi3H4o-] found.
Track | CTDB Status
1 | (8/8) Accurately ripped
2 | (8/8) Accurately ripped
3 | (8/8) Accurately ripped
4 | (8/8) Accurately ripped
5 | (8/8) Accurately ripped
6 | (8/8) Accurately ripped
7 | (8/8) Accurately ripped
8 | (8/8) Accurately ripped
9 | (8/8) Accurately ripped
10 | (8/8) Accurately ripped
11 | (8/8) Accurately ripped
12 | (8/8) Accurately ripped
[AccurateRip ID: 0010904e-009a1389-9d08be0c] found.
Track [ CRC | V2 ] Status
01 [7259d23c|e931d297] (00+00/27) No match
02 [a003a54e|e9e94cc1] (00+00/27) No match
03 [3c9bd240|d0f65a33] (00+00/27) No match
04 [b9ca5137|b4bc6f6a] (00+00/27) No match
05 [3d86b6e3|b93a1fea] (00+00/26) No match
06 [c8dc77fe|35cec3a3] (00+00/27) No match
07 [365cae10|e79e7d87] (00+00/27) No match
08 [c463b2f7|5193385f] (00+00/27) No match
09 [a3d008f0|230e0d76] (00+00/27) No match
10 [234393ff|e8ba6660] (00+00/27) No match
11 [b4312dda|2bc93edb] (00+00/27) No match
12 [b5b5375f|2ac9182c] (00+00/26) No match
Offsetted by 601:
01 [29563f38] (02/27) Accurately ripped
02 [40573b2d] (02/27) Accurately ripped
03 [b44a97b4] (02/27) Accurately ripped
04 [0f0bccc3] (02/27) Accurately ripped
05 [c3c5a318] (02/26) Accurately ripped
06 [1ff436d0] (02/27) Accurately ripped
07 [77ef1626] (02/27) Accurately ripped
08 [0b73974e] (02/27) Accurately ripped
09 [a88659b4] (02/27) Accurately ripped
10 [9cd28c6a] (02/27) Accurately ripped
11 [85f63b10] (02/27) Accurately ripped
12 [ffe66c49] (02/26) Accurately ripped
Offsetted by 643:
01 [b2ee1050] (02/27) Accurately ripped
02 [b8f479dc] (02/27) Accurately ripped
03 [6b867af8] (02/27) Accurately ripped
04 [0de91318] (02/27) Accurately ripped
05 [a946a70e] (02/26) Accurately ripped
06 [15747999] (02/27) Accurately ripped
07 [cfa64c85] (02/27) Accurately ripped
08 [6eeaa73c] (02/27) Accurately ripped
09 [054a4765] (02/27) Accurately ripped
10 [40852852] (02/27) Accurately ripped
11 [7ee9cd6c] (02/27) Accurately ripped
12 [8e10f197] (02/26) Accurately ripped
Offsetted by 661:
01 [802f20c8] (14/27) Accurately ripped
02 [41cf719c] (14/27) Accurately ripped
03 [c45ecc09] (14/27) Accurately ripped
04 [ef2d097e] (14/27) Accurately ripped
05 [cfa8bf51] (13/26) Accurately ripped
06 [229a1b89] (14/27) Accurately ripped
07 [31ff0d3c] (14/27) Accurately ripped
08 [c253a99c] (14/27) Accurately ripped
09 [138c3676] (14/27) Accurately ripped
10 [e6358a94] (14/27) Accurately ripped
11 [b0f1297f] (14/27) Accurately ripped
12 [b1d65c32] (13/26) Accurately ripped
Offsetted by 625:
01 [e5acffd8] (00/27) No match (V2 was not tested)
02 [3b8052de] (00/27) No match (V2 was not tested)
03 [4ac99d0b] (00/27) No match (V2 was not tested)
04 [19c8889a] (00/27) No match (V2 was not tested)
05 [7b1054d5] (00/26) No match (V2 was not tested)
06 [50bebf73] (00/27) No match (V2 was not tested)
07 [d0a85eeb] (00/27) No match (V2 was not tested)
08 [bd5f4d73] (00/27) No match (V2 was not tested)
09 [f2c4e434] (00/27) No match (V2 was not tested)
10 [1625cb9c] (00/27) No match (V2 was not tested)
11 [00a9e887] (00/27) No match (V2 was not tested)
12 [6a5386f6] (00/26) No match (V2 was not tested)

Track Peak [ CRC32 ] [W/O NULL]
– 98,9 [BF9A78A4] [CDDB5565]
01 98,9 [DD0652DD] [38AA4F50]
02 98,9 [7D767BE4] [79FC02D6]
03 98,8 [56B8B792] [45C27657]
04 98,8 [29049E43] [05A107E2]
05 92,3 [75F53EAB] [F5167E11]
06 98,8 [3D7C988A] [080197C1]
07 98,8 [8D0628CB] [29F82855]
08 98,8 [1E8BB5E3] [0A7B1785]
09 53,5 [F5265BA1] [0477C752]
10 98,8 [EAF94791] [1246A639]
11 98,8 [AA4C5E2E] [8251F6B7]
12 98,8 [6A883235] [DA328142]

DR log
foobar2000 1.2 / Dynamic Range Meter 1.1.1
log date: 2014-08-01 15:53:26

––––––––––––––––––––––––––––––––––––––––
Analyzed: The Radio Dept. / Pet Grief
––––––––––––––––––––––––––––––––––––––––

DR Peak RMS Duration Track
––––––––––––––––––––––––––––––––––––––––
DR7 -0.09 dB -9.53 dB 3:38 01-It’s Personal
DR5 -0.10 dB -7.57 dB 3:10 02-Pet Grief
DR5 -0.10 dB -7.36 dB 3:28 03-A Window
DR7 -0.10 dB -9.81 dB 2:31 04-I Wanted You To Feel The Same
DR10 -0.69 dB -15.66 dB 1:17 05-South Side
DR4 -0.10 dB -6.78 dB 3:21 06-The Worst Taste In Music
DR7 -0.10 dB -8.19 dB 3:44 07-Every Time
DR7 -0.10 dB -8.90 dB 4:31 08-What Will Give?
DR11 -5.43 dB -19.64 dB 1:35 09-Gibraltar
DR6 -0.10 dB -7.51 dB 3:32 10-Sleeping In
DR7 -0.10 dB -8.85 dB 3:10 11-Tell
DR7 -0.10 dB -8.79 dB 3:21 12-Always A Relief
––––––––––––––––––––––––––––––––––––––––

Number of tracks: 12
Official DR value: DR7

Samplerate: 44100 Hz
Channels: 2
Bits per sample: 16
Bitrate: 986 kbps
Codec: FLAC
================================================================================

The Radio Dept. - Albums Collection 2003-2010 (3CD) [Re-Up]

The Radio Dept. – Clinging to a Scheme (2010)
EAC | FLAC | Tracks (Cue&Log) ~ 262 Mb | Mp3 (CBR320) ~ 101 Mb
Label: Labrador | # LAB105 | Time: 00:34:57 | Scans included

The run-up to the release of the Radio Dept.’s third album, Clinging to a Scheme, seemed endless by the time it finally came out in the spring of 2010. It seemed that every few months a release date was announced and then passed, with only a couple singles to show for the band’s efforts. When it did appear, it was clear that anyone hoping for a return to the fuzzy, lo-fi sound of their debut record Lesser Matters may be disappointed, as the band has unloaded almost all the aspects of the shoegaze attack that characterized their first recordings. Instead, they’ve followed the direction of Pet Grief and have taken another step in the direction toward the Pet Shop Boys. That is to say, they are more informed by synth pop and less by guitar rock. This further refining and synthing of their approach doesn’t mean they’ve cleaned up and become all slick though, the trio still make sure to bathe the sound in bucketfuls of reverb, and Johan Duncanson’s voice is treated with all kinds of effects, often giving him the sound of a guy at the end of a hallway singing through a paper towel roll. It’s a time-honored trick of taking pretty pop songs and roughing them up, and the group work it like old pros here. While songs like "A Token of Gratitude" or "You Stopped Making Sense" would sound great on just acoustic guitars or piano, giving them some gritty noise and fuzzy atmosphere manages to impart an extra boost of emotional power that makes the album really stick. Just as importantly, the band have written what might be their best batch of songs for Clinging, with almost every song sounding like it could be a single. The two songs that were chosen as singles are the best of the lot, each feeling like instant classics. "David"’s cheesy synths, stately beats, and the chamber pop-lovely arrangement mesh perfectly with the breathtaking vocal melody, "Heaven’s on Fire" bursts out of the speakers in a blast of happy keys, peppy guitars, and a beat straight out of Madchester. It’s a dramatic one-two punch that almost serves to overshadow the rest of the record on first listen. Further spins reveal the charms of the non-single tracks, and the whole thing ends up being one of the best examples of all the things that help make Swedish pop so magical. For once, all the pre-release hype and anticipation has been justified; the Radio Dept. have delivered the best work of their career.

Tim Sendra, Allmusic.com

Tracklist:

01. Domestic Scene (02:25)
02. Heaven’s On Fire (03:32)
03. This Time Aroud (03:45)
04. Never Follow Suit (04:09)
05. A Token Of Gratitude (04:07)
06. The Video Dept. (03:25)
07. Memory Loss (04:16)
08. David (03:31)
09. Four Months In The Shade (01:49)
10. You Stopped Making Sense (03:54)

EAC log
Exact Audio Copy V0.99 prebeta 3 from 28. July 2007

EAC extraction logfile from 11. April 2010, 1:00

The Radio Dept. / Clinging To A Scheme

Used drive : LITE-ON DVDRW LH-20A1H Adapter: 0 ID: 0

Read mode : Secure
Utilize accurate stream : Yes
Defeat audio cache : Yes
Make use of C2 pointers : No

Read offset correction : 6
Overread into Lead-In and Lead-Out : No
Fill up missing offset samples with silence : Yes
Delete leading and trailing silent blocks : No
Null samples used in CRC calculations : Yes
Used interface : Installed external ASPI interface
Gap handling : Appended to previous track

Used output format : User Defined Encoder
Selected bitrate : 320 kBit/s
Quality : High
Add ID3 tag : No
Command line compressor : C:Program FilesExact Audio Copyflac.exe
Additional command line options : -V -8 -T "artist=%a" -T "title=%t" -T "album=%g" -T "date=%y" -T "tracknumber=%n" -T "genre=%m" %s

TOC of the extracted CD

Track | Start | Length | Start sector | End sector
––––––––––––––––––––––––––––-
1 | 0:00.00 | 2:25.20 | 0 | 10894
2 | 2:25.20 | 3:32.10 | 10895 | 26804
3 | 5:57.30 | 3:45.38 | 26805 | 43717
4 | 9:42.68 | 4:09.36 | 43718 | 62428
5 | 13:52.29 | 4:07.17 | 62429 | 80970
6 | 17:59.46 | 3:25.21 | 80971 | 96366
7 | 21:24.67 | 4:16.42 | 96367 | 115608
8 | 25:41.34 | 3:31.64 | 115609 | 131497
9 | 29:13.23 | 1:49.42 | 131498 | 139714
10 | 31:02.65 | 3:54.29 | 139715 | 157293

Track 1

Filename C:EACThe Radio Dept. – Clinging To A Scheme1 Domestic Scene.wav

Pre-gap length 0:00:02.00

Peak level 98.8 %
Track quality 100.0 %
Test CRC 5A05FF71
Copy CRC 5A05FF71
Track not present in AccurateRip database
Copy OK

Track 2

Filename C:EACThe Radio Dept. – Clinging To A Scheme2 Heaven’s On Fire.wav

Peak level 100.0 %
Track quality 100.0 %
Test CRC F276D2AF
Copy CRC F276D2AF
Track not present in AccurateRip database
Copy OK

Track 3

Filename C:EACThe Radio Dept. – Clinging To A Scheme3 This Time Aroud.wav

Peak level 98.8 %
Track quality 100.0 %
Test CRC 938ED15E
Copy CRC 938ED15E
Track not present in AccurateRip database
Copy OK

Track 4

Filename C:EACThe Radio Dept. – Clinging To A Scheme4 Never Follow Suit.wav

Peak level 98.8 %
Track quality 100.0 %
Test CRC 3C9D222C
Copy CRC 3C9D222C
Track not present in AccurateRip database
Copy OK

Track 5

Filename C:EACThe Radio Dept. – Clinging To A Scheme5 A Token Of Gratitude.wav

Pre-gap length 0:00:00.20

Peak level 98.8 %
Track quality 100.0 %
Test CRC 952B2E47
Copy CRC 952B2E47
Track not present in AccurateRip database
Copy OK

Track 6

Filename C:EACThe Radio Dept. – Clinging To A Scheme6 The Video Dept..wav

Peak level 98.9 %
Track quality 100.0 %
Test CRC 031F1899
Copy CRC 031F1899
Track not present in AccurateRip database
Copy OK

Track 7

Filename C:EACThe Radio Dept. – Clinging To A Scheme7 Memory Loss.wav

Peak level 100.0 %
Track quality 100.0 %
Test CRC 3020C9F6
Copy CRC 3020C9F6
Track not present in AccurateRip database
Copy OK

Track 8

Filename C:EACThe Radio Dept. – Clinging To A Scheme8 David.wav

Pre-gap length 0:00:00.20

Peak level 98.8 %
Track quality 99.9 %
Test CRC 09118495
Copy CRC 09118495
Track not present in AccurateRip database
Copy OK

Track 9

Filename C:EACThe Radio Dept. – Clinging To A Scheme9 Four Months In The Shade.wav

Peak level 84.1 %
Track quality 99.9 %
Test CRC 64D549EC
Copy CRC 64D549EC
Track not present in AccurateRip database
Copy OK

Track 10

Filename C:EACThe Radio Dept. – Clinging To A Scheme10 You Stopped Making Sense.wav

Peak level 98.8 %
Track quality 100.0 %
Test CRC AEBDE357
Copy CRC AEBDE357
Track not present in AccurateRip database
Copy OK

None of the tracks are present in the AccurateRip database

No errors occurred

End of status report

AR log
[CUETools log; Date: 14.08.2014 16:32:27; Version: 2.1.4]
[CTDB TOCID: FZI0xPcclG3bwDibH2v68vZjbFg-] found.
Track | CTDB Status
1 | ( 7/11) Accurately ripped, or (4/11) differs in 4 samples @01:32:19,01:56:03,02:15:34,02:16:39
2 | (11/11) Accurately ripped
3 | (11/11) Accurately ripped
4 | (11/11) Accurately ripped
5 | ( 7/11) Accurately ripped, or (4/11) differs in 4 samples @00:19:69-00:20:01
6 | (11/11) Accurately ripped
7 | ( 7/11) Accurately ripped, or (4/11) differs in 2 samples @03:07:65-03:07:66
8 | ( 7/11) Accurately ripped, or (4/11) differs in 25 samples @00:23:32,00:53:14,01:31:45,01:39:58,01:39:69,02:19:02,02:41:52,02:41:69,03:07:29,03:31:05,03:31:30-03:31:41
9 | ( 7/11) Accurately ripped, or (4/11) differs in 6 samples @00:20:39,01:06:61,01:06:71-01:07:00,01:12:62,01:12:69
10 | (11/11) Accurately ripped
[AccurateRip ID: 000d3415-006a968c-8c08310a] found.
Track [ CRC | V2 ] Status
01 [e4ef8836|a13013e6] (11+14/45) Accurately ripped
02 [40e13431|ed6a1e0d] (11+14/45) Accurately ripped
03 [f424ca6c|b6415617] (11+14/45) Accurately ripped
04 [202526d1|0dd7de24] (11+14/45) Accurately ripped
05 [c8ddad5f|86f1138b] (11+14/45) Accurately ripped
06 [25b38c97|c07facfe] (11+14/45) Accurately ripped
07 [76427a84|833e92c9] (11+14/45) Accurately ripped
08 [a0b69667|a273426d] (11+14/45) Accurately ripped
09 [2bd2411f|d3eb83d0] (11+14/45) Accurately ripped
10 [0dbcae42|311dea30] (11+14/45) Accurately ripped
Offsetted by 6:
01 [2f3dde73] (00/45) No match (V2 was not tested)
02 [bda70850] (15/45) Accurately ripped
03 [8dc756f8] (15/45) Accurately ripped
04 [f2fa6ba7] (15/45) Accurately ripped
05 [1ae87f41] (00/45) No match (V2 was not tested)
06 [ffc5c7bf] (15/45) Accurately ripped
07 [8a1cbf30] (00/45) No match (V2 was not tested)
08 [e82e244a] (00/45) No match (V2 was not tested)
09 [ea92a63d] (00/45) No match (V2 was not tested)
10 [44cbd5e5] (15/45) Accurately ripped

Track Peak [ CRC32 ] [W/O NULL] [ LOG ]
– 100,0 [522AF45A] [524C4BC6]
01 98,8 [5A05FF71] [DCFCB8E1] CRC32
02 100,0 [F276D2AF] [4025A9B4] CRC32
03 98,8 [938ED15E] [5D72E360] CRC32
04 98,8 [3C9D222C] [B27E91B7] CRC32
05 98,8 [952B2E47] [37AFDE77] CRC32
06 98,9 [031F1899] [D971B036] CRC32
07 100,0 [3020C9F6] [7F3C7574] CRC32
08 98,8 [09118495] [1231A27A] CRC32
09 84,1 [64D549EC] [4EF9DDC0] CRC32
10 98,8 [AEBDE357] [9474755C] CRC32

DR log
foobar2000 1.2 / Dynamic Range Meter 1.1.1
log date: 2014-08-01 15:53:38

––––––––––––––––––––––––––––––––––––––––
Analyzed: The Radio Dept. / Clinging To A Scheme
––––––––––––––––––––––––––––––––––––––––

DR Peak RMS Duration Track
––––––––––––––––––––––––––––––––––––––––
DR6 -0.10 dB -8.95 dB 2:25 01-Domestic Scene
DR6 0.00 dB -7.41 dB 3:32 02-Heaven’s On Fire
DR6 -0.10 dB -7.87 dB 3:46 03-This Time Aroud
DR7 -0.10 dB -8.78 dB 4:09 04-Never Follow Suit
DR8 -0.10 dB -10.52 dB 4:07 05-A Token Of Gratitude
DR7 -0.09 dB -9.38 dB 3:25 06-The Video Dept.
DR8 0.00 dB -9.75 dB 4:17 07-Memory Loss
DR7 -0.10 dB -8.37 dB 3:32 08-David
DR4 -1.50 dB -6.93 dB 1:50 09-Four Months In The Shade
DR5 -0.10 dB -6.84 dB 3:54 10-You Stopped Making Sense
––––––––––––––––––––––––––––––––––––––––

Number of tracks: 10
Official DR value: DR6

Samplerate: 44100 Hz
Channels: 2
Bits per sample: 16
Bitrate: 842 kbps
Codec: FLAC
================================================================================

All thanks to original releasers

More interesting music in My Blog

Password: designol

The Radio Dept. – Albums Collection 2003-2010 (3CD) [Re-Up] Download, Warez, DDL, Free, Full Album, Torrent, Legal.

Download


  • Recent Posts

  • Recent Tags