The Platters – Unchained Melodies (1998)

Download
The Platters - Unchained Melodies (1998)

The Platters – Unchained Melodies (1998)
EAC | FLAC (log,image+cue) -> 315 Mb (5% Rec.) | Mp3 CBR320 Kbps -> 146 Mb (5% Rec.) | Scans -> 29 Mb
Soul, R&B, Vocal Pop | Label: Newsound 2000, NST 012 | 1998 | 01:01:39

One of the leading R&B group of the 1950’s, they were the first black group to be accepted as a major chart act, and for a short time, were the most successful vocal in world. "Only You" was their first hit in 1955, reaching No. 5 in the Billboard chart. This was followed by "The Great Pretender", "My Prayer" and "Twilight Time" which were all US No. 1s. But their biggest hit came in 1959 whith the international number one and multi-million selling song "Smoke Gets In Your Eyes".

Tracklist:

01. The Great Pretender 03:22
02. I Love You Because 03:13
03. Unchained Melody 04:58
04. My Prayer 03:25
05. With This Ring 02:42
06. Red Sails In The Sunset 02:23
07. Twilight Time 02:47
08. I Love You 1000 Times 02:45
09. Why 03:16
10. Alone In The Night 03:00
11. Heaven On Earth 02:34
12. Harbour Lights 03:03
13. (Youґve Got) The Magic Touch 02:42
14. Doesnґt It Ring A Bell 02:08
15. Only You (And You Alone) 02:46
16. Sweet Sweet Lovin’ 01:56
17. If I Had Love 03:48
18. Iґm Sorry 02:59
19. My Way 05:12
20. Smoke Gets In Your Eyes 02:30

EAC_log
Exact Audio Copy V0.99 prebeta 5 from 4. May 2009

Отчёт EAC об извлечении, выполненном 20. января 2013, 17:05

The Platters / Unchained Melodies

Дисковод: Optiarc DVD RW AD-7201A Adapter: 0 ID: 0

Режим чтения : Достоверность
Использование точного потока : Да
Отключение кэша аудио : Да
Использование указателей C2 : Нет

Коррекция смещения при чтении : 48
Способность читать области Lead-in и Lead-out : Нет
Заполнение пропущенных сэмплов тишиной : Да
Удаление блоков с тишиной в начале и конце : Нет
При вычислениях CRC использовались нулевые сэмплы : Да
Интерфейс : Установленный внешний ASPI-интерфейс

Выходной формат : Внутренние WAV-операции
Формат сэмплов : 44.100 Гц; 16 бит; стерео

TOC извлечённого CD

Трек | Старт | Длительность | Начальный сектор | Конечный сектор
––––––––––––––––––––––––––––––––––-
1 | 0:00.32 | 3:22.08 | 32 | 15189
2 | 3:22.40 | 3:13.22 | 15190 | 29686
3 | 6:35.62 | 4:58.63 | 29687 | 52099
4 | 11:34.50 | 3:25.57 | 52100 | 67531
5 | 15:00.32 | 2:42.53 | 67532 | 79734
6 | 17:43.10 | 2:23.65 | 79735 | 90524
7 | 20:07.00 | 2:47.15 | 90525 | 103064
8 | 22:54.15 | 2:45.45 | 103065 | 115484
9 | 25:39.60 | 3:16.37 | 115485 | 130221
10 | 28:56.22 | 3:00.35 | 130222 | 143756
11 | 31:56.57 | 2:34.03 | 143757 | 155309
12 | 34:30.60 | 3:03.65 | 155310 | 169099
13 | 37:34.50 | 2:42.10 | 169100 | 181259
14 | 40:16.60 | 2:08.17 | 181260 | 190876
15 | 42:25.02 | 2:46.53 | 190877 | 203379
16 | 45:11.55 | 1:56.00 | 203380 | 212079
17 | 47:07.55 | 3:48.55 | 212080 | 229234
18 | 50:56.35 | 2:59.17 | 229235 | 242676
19 | 53:55.52 | 5:12.55 | 242677 | 266131
20 | 59:08.32 | 2:30.38 | 266132 | 277419

Характеристики диапазона извлечения и сообщения об ошибках

Выбранный диапазон

Имя файла O:MUZZIGGUPLOADSThe Platters – Unchained MelodiesThe Platters – Unchained Melodies.wav

Пиковый уровень 100.0 %
Качество диапазона 100.0 %
CRC теста 1131434B
CRC копии 1131434B
Копирование… OK

Ошибок не произошло

AccurateRip: сводка

Трек 1 точность не определена (достоверность 2) [08857ED7], AccurateRip вернул [FEDAB293]
Трек 2 точность не определена (достоверность 2) [6973792D], AccurateRip вернул [C8B0016E]
Трек 3 точность не определена (достоверность 2) [16D7A6F8], AccurateRip вернул [A16B60D0]
Трек 4 точность не определена (достоверность 2) [A4471F74], AccurateRip вернул [C2803631]
Трек 5 точность не определена (достоверность 2) [551F0FCF], AccurateRip вернул [3641FB66]
Трек 6 точность не определена (достоверность 2) [1CC6B69F], AccurateRip вернул [E4E11D70]
Трек 7 точность не определена (достоверность 2) [3104AD00], AccurateRip вернул [43D035A6]
Трек 8 точность не определена (достоверность 2) [C672E946], AccurateRip вернул [68B1607F]
Трек 9 точность не определена (достоверность 2) [8C2488A6], AccurateRip вернул [D9D1A592]
Трек 10 точность не определена (достоверность 2) [4853449C], AccurateRip вернул [2CCF6B3E]
Трек 11 точность не определена (достоверность 2) [3529E7D2], AccurateRip вернул [5786620B]
Трек 12 точность не определена (достоверность 2) [37A06EE7], AccurateRip вернул [75FF836A]
Трек 13 точность не определена (достоверность 2) [E68B0F5B], AccurateRip вернул [C77C011E]
Трек 14 точность не определена (достоверность 2) [ED350B01], AccurateRip вернул [83DDD8D1]
Трек 15 точность не определена (достоверность 2) [B11F0EA7], AccurateRip вернул [5C34F6F6]
Трек 16 точность не определена (достоверность 2) [994740E2], AccurateRip вернул [393CD89F]
Трек 17 точность не определена (достоверность 2) [73A1C177], AccurateRip вернул [C7CD2D1A]
Трек 18 точность не определена (достоверность 2) [462B454C], AccurateRip вернул [F73A3C21]
Трек 19 точность не определена (достоверность 2) [1FB7A769], AccurateRip вернул [DBDFD3CB]
Трек 20 точность не определена (достоверность 2) [717AA114], AccurateRip вернул [474A2AF5]

Ни один трек не прошёл проверки на точность
В вашей базе может быть иной вариант штамповки диска

Конец отчёта

Dynamic_Range_log
foobar2000 1.3.6 / Dynamic Range Meter 1.1.1
log date: 2017-02-05 11:59:51

––––––––––––––––––––––––––––––––––––––––
Analyzed: The Platters / Unchained Melodies
––––––––––––––––––––––––––––––––––––––––

DR Peak RMS Duration Track
––––––––––––––––––––––––––––––––––––––––
DR12 -1.32 dB -15.13 dB 3:22 01-The Great Pretender
DR11 -1.92 dB -15.91 dB 3:13 02-I Love You Because
DR12 0.00 dB -16.04 dB 4:59 03-Unchained Melody
DR11 -3.94 dB -17.57 dB 3:26 04-My Prayer
DR10 -0.37 dB -13.37 dB 2:43 05-With This Ring
DR10 -2.49 dB -15.36 dB 2:24 06-Red Sails In The Sunset
DR12 -1.03 dB -15.58 dB 2:47 07-Twilight Time
DR13 -1.79 dB -16.83 dB 2:46 08-I Love You 1000 Times
DR10 -2.65 dB -15.55 dB 3:16 09-Why
DR10 -1.57 dB -14.77 dB 3:00 10-Alone In The Night
DR11 -3.03 dB -16.98 dB 2:34 11-Heaven On Earth
DR9 -2.09 dB -15.24 dB 3:04 12-Harbour Lights
DR10 -3.53 dB -16.25 dB 2:42 13-(Youґve Got) The Magic Touch
DR10 -1.63 dB -14.63 dB 2:08 14-Doesnґt It Ring A Bell
DR9 -2.81 dB -15.74 dB 2:47 15-Only You (And You Alone)
DR10 -2.09 dB -14.83 dB 1:56 16-Sweet Sweet Lovinґ
DR10 -3.10 dB -16.20 dB 3:49 17-If I Had Love
DR13 -1.44 dB -16.77 dB 2:59 18-Iґm Sorry
DR11 -2.99 dB -16.59 dB 5:13 19-My Way
DR11 -2.97 dB -16.58 dB 2:31 20-Smoke Gets In Your Eyes
––––––––––––––––––––––––––––––––––––––––

Number of tracks: 20
Official DR value: DR11

Samplerate: 44100 Hz
Channels: 2
Bits per sample: 16
Bitrate: 671 kbps
Codec: FLAC
================================================================================

Thanks to the original releaser

The Platters – Unchained Melodies (1998) Download, Warez, DDL, Free, Full Album, Torrent, Legal.

Download