The Pharcyde – Labcabincalifornia (1995) (Expanded Edition 3CD, Reissue 2012) {Delicious Vinyl}

Download
The Pharcyde - Labcabincalifornia (1995) (Expanded Edition 3CD, Reissue 2012) {Delicious Vinyl}

The Pharcyde – Labcabincalifornia (1995) (Expanded Edition 3CD, Reissue 2012)
XLD Rip | FLAC (tracks+.cue, log) | 1055 mb | covers I MP3 CBR 320kbps | RAR | 648 mb
West Coast Hip-Hop, Alternative Hip-Hop | Label: Delicious Vinyl – DV 9060

Labcabincalifornia is the second album by The Pharcyde, released in 1995, three years after their debut Bizarre Ride II the Pharcyde. The album’s production was handled by The Pharcyde themselves and Jay Dee, with additional help from Diamond D and M-Walk. Labcabincalifirnia on 3 CD Set which features the complete album, instrumentals and all the B Sides & Remixes.

The Pharcyde - Labcabincalifornia (1995) (Expanded Edition 3CD, Reissue 2012) {Delicious Vinyl}

The Pharcyde released Labcabincalifornia, their follow up to their legendary debut Bizarre Ride II The Pharcyde (itself released on November 24th, 1992) with the album ultimately launching three singles, “Runnin’”, “She Said” and “Drop” (which would go on to massive MTV music video fame due to it’s first ever entirely backwards filmed video directed by Spike Jonze).

The Pharcyde - Labcabincalifornia (1995) (Expanded Edition 3CD, Reissue 2012) {Delicious Vinyl}

Over the next 20 years, the legacy of The Pharcyde and Labcabincalifornia has continued to rise. In the case of Labcabincalifornia, that’s in no small part due to the production work on the project from the legendary Jay Dee, aka J Dilla.

The Pharcyde - Labcabincalifornia (1995) (Expanded Edition 3CD, Reissue 2012) {Delicious Vinyl}

The Pharcyde’s landmark Labcabincalifornia just hit its 20th anniversary, having originally been released on November 14th, 1995.

The Pharcyde - Labcabincalifornia (1995) (Expanded Edition 3CD, Reissue 2012) {Delicious Vinyl}

The Bicycle Music Company celebrates with an all new pressing of the double gatefold LP. For the CD Set; Disc one features the original record from start to Disc two features all instrumentals including the Jay Dee beats for Runnin’ and Drop as well as the instrumental version of his remix of She Said. The third disc compiles the remixes and B-Cydes including the Rae & Christian remix of Runnin’ and the (previously) B Cyde only cut, Emerald Butterfly. The entire set is housed in a mini-box with magnet clasp with a book filled to the top with rarely seen photos, Pharcyde info and more.

The Pharcyde - Labcabincalifornia (1995) (Expanded Edition 3CD, Reissue 2012) {Delicious Vinyl}

Tracklist:

Disc 1 (Album)

The Pharcyde - Labcabincalifornia (1995) (Expanded Edition 3CD, Reissue 2012) {Delicious Vinyl}

01. Bullshit
02. Pharcyde
03. Groupie Therapy
04. Runnin’
05. She Said
06. Splattitorium
07. Somethin’ That Means Somethin’
08. All Live
09. Drop
10. Hey You
11. Y?
12. It’s All Good
13. Moment In Time
14. The Hustle Featuring – Big Boy , Randy Mack, Schmooche Cat
15. Little D
16. Devil Music
17. The E.N.D.

XLD log Disc 1 (Album)
X Lossless Decoder version 20120908 (141.1)

XLD extraction logfile from 2012-09-21 18:02:53 -0400

The Pharcyde / Labcabincalifornia

Used drive : TSSTcorp CDDVDW SE-S084D (revision TS01)

Ripper mode : XLD Secure Ripper
Disable audio cache : OK for the drive with a cache less than 1375KiB
Make use of C2 pointers : NO
Read offset correction : 6
Max retry count : 100
Gap status : Analyzed, Appended

TOC of the extracted CD
Track | Start | Length | Start sector | End sector
––––––––––––––––––––––––––––-
1 | 00:00:00 | 04:10:42 | 0 | 18791
2 | 04:10:42 | 04:21:48 | 18792 | 38414
3 | 08:32:15 | 05:12:52 | 38415 | 61866
4 | 13:44:67 | 04:56:20 | 61867 | 84086
5 | 18:41:12 | 05:15:48 | 84087 | 107759
6 | 23:56:60 | 02:58:57 | 107760 | 121166
7 | 26:55:42 | 03:30:65 | 121167 | 136981
8 | 30:26:32 | 00:52:28 | 136982 | 140909
9 | 31:18:60 | 05:34:35 | 140910 | 165994
10 | 36:53:20 | 03:54:37 | 165995 | 183581
11 | 40:47:57 | 05:04:65 | 183582 | 206446
12 | 45:52:47 | 00:41:53 | 206447 | 209574
13 | 46:34:25 | 02:44:02 | 209575 | 221876
14 | 49:18:27 | 05:34:60 | 221877 | 246986
15 | 54:53:12 | 01:31:20 | 246987 | 253831
16 | 56:24:32 | 04:12:63 | 253832 | 272794
17 | 60:37:20 | 04:40:00 | 272795 | 293794

List of alternate offset correction values
# | Absolute | Relative | Confidence
–––––––––––––––––––––
1 | 150 | 144 | 27
2 | 706 | 700 | 15

AccurateRip Summary (DiscID: 002a3041-020c4687-040f4d11)
Track 01 : OK (v1, confidence 25/39, with different offset)
Track 02 : OK (v1, confidence 27/41, with different offset)
Track 03 : OK (v1, confidence 24/38, with different offset)
Track 04 : OK (v1, confidence 26/41, with different offset)
Track 05 : OK (v1, confidence 23/38, with different offset)
Track 06 : OK (v1, confidence 25/40, with different offset)
Track 07 : OK (v1, confidence 26/40, with different offset)
Track 08 : OK (v1, confidence 26/40, with different offset)
Track 09 : OK (v1, confidence 25/38, with different offset)
Track 10 : OK (v1, confidence 25/40, with different offset)
Track 11 : OK (v1, confidence 23/36, with different offset)
Track 12 : OK (v1, confidence 23/38, with different offset)
Track 13 : OK (v1, confidence 23/36, with different offset)
Track 14 : OK (v1, confidence 23/37, with different offset)
Track 15 : OK (v1, confidence 22/37, with different offset)
Track 16 : OK (v1, confidence 24/38, with different offset)
Track 17 : OK (v1, confidence 21/34, with different offset)
->All tracks accurately ripped.

All Tracks
Album gain : -6.22 dB
Peak : 1.000000
Statistics
Read error : 0
Jitter error (maybe fixed) : 0
Retry sector count : 0
Damaged sector count : 0

Track 01
Filename : /Users/eliingersoll/Desktop/XLD Rips/01 The Pharcyde – Bullshit.flac
Pre-gap length : 00:02:00

Track gain : -7.04 dB
Peak : 0.994720
CRC32 hash (test run) : A11AAF4E
CRC32 hash : A11AAF4E
CRC32 hash (skip zero) : C59F1A12
AccurateRip v1 signature : AAD26294 (5AE84022 w/correction)
AccurateRip v2 signature : 073E140F
->Accurately ripped with different offset (v1, confidence 25/39, offset +144)
Statistics
Read error : 0
Jitter error (maybe fixed) : 0
Retry sector count : 0
Damaged sector count : 0

Track 02
Filename : /Users/eliingersoll/Desktop/XLD Rips/02 The Pharcyde – Pharcyde.flac

Track gain : -5.04 dB
Peak : 1.000000
CRC32 hash (test run) : 700C932D
CRC32 hash : 700C932D
CRC32 hash (skip zero) : F1C22B45
AccurateRip v1 signature : 4B685FB1 (51309AC0 w/correction)
AccurateRip v2 signature : 6FC5279D
->Accurately ripped with different offset (v1, confidence 27/41, offset +144)
Statistics
Read error : 0
Jitter error (maybe fixed) : 0
Retry sector count : 0
Damaged sector count : 0

Track 03
Filename : /Users/eliingersoll/Desktop/XLD Rips/03 The Pharcyde – Groupie Therapy.flac

Track gain : -6.45 dB
Peak : 1.000000
CRC32 hash (test run) : A2DB2E80
CRC32 hash : A2DB2E80
CRC32 hash (skip zero) : B3993814
AccurateRip v1 signature : 15C0A045 (43AD2E1C w/correction)
AccurateRip v2 signature : 6685749E
->Accurately ripped with different offset (v1, confidence 24/38, offset +144)
Statistics
Read error : 0
Jitter error (maybe fixed) : 0
Retry sector count : 0
Damaged sector count : 0

Track 04
Filename : /Users/eliingersoll/Desktop/XLD Rips/04 The Pharcyde – Runnin’.flac

Track gain : -6.48 dB
Peak : 1.000000
CRC32 hash (test run) : FA46744E
CRC32 hash : FA46744E
CRC32 hash (skip zero) : 7A7676F9
AccurateRip v1 signature : 3D1BA36B (0AC87B86 w/correction)
AccurateRip v2 signature : 5A34F90A
->Accurately ripped with different offset (v1, confidence 26/41, offset +144)
Statistics
Read error : 0
Jitter error (maybe fixed) : 0
Retry sector count : 0
Damaged sector count : 0

Track 05
Filename : /Users/eliingersoll/Desktop/XLD Rips/05 The Pharcyde – She Said.flac

Track gain : -7.95 dB
Peak : 1.000000
CRC32 hash (test run) : AF4D7F6A
CRC32 hash : AF4D7F6A
CRC32 hash (skip zero) : 010552BC
AccurateRip v1 signature : 82D76E4F (D7C5D4B5 w/correction)
AccurateRip v2 signature : 2BF22457
->Accurately ripped with different offset (v1, confidence 23/38, offset +144)
Statistics
Read error : 0
Jitter error (maybe fixed) : 0
Retry sector count : 0
Damaged sector count : 0

Track 06
Filename : /Users/eliingersoll/Desktop/XLD Rips/06 The Pharcyde – Splattitorium.flac

Track gain : -6.28 dB
Peak : 1.000000
CRC32 hash (test run) : E182E802
CRC32 hash : E182E802
CRC32 hash (skip zero) : 59E55149
AccurateRip v1 signature : 3E21E13A (8EC4B56C w/correction)
AccurateRip v2 signature : 31CFA775
->Accurately ripped with different offset (v1, confidence 25/40, offset +144)
Statistics
Read error : 0
Jitter error (maybe fixed) : 0
Retry sector count : 0
Damaged sector count : 0

Track 07
Filename : /Users/eliingersoll/Desktop/XLD Rips/07 The Pharcyde – Somethin’ That Means Somethin’.flac

Track gain : -6.12 dB
Peak : 0.995209
CRC32 hash (test run) : F1C232A7
CRC32 hash : F1C232A7
CRC32 hash (skip zero) : 58E2F3EF
AccurateRip v1 signature : 6FE34187 (C2EC0C71 w/correction)
AccurateRip v2 signature : 0E73AD6F
->Accurately ripped with different offset (v1, confidence 26/40, offset +144)
Statistics
Read error : 0
Jitter error (maybe fixed) : 0
Retry sector count : 0
Damaged sector count : 0

Track 08
Filename : /Users/eliingersoll/Desktop/XLD Rips/08 The Pharcyde – All Live.flac

Track gain : -4.47 dB
Peak : 0.976868
CRC32 hash (test run) : 0AA5204F
CRC32 hash : 0AA5204F
CRC32 hash (skip zero) : F17B615E
AccurateRip v1 signature : 706898FC (A1E0CFF6 w/correction)
AccurateRip v2 signature : 02A2D1FF
->Accurately ripped with different offset (v1, confidence 26/40, offset +144)
Statistics
Read error : 0
Jitter error (maybe fixed) : 0
Retry sector count : 0
Damaged sector count : 0

Track 09
Filename : /Users/eliingersoll/Desktop/XLD Rips/09 The Pharcyde – Drop.flac

Track gain : -7.40 dB
Peak : 1.000000
CRC32 hash (test run) : 30AC87F5
CRC32 hash : 30AC87F5
CRC32 hash (skip zero) : 87462F04
AccurateRip v1 signature : F76989A8 (AEA7E7B6 w/correction)
AccurateRip v2 signature : F9AA6E17
->Accurately ripped with different offset (v1, confidence 25/38, offset +144)
Statistics
Read error : 0
Jitter error (maybe fixed) : 0
Retry sector count : 0
Damaged sector count : 0

Track 10
Filename : /Users/eliingersoll/Desktop/XLD Rips/10 The Pharcyde – Hey You.flac

Track gain : -4.88 dB
Peak : 0.991455
CRC32 hash (test run) : B139ADE3
CRC32 hash : B139ADE3
CRC32 hash (skip zero) : 31AB0A66
AccurateRip v1 signature : 5D9016FE (CC06E243 w/correction)
AccurateRip v2 signature : FFCD524D
->Accurately ripped with different offset (v1, confidence 25/40, offset +144)
Statistics
Read error : 0
Jitter error (maybe fixed) : 0
Retry sector count : 0
Damaged sector count : 0

Track 11
Filename : /Users/eliingersoll/Desktop/XLD Rips/11 The Pharcyde – Y?.flac

Track gain : -6.94 dB
Peak : 1.000000
CRC32 hash (test run) : 59C3E1D0
CRC32 hash : 59C3E1D0
CRC32 hash (skip zero) : 8CF79578
AccurateRip v1 signature : 5C334577 (5281BD60 w/correction)
AccurateRip v2 signature : 1ECF8EB7
->Accurately ripped with different offset (v1, confidence 23/36, offset +144)
Statistics
Read error : 0
Jitter error (maybe fixed) : 0
Retry sector count : 0
Damaged sector count : 0

Track 12
Filename : /Users/eliingersoll/Desktop/XLD Rips/12 The Pharcyde – It’s All Good!.flac

Track gain : -2.70 dB
Peak : 0.987488
CRC32 hash (test run) : ED02672F
CRC32 hash : ED02672F
CRC32 hash (skip zero) : DB82F3B0
AccurateRip v1 signature : 5ED453CB (852AE7D2 w/correction)
AccurateRip v2 signature : 4568388E
->Accurately ripped with different offset (v1, confidence 23/38, offset +144)
Statistics
Read error : 0
Jitter error (maybe fixed) : 0
Retry sector count : 0
Damaged sector count : 0

Track 13
Filename : /Users/eliingersoll/Desktop/XLD Rips/13 The Pharcyde – Moment In Time.flac

Track gain : -1.72 dB
Peak : 0.978088
CRC32 hash (test run) : 4FDEF24E
CRC32 hash : 4FDEF24E
CRC32 hash (skip zero) : 364ECBCF
AccurateRip v1 signature : 8BC86FF9 (BF1B0131 w/correction)
AccurateRip v2 signature : 2E52223F
->Accurately ripped with different offset (v1, confidence 23/36, offset +144)
Statistics
Read error : 0
Jitter error (maybe fixed) : 0
Retry sector count : 0
Damaged sector count : 0

Track 14
Filename : /Users/eliingersoll/Desktop/XLD Rips/14 The Pharcyde – The Hustle.flac

Track gain : -5.26 dB
Peak : 0.992004
CRC32 hash (test run) : 73FC611A
CRC32 hash : 73FC611A
CRC32 hash (skip zero) : 6873F783
AccurateRip v1 signature : 4F2B1E57 (16B9843D w/correction)
AccurateRip v2 signature : D47444A4
->Accurately ripped with different offset (v1, confidence 23/37, offset +144)
Statistics
Read error : 0
Jitter error (maybe fixed) : 0
Retry sector count : 0
Damaged sector count : 0

Track 15
Filename : /Users/eliingersoll/Desktop/XLD Rips/15 The Pharcyde – Little D.flac

Track gain : -2.24 dB
Peak : 0.977661
CRC32 hash (test run) : 2FC84770
CRC32 hash : 2FC84770
CRC32 hash (skip zero) : 90A6B398
AccurateRip v1 signature : E2D12B43 (EE707BA5 w/correction)
AccurateRip v2 signature : 405885E1
->Accurately ripped with different offset (v1, confidence 22/37, offset +144)
Statistics
Read error : 0
Jitter error (maybe fixed) : 0
Retry sector count : 0
Damaged sector count : 0

Track 16
Filename : /Users/eliingersoll/Desktop/XLD Rips/16 The Pharcyde – Devil Music.flac

Track gain : -5.98 dB
Peak : 1.000000
CRC32 hash (test run) : 6F8BEBC2
CRC32 hash : 6F8BEBC2
CRC32 hash (skip zero) : 2532E9BE
AccurateRip v1 signature : 49E5FCDF (72C03913 w/correction)
AccurateRip v2 signature : 98EB080E
->Accurately ripped with different offset (v1, confidence 24/38, offset +144)
Statistics
Read error : 0
Jitter error (maybe fixed) : 0
Retry sector count : 0
Damaged sector count : 0

Track 17
Filename : /Users/eliingersoll/Desktop/XLD Rips/17 The Pharcyde – The E.N.D..flac

Track gain : -4.72 dB
Peak : 1.000000
CRC32 hash (test run) : E8D00A0E
CRC32 hash : E8D00A0E
CRC32 hash (skip zero) : 2CA88C8A
AccurateRip v1 signature : EB1805E6 (FACF6BB8 w/correction)
AccurateRip v2 signature : 9F0CA309
->Accurately ripped with different offset (v1, confidence 21/34, offset +144)
Statistics
Read error : 0
Jitter error (maybe fixed) : 0
Retry sector count : 0
Damaged sector count : 0

No errors occurred

End of status report

Disc 2 (Instrumentals)

The Pharcyde - Labcabincalifornia (1995) (Expanded Edition 3CD, Reissue 2012) {Delicious Vinyl}

01. Bullshit (Instrumental)
02. Pharcyde (Instrumental)
03. Groupie Therapy (Instrumental)
04. Runnin’ (Instrumental)
05. Somethin’ That Means Somethin’ (Instrumental)
06. Drop (Instrumental)
07. Devil Music (Instrumental)
08. The E.N.D. (Instrumental)
09. Y? – Be Like That (Jay Dee Remix) (Instrumental)
10. Drop (The Beatminerz Remix) (Instrumental)
11. She Said (Jay Dee Remix) (Instrumental)
12. Runnin’ (Philippians Remix)

XLD log Disc 2 (Instrumentals)
X Lossless Decoder version 20120908 (141.1)

XLD extraction logfile from 2012-09-21 17:35:37 -0400

The Pharcyde / Labcabincalifornia (Instrumentals)

Used drive : TSSTcorp CDDVDW SE-S084D (revision TS01)

Ripper mode : XLD Secure Ripper
Disable audio cache : OK for the drive with a cache less than 1375KiB
Make use of C2 pointers : NO
Read offset correction : 6
Max retry count : 100
Gap status : Analyzed, Appended

TOC of the extracted CD
Track | Start | Length | Start sector | End sector
––––––––––––––––––––––––––––-
1 | 00:00:00 | 04:19:11 | 0 | 19435
2 | 04:19:11 | 04:29:64 | 19436 | 39674
3 | 08:49:00 | 04:22:67 | 39675 | 59391
4 | 13:11:67 | 05:02:23 | 59392 | 82064
5 | 18:14:15 | 03:33:71 | 82065 | 98110
6 | 21:48:11 | 03:49:29 | 98111 | 115314
7 | 25:37:40 | 04:18:61 | 115315 | 134725
8 | 29:56:26 | 04:21:13 | 134726 | 154313
9 | 34:17:39 | 04:53:67 | 154314 | 176355
10 | 39:11:31 | 04:14:38 | 176356 | 195443
11 | 43:25:69 | 04:33:31 | 195444 | 215949
12 | 47:59:25 | 05:31:16 | 215950 | 240790

AccurateRip Summary
Disc not found in AccurateRip DB.

All Tracks
Album gain : -4.51 dB
Peak : 1.000000
Statistics
Read error : 0
Jitter error (maybe fixed) : 0
Retry sector count : 0
Damaged sector count : 0

Track 01
Filename : /Users/eliingersoll/Desktop/XLD Rips/01 The Pharcyde – Bullshit.flac
Pre-gap length : 00:02:00

Track gain : -4.32 dB
Peak : 0.977600
CRC32 hash (test run) : 66436CB8
CRC32 hash : 66436CB8
CRC32 hash (skip zero) : FF0BCB45
AccurateRip v1 signature : 6F3BB5CE
AccurateRip v2 signature : 17D47FFC
->Track not present in AccurateRip database.
Statistics
Read error : 0
Jitter error (maybe fixed) : 0
Retry sector count : 0
Damaged sector count : 0

Track 02
Filename : /Users/eliingersoll/Desktop/XLD Rips/02 The Pharcyde – Pharcyde.flac

Track gain : -3.80 dB
Peak : 0.977692
CRC32 hash (test run) : 75E7972B
CRC32 hash : 75E7972B
CRC32 hash (skip zero) : 40B8661F
AccurateRip v1 signature : F77DAA1B
AccurateRip v2 signature : D4794A7F
->Track not present in AccurateRip database.
Statistics
Read error : 0
Jitter error (maybe fixed) : 0
Retry sector count : 0
Damaged sector count : 0

Track 03
Filename : /Users/eliingersoll/Desktop/XLD Rips/03 The Pharcyde – Groupie Therapy.flac

Track gain : -6.27 dB
Peak : 0.977661
CRC32 hash (test run) : 447763B4
CRC32 hash : 447763B4
CRC32 hash (skip zero) : 378687B4
AccurateRip v1 signature : 2D234C49
AccurateRip v2 signature : 675583CC
->Track not present in AccurateRip database.
Statistics
Read error : 0
Jitter error (maybe fixed) : 0
Retry sector count : 0
Damaged sector count : 0

Track 04
Filename : /Users/eliingersoll/Desktop/XLD Rips/04 The Pharcyde – Runnin’.flac

Track gain : -6.23 dB
Peak : 0.977753
CRC32 hash (test run) : 8DA76DD3
CRC32 hash : 8DA76DD3
CRC32 hash (skip zero) : 0616D0EA
AccurateRip v1 signature : 5FB30936
AccurateRip v2 signature : A08D49E7
->Track not present in AccurateRip database.
Statistics
Read error : 0
Jitter error (maybe fixed) : 0
Retry sector count : 0
Damaged sector count : 0

Track 05
Filename : /Users/eliingersoll/Desktop/XLD Rips/05 The Pharcyde – Somethin’ That Means Somethin’.flac

Track gain : -5.03 dB
Peak : 0.977600
CRC32 hash (test run) : 0ACDAB79
CRC32 hash : 0ACDAB79
CRC32 hash (skip zero) : 646B6D96
AccurateRip v1 signature : 27766429
AccurateRip v2 signature : 99847511
->Track not present in AccurateRip database.
Statistics
Read error : 0
Jitter error (maybe fixed) : 0
Retry sector count : 0
Damaged sector count : 0

Track 06
Filename : /Users/eliingersoll/Desktop/XLD Rips/06 The Pharcyde – Drop.flac

Track gain : -5.39 dB
Peak : 0.977692
CRC32 hash (test run) : 268A3652
CRC32 hash : 268A3652
CRC32 hash (skip zero) : 63D7C74D
AccurateRip v1 signature : E8570C58
AccurateRip v2 signature : E925C361
->Track not present in AccurateRip database.
Statistics
Read error : 0
Jitter error (maybe fixed) : 0
Retry sector count : 0
Damaged sector count : 0

Track 07
Filename : /Users/eliingersoll/Desktop/XLD Rips/07 The Pharcyde – Devil Music.flac

Track gain : -3.75 dB
Peak : 0.977631
CRC32 hash (test run) : 2309AB0A
CRC32 hash : 2309AB0A
CRC32 hash (skip zero) : 8A5369A5
AccurateRip v1 signature : F5BF2089
AccurateRip v2 signature : D9AEE124
->Track not present in AccurateRip database.
Statistics
Read error : 0
Jitter error (maybe fixed) : 0
Retry sector count : 0
Damaged sector count : 0

Track 08
Filename : /Users/eliingersoll/Desktop/XLD Rips/08 The Pharcyde – The E.N.D..flac

Track gain : -5.96 dB
Peak : 0.977692
CRC32 hash (test run) : 2D01B7E4
CRC32 hash : 2D01B7E4
CRC32 hash (skip zero) : 5D4C71DF
AccurateRip v1 signature : E3D81940
AccurateRip v2 signature : 1F86AD09
->Track not present in AccurateRip database.
Statistics
Read error : 0
Jitter error (maybe fixed) : 0
Retry sector count : 0
Damaged sector count : 0

Track 09
Filename : /Users/eliingersoll/Desktop/XLD Rips/09 The Pharcyde – Y? – Be Like That (Jay Dee Remix).flac

Track gain : -4.35 dB
Peak : 0.999969
CRC32 hash (test run) : 1D019A5D
CRC32 hash : 1D019A5D
CRC32 hash (skip zero) : 8E2231AE
AccurateRip v1 signature : D666483A
AccurateRip v2 signature : 01F6CEEE
->Track not present in AccurateRip database.
Statistics
Read error : 0
Jitter error (maybe fixed) : 0
Retry sector count : 0
Damaged sector count : 0

Track 10
Filename : /Users/eliingersoll/Desktop/XLD Rips/10 The Pharcyde – Drop (Da Beatminerz Remix).flac

Track gain : -3.96 dB
Peak : 1.000000
CRC32 hash (test run) : C62B4020
CRC32 hash : C62B4020
CRC32 hash (skip zero) : F799C9DA
AccurateRip v1 signature : 96DDC287
AccurateRip v2 signature : 7A14EBF9
->Track not present in AccurateRip database.
Statistics
Read error : 0
Jitter error (maybe fixed) : 0
Retry sector count : 0
Damaged sector count : 0

Track 11
Filename : /Users/eliingersoll/Desktop/XLD Rips/11 The Pharcyde – She Said (Jay Dee Remix).flac

Track gain : -4.18 dB
Peak : 0.985931
CRC32 hash (test run) : 4187343B
CRC32 hash : 4187343B
CRC32 hash (skip zero) : AB3F5D90
AccurateRip v1 signature : 5C27A0FF
AccurateRip v2 signature : 089E7F07
->Track not present in AccurateRip database.
Statistics
Read error : 0
Jitter error (maybe fixed) : 0
Retry sector count : 0
Damaged sector count : 0

Track 12
Filename : /Users/eliingersoll/Desktop/XLD Rips/12 The Pharcyde – Runnin’ (Philippians Remix).flac

Track gain : -1.69 dB
Peak : 0.455475
CRC32 hash (test run) : EC8415A4
CRC32 hash : EC8415A4
CRC32 hash (skip zero) : FC3A93A7
AccurateRip v1 signature : 1B59E44C
AccurateRip v2 signature : B4C16E8C
->Track not present in AccurateRip database.
Statistics
Read error : 0
Jitter error (maybe fixed) : 0
Retry sector count : 0
Damaged sector count : 0

No errors occurred

End of status report

Disc 3 (Remixes & B-Cydes)

The Pharcyde - Labcabincalifornia (1995) (Expanded Edition 3CD, Reissue 2012) {Delicious Vinyl}

01. Just Don’t Matter Featuring – Buckwheat
02. She Said (Mike Caren Remix)
03. Drop (The Beatminerz Remix)
04. Pandemonium
05. Y? – Be Like That (Jay Dee Remix)
06. She Said (Jay Dee Remix)
07. Emerald Butterfly
08. Runnin’ (Rae & Christian Remix)
09. She Said (Fuzz Face & tWANK boy Remix)
10. Runnin’ (Philippians Remix)
11. My Soul

XLD log Disc 3 (Remixes & B-Cydes)
X Lossless Decoder version 20120908 (141.1)

XLD extraction logfile from 2012-09-21 17:09:20 -0400

The Pharcyde / Labcabincalifornia Remixes & B-Cydes

Used drive : TSSTcorp CDDVDW SE-S084D (revision TS01)

Ripper mode : XLD Secure Ripper
Disable audio cache : OK for the drive with a cache less than 1375KiB
Make use of C2 pointers : NO
Read offset correction : 6
Max retry count : 100
Gap status : Analyzed, Appended

TOC of the extracted CD
Track | Start | Length | Start sector | End sector
––––––––––––––––––––––––––––-
1 | 00:00:00 | 05:58:11 | 0 | 26860
2 | 05:58:11 | 04:14:11 | 26861 | 45921
3 | 10:12:22 | 04:21:20 | 45922 | 65516
4 | 14:33:42 | 04:20:61 | 65517 | 85077
5 | 18:54:28 | 04:55:22 | 85078 | 107224
6 | 23:49:50 | 04:56:00 | 107225 | 129424
7 | 28:45:50 | 04:46:20 | 129425 | 150894
8 | 33:31:70 | 06:25:14 | 150895 | 179783
9 | 39:57:09 | 04:34:21 | 179784 | 200354
10 | 44:31:30 | 05:31:08 | 200355 | 225187
11 | 50:02:38 | 05:32:44 | 225188 | 250131

AccurateRip Summary
Disc not found in AccurateRip DB.

All Tracks
Album gain : -7.39 dB
Peak : 0.977783
Statistics
Read error : 0
Jitter error (maybe fixed) : 0
Retry sector count : 0
Damaged sector count : 0

Track 01
Filename : /Users/eliingersoll/Desktop/XLD Rips/01 The Pharcyde – Just Don’t Matter.flac
Pre-gap length : 00:02:00

Track gain : -4.71 dB
Peak : 0.977722
CRC32 hash (test run) : 7ABDB1DE
CRC32 hash : 7ABDB1DE
CRC32 hash (skip zero) : 1261A9AD
AccurateRip v1 signature : 0D881E4C
AccurateRip v2 signature : E3FC55ED
->Track not present in AccurateRip database.
Statistics
Read error : 0
Jitter error (maybe fixed) : 0
Retry sector count : 0
Damaged sector count : 0

Track 02
Filename : /Users/eliingersoll/Desktop/XLD Rips/02 The Pharcyde – She Said (Mike Caren Remix).flac

Track gain : -7.97 dB
Peak : 0.977753
CRC32 hash (test run) : 7E8C935D
CRC32 hash : 7E8C935D
CRC32 hash (skip zero) : AB9FB04D
AccurateRip v1 signature : 08F9E927
AccurateRip v2 signature : D4887DCE
->Track not present in AccurateRip database.
Statistics
Read error : 0
Jitter error (maybe fixed) : 0
Retry sector count : 0
Damaged sector count : 0

Track 03
Filename : /Users/eliingersoll/Desktop/XLD Rips/03 The Pharcyde – Drop (Da Beatminerz Remix).flac

Track gain : -9.35 dB
Peak : 0.977722
CRC32 hash (test run) : 41E5333A
CRC32 hash : 41E5333A
CRC32 hash (skip zero) : C7C22CED
AccurateRip v1 signature : B7053826
AccurateRip v2 signature : AA7678D2
->Track not present in AccurateRip database.
Statistics
Read error : 0
Jitter error (maybe fixed) : 0
Retry sector count : 0
Damaged sector count : 0

Track 04
Filename : /Users/eliingersoll/Desktop/XLD Rips/04 The Pharcyde – Pandemonium.flac

Track gain : -8.40 dB
Peak : 0.977753
CRC32 hash (test run) : 401F6A57
CRC32 hash : 401F6A57
CRC32 hash (skip zero) : 7E20F7AE
AccurateRip v1 signature : A71B56B4
AccurateRip v2 signature : ECEB94BB
->Track not present in AccurateRip database.
Statistics
Read error : 0
Jitter error (maybe fixed) : 0
Retry sector count : 0
Damaged sector count : 0

Track 05
Filename : /Users/eliingersoll/Desktop/XLD Rips/05 The Pharcyde – Y? – Be Like That (Jay Dee Remix).flac

Track gain : -7.30 dB
Peak : 0.977753
CRC32 hash (test run) : 6F6E0AD8
CRC32 hash : 6F6E0AD8
CRC32 hash (skip zero) : DF76857F
AccurateRip v1 signature : 6D7991F5
AccurateRip v2 signature : 79738F1A
->Track not present in AccurateRip database.
Statistics
Read error : 0
Jitter error (maybe fixed) : 0
Retry sector count : 0
Damaged sector count : 0

Track 06
Filename : /Users/eliingersoll/Desktop/XLD Rips/06 The Pharcyde – She Said (Jay Dee Remix).flac

Track gain : -7.15 dB
Peak : 0.977692
CRC32 hash (test run) : 48958F1D
CRC32 hash : 48958F1D
CRC32 hash (skip zero) : 988D9605
AccurateRip v1 signature : 0EA45DFE
AccurateRip v2 signature : E1629344
->Track not present in AccurateRip database.
Statistics
Read error : 0
Jitter error (maybe fixed) : 0
Retry sector count : 0
Damaged sector count : 0

Track 07
Filename : /Users/eliingersoll/Desktop/XLD Rips/07 The Pharcyde – Emerald Butterfly.flac

Track gain : -5.71 dB
Peak : 0.977692
CRC32 hash (test run) : 8A589242
CRC32 hash : 8A589242
CRC32 hash (skip zero) : EAC1ECF7
AccurateRip v1 signature : 2B78162A
AccurateRip v2 signature : F9FDDB96
->Track not present in AccurateRip database.
Statistics
Read error : 0
Jitter error (maybe fixed) : 0
Retry sector count : 0
Damaged sector count : 0

Track 08
Filename : /Users/eliingersoll/Desktop/XLD Rips/08 The Pharcyde – Runnin’ (Rae & Christian Remix).flac

Track gain : -5.70 dB
Peak : 0.977783
CRC32 hash (test run) : F5921B29
CRC32 hash : F5921B29
CRC32 hash (skip zero) : CCF780DB
AccurateRip v1 signature : 994CCAE9
AccurateRip v2 signature : 65FD72F5
->Track not present in AccurateRip database.
Statistics
Read error : 0
Jitter error (maybe fixed) : 0
Retry sector count : 0
Damaged sector count : 0

Track 09
Filename : /Users/eliingersoll/Desktop/XLD Rips/09 The Pharcyde – She Said (Fuzz Face & Twank Boy Remix).flac

Track gain : -8.37 dB
Peak : 0.977722
CRC32 hash (test run) : A12095E2
CRC32 hash : A12095E2
CRC32 hash (skip zero) : C0FDC3BE
AccurateRip v1 signature : CF9AF1BF
AccurateRip v2 signature : D05DAC35
->Track not present in AccurateRip database.
Statistics
Read error : 0
Jitter error (maybe fixed) : 0
Retry sector count : 0
Damaged sector count : 0

Track 10
Filename : /Users/eliingersoll/Desktop/XLD Rips/10 The Pharcyde – Runnin’ (Philippians Remix).flac

Track gain : -4.24 dB
Peak : 0.547577
CRC32 hash (test run) : 138EF9B4
CRC32 hash : 138EF9B4
CRC32 hash (skip zero) : 1D5E718D
AccurateRip v1 signature : 316A929C
AccurateRip v2 signature : BBD083D8
->Track not present in AccurateRip database.
Statistics
Read error : 0
Jitter error (maybe fixed) : 0
Retry sector count : 0
Damaged sector count : 0

Track 11
Filename : /Users/eliingersoll/Desktop/XLD Rips/11 The Pharcyde – My Soul.flac

Track gain : -8.47 dB
Peak : 0.977661
CRC32 hash (test run) : 31F91868
CRC32 hash : 31F91868
CRC32 hash (skip zero) : 0125EC33
AccurateRip v1 signature : 5EB58517
AccurateRip v2 signature : 7D1820A5
->Track not present in AccurateRip database.
Statistics
Read error : 0
Jitter error (maybe fixed) : 0
Retry sector count : 0
Damaged sector count : 0

No errors occurred

End of status report

Thanks to the Original customer.

The Pharcyde – Labcabincalifornia (1995) (Expanded Edition 3CD, Reissue 2012) {Delicious Vinyl} Download, Warez, DDL, Free, Full Album, Torrent, Legal.

Tags:

  • pharcyde instrumentals flac torrent
Download